osu file format v14

[General]
AudioFilename: audio.mp3
AudioLeadIn: 0
PreviewTime: 52422
Countdown: 0
SampleSet: Soft
StackLeniency: 0.7
Mode: 0
LetterboxInBreaks: 0
WidescreenStoryboard: 0

[Editor]
DistanceSpacing: 1
BeatDivisor: 4
GridSize: 32
TimelineZoom: 1.299999

[Metadata]
Title:night birds
TitleUnicode:night birds
Artist:KISIDA KYODAN & THE AKEBOSI ROCKETS
ArtistUnicode:岸田教団&THE明星ロケッツ
Creator:SMOKELIND
Version:kowari's normal
Source:東方紅魔郷 ~ the Embodiment of Scarlet Devil.
Tags:japanese jp rock j-rock Kishida and Akeboshi ZUN ほおずきみたいに紅い魂 kowari
BeatmapID:1982348
BeatmapSetID:949316

[Difficulty]
HPDrainRate:3
CircleSize:3.3
OverallDifficulty:3.7
ApproachRate:5.2
SliderMultiplier:1.07
SliderTickRate:1

[Events]
//Background and Video events
0,0,"HaruLoli.jpg",0,0
//Break Periods
//Storyboard Layer 0 (Background)
//Storyboard Layer 1 (Fail)
//Storyboard Layer 2 (Pass)
//Storyboard Layer 3 (Foreground)
//Storyboard Sound Samples

[TimingPoints]
575,326.086956521739,4,2,7,47,1,0
575,-111.111111111111,4,2,7,47,0,0
7748,-100,4,2,7,77,0,0
9868,-100,4,2,7,77,0,0
15248,352.941176470588,4,2,7,77,1,0
15248,-100,4,2,7,77,0,0
15600,313.479623824451,4,2,7,77,1,0
15600,-100,4,2,7,77,0,0
16227,326.086956521739,4,2,7,77,1,0
16227,-100,4,2,7,77,0,0
20792,387.096774193548,4,2,7,77,1,0
20792,-100,4,2,7,77,0,0
20985,307.692307692308,4,2,7,77,1,0
20985,-100,4,2,7,77,0,0
21444,326.086956521739,4,2,7,47,1,0
21444,-100,4,2,7,47,0,0
25357,348.837209302326,4,2,7,47,1,0
25357,-100,4,2,7,47,0,0
25880,309.278350515464,4,2,7,47,1,0
26034,276.497695852535,4,2,7,47,1,0
26172,326.086956521739,4,2,7,47,1,0
26661,326.086956521739,4,2,7,47,1,0
26661,-100,4,2,7,47,0,0
30411,352.941176470588,4,2,7,47,1,0
30411,-100,4,2,7,47,0,0
30940,312.5,4,2,7,57,1,0
30940,-100,4,2,7,57,0,0
31252,326.086956521739,4,2,7,57,1,0
31252,-100,4,2,7,57,0,0
31904,326.086956521739,4,2,7,57,1,0
31904,-100,4,2,7,57,0,0
32556,304.568527918782,4,2,7,57,1,0
32556,-100,4,2,7,57,0,0
32708,303.030303030303,4,2,7,57,1,0
32859,324.324324324324,4,2,7,57,1,0
33183,326.086956521739,4,2,7,57,1,0
33183,-100,4,2,7,57,0,0
41987,-100,4,2,7,57,0,0
47530,-100,4,2,7,67,0,0
52748,-90.9090909090909,4,2,7,87,0,0
71009,337.078651685393,4,2,7,87,1,0
71009,-90.9090909090909,4,2,7,87,0,0
72357,317.460317460317,4,2,7,87,1,0
72357,-90.9090909090909,4,2,7,87,0,0
73626,326.086956521739,4,2,7,77,1,0
73626,-100,4,2,7,77,0,0
94495,-100,4,2,7,77,0,0
94577,-100,4,2,7,5,0,0

[Colours]
Combo1 : 255,213,170
Combo2 : 255,79,79
Combo3 : 255,167,79
Combo4 : 255,170,170

[HitObjects]
41,92,575,6,0,P|78:81|143:94,1,96.2999970611573,2|0,1:0|1:0,0:0:0:0:
200,158,1227,2,0,P|246:167|293:155,1,96.2999970611573,0|0,1:0|1:0,0:0:0:0:
366,93,1879,2,0,L|383:207,1,96.2999970611573,2|0,1:0|1:0,0:0:0:0:
298,238,2531,2,0,L|281:352,1,96.2999970611573,0|0,1:0|1:0,0:0:0:0:
374,365,3183,6,0,P|436:372|473:348,1,96.2999970611573,2|0,1:0|1:0,0:0:0:0:
473,260,3835,1,0,1:0:0:0:
470,163,4161,1,0,1:0:0:0:
466,66,4488,2,0,P|404:59|367:83,1,96.2999970611573,2|0,1:0|1:0,0:0:0:0:
340,163,5140,2,0,L|344:226,1,48.1499985305787,0|0,1:0|0:0,0:0:0:0:
350,258,5466,1,2,1:0:0:0:
363,353,5792,6,0,L|261:343,1,96.2999970611573,6|0,1:0|1:0,0:0:0:0:
219,334,6281,1,0,0:0:0:0:
219,334,6444,2,0,L|236:281,2,48.1499985305787,2|2|2,1:0|0:0|1:0,0:0:0:0:
122,337,7096,2,0,P|82:297|84:254,1,96.2999970611573,2|0,1:0|1:0,0:0:0:0:
114,224,7585,1,0,0:0:0:0:
114,224,7748,2,0,L|177:214,2,53.5,2|2|2,1:0|0:0|1:0,0:0:0:0:
33,153,8401,1,2,1:0:0:0:
256,192,8564,12,10,9868,0:0:0:0:
44,33,11009,6,0,L|49:148,1,107,6|10,1:0|0:0,0:0:0:0:
155,139,11661,2,0,L|150:254,1,107,2|10,1:0|0:0,0:0:0:0:
145,299,12151,1,2,0:0:0:0:
145,299,12314,2,0,L|204:314,1,53.5,2|0,1:0|0:0,0:0:0:0:
248,327,12640,1,10,0:0:0:0:
290,228,12966,2,0,L|349:213,1,53.5,2|2,1:0|0:0,0:0:0:0:
393,200,13292,1,10,0:0:0:0:
488,247,13618,6,0,P|497:303|453:351,1,107,6|10,1:0|0:0,0:0:0:0:
366,315,14270,2,0,P|325:298|261:315,1,107,2|10,1:0|0:0,0:0:0:0:
224,345,14759,1,2,0:0:0:0:
224,345,14922,2,0,P|231:300|227:286,1,53.5,2|2,1:0|0:0,0:0:0:0:
196,256,15248,1,10,0:0:0:0:
75,257,15600,2,0,L|61:150,1,107,8|8,3:0|0:0,0:0:0:0:
99,55,16227,6,0,P|148:44|198:66,1,107,6|10,1:0|0:0,0:0:0:0:
245,162,16879,2,0,P|296:172|344:150,1,107,2|10,1:0|0:0,0:0:0:0:
364,101,17368,1,2,0:0:0:0:
364,101,17531,2,0,L|344:30,2,53.5,2|2|10,1:0|0:0|0:0,0:0:0:0:
461,146,18183,2,0,L|481:75,2,53.5,2|2|10,1:0|0:0|0:0,0:0:0:0:
445,251,18835,6,0,L|455:364,1,107,6|10,1:0|0:0,0:0:0:0:
357,312,19487,2,0,P|319:294|254:313,1,107,2|10,1:0|0:0,0:0:0:0:
222,349,19977,1,0,0:0:0:0:
222,349,20140,2,0,L|206:287,1,53.5,2|2,1:0|0:0,0:0:0:0:
190,246,20466,1,10,0:0:0:0:
228,154,20792,2,0,P|258:138|282:135,1,53.5,8|10,3:0|0:0,0:0:0:0:
324,159,21138,1,14,0:0:0:0:
418,201,21444,6,0,L|426:85,1,107,2|0,1:0|1:0,0:0:0:0:
346,21,22096,1,2,1:0:0:0:
260,85,22422,1,2,1:0:0:0:
171,25,22748,2,0,P|123:16|58:42,1,107,2|0,1:0|1:0,0:0:0:0:
40,136,23400,1,2,1:0:0:0:
101,223,23726,1,0,1:0:0:0:
40,311,24052,6,0,P|89:331|159:314,1,107,2|0,1:0|1:0,0:0:0:0:
211,243,24704,2,0,P|260:223|330:240,1,107,2|0,1:0|1:0,0:0:0:0:
370,315,25357,1,2,1:0:0:0:
464,265,25705,2,0,L|452:187,1,53.5,0|8,1:0|3:0,0:0:0:0:
433,59,26335,1,10,0:0:0:0:
340,113,26661,6,0,P|321:158|326:215,1,107,6|0,1:0|1:0,0:0:0:0:
370,315,27313,2,0,B|255:324,1,107,2|2,1:0|1:0,0:0:0:0:
174,264,27965,1,2,1:0:0:0:
87,327,28291,1,2,1:0:0:0:
19,243,28617,2,0,P|8:193|33:137,1,107,2|0,1:0|1:0,0:0:0:0:
135,142,29269,6,0,L|255:157,1,107,2|2,1:0|1:0,0:0:0:0:
293,165,29758,2,0,P|322:130|322:64,1,107,2|2,0:0|0:0,0:0:0:0:
287,32,30247,1,2,1:0:0:0:
184,45,30587,6,0,L|74:50,1,107,0|0,1:0|1:0,0:0:0:0:
36,143,31252,2,0,L|146:148,1,107,8|10,0:0|0:0,0:0:0:0:
247,169,31904,6,0,P|272:209|263:286,1,107,6|8,1:0|0:0,0:0:0:0:
209,363,32556,2,0,L|282:364,1,53.5,2|0,0:0|1:0,0:0:0:0:
312,364,32859,1,10,0:0:0:0:
418,361,33183,2,0,L|483:359,2,53.5,2|0|8,1:0|1:0|0:0,0:0:0:0:
362,269,33835,1,2,0:0:0:0:
408,172,34161,1,8,0:0:0:0:
365,73,34487,6,0,P|315:51|255:63,1,107,2|8,1:0|0:0,0:0:0:0:
207,148,35139,2,0,L|212:205,2,53.5,2|2|8,0:0|1:0|0:0,0:0:0:0:
164,49,35791,2,0,P|129:40|107:40,1,53.5,2|0,1:0|0:0,0:0:0:0:
60,54,36117,1,8,0:0:0:0:
17,152,36443,2,0,L|22:270,1,107,0|10,0:0|0:0,0:0:0:0:
67,355,37096,6,0,P|104:367|179:349,1,107,2|8,1:0|0:0,0:0:0:0:
200,252,37748,1,2,0:0:0:0:
200,252,37911,2,0,L|194:178,1,53.5,0|10,1:0|0:0,0:0:0:0:
189,91,38400,2,0,P|218:73|297:90,1,107,2|8,1:0|0:0,0:0:0:0:
354,165,39052,2,0,L|344:229,2,53.5,2|0|8,1:0|1:0|0:0,0:0:0:0:
455,130,39704,6,0,L|461:252,1,107,2|10,1:0|0:0,0:0:0:0:
462,290,40193,2,0,P|430:322|363:328,1,107,2|2,0:0|1:0,0:0:0:0:
332,292,40683,1,10,0:0:0:0:
332,292,40846,1,6,1:0:0:0:
234,337,41172,1,0,1:0:0:0:
234,337,41335,2,0,L|177:331,1,53.5,8|0,0:0|1:0,0:0:0:0:
140,295,41661,2,0,L|86:300,1,53.5,8|0,3:0|0:0,0:0:0:0:
34,313,41987,1,10,3:0:0:0:
7,209,42313,6,0,L|5:90,1,107,6|2,1:0|0:0,0:0:0:0:
77,23,42965,2,0,P|137:13|183:36,1,107,10|2,0:0|0:0,0:0:0:0:
190,83,43454,2,0,L|190:197,1,107,2|8,1:0|0:0,0:0:0:0:
190,243,43943,1,2,0:0:0:0:
225,343,44269,1,10,0:0:0:0:
320,295,44596,1,2,0:0:0:0:
410,351,44922,6,0,P|425:315|408:241,1,107,2|2,1:0|0:0,0:0:0:0:
320,196,45574,2,0,L|202:197,1,107,10|2,0:0|0:0,0:0:0:0:
159,195,46063,2,0,P|141:162|162:87,1,107,2|8,1:0|0:0,0:0:0:0:
195,62,46552,1,0,1:0:0:0:
301,50,46878,2,0,L|362:52,2,53.5,8|8|10,0:0|3:0|0:0,0:0:0:0:
195,62,47530,6,0,L|66:57,1,107,6|10,1:0|0:0,0:0:0:0:
17,138,48182,2,0,P|1:185|21:253,1,107,2|10,1:0|0:0,0:0:0:0:
61,261,48672,2,0,L|170:256,1,107,2|0,0:0|1:0,0:0:0:0:
221,252,49161,1,10,0:0:0:0:
327,249,49487,1,2,1:0:0:0:
332,355,49813,1,10,0:0:0:0:
225,360,50139,5,2,1:0:0:0:
256,192,50302,12,8,51769,0:0:0:0:
442,291,52748,6,0,L|439:357,2,58.8500017959595,6|2|10,1:0|0:0|0:0,0:0:0:0:
448,232,53237,1,2,0:0:0:0:
448,232,53400,2,0,L|446:108,1,117.700003591919,2|10,1:0|0:0,0:0:0:0:
444,55,53889,1,2,0:0:0:0:
332,18,54215,1,2,0:0:0:0:
332,18,54378,2,0,L|272:22,1,58.8500017959595,10|2,0:0|0:0,0:0:0:0:
217,41,54704,2,0,P|196:81|207:156,1,117.700003591919,2|10,1:0|0:0,0:0:0:0:
307,208,55356,6,0,L|300:336,1,117.700003591919,2|8,1:0|0:0,0:0:0:0:
187,357,56009,2,0,L|189:293,1,58.8500017959595,2|2,1:0|0:0,0:0:0:0:
193,239,56335,1,10,0:0:0:0:
193,239,56498,2,0,P|141:222|81:247,1,117.700003591919,2|2,0:0|0:0,0:0:0:0:
58,352,57150,2,0,L|-4:344,2,58.8500017959595,2|0|0,0:0|1:0|0:0,0:0:0:0:
114,367,57639,1,10,0:0:0:0:
84,243,57965,6,0,L|84:179,1,58.8500017959595,6|2,1:0|0:0,0:0:0:0:
89,134,58291,2,0,L|89:70,1,58.8500017959595,10|2,0:0|0:0,0:0:0:0:
96,16,58617,2,0,P|145:-5|205:14,1,117.700003591919,2|10,1:0|0:0,0:0:0:0:
230,66,59106,1,2,0:0:0:0:
249,182,59432,2,0,L|309:177,2,58.8500017959595,2|10|2,0:0|0:0|0:0,0:0:0:0:
194,204,59922,2,0,L|206:325,1,117.700003591919,2|10,1:0|0:0,0:0:0:0:
315,372,60574,6,0,P|357:380|425:353,1,117.700003591919,2|8,1:0|0:0,0:0:0:0:
437,237,61226,2,0,L|504:243,2,58.8500017959595,2|2|10,1:0|1:0|0:0,0:0:0:0:
379,225,61715,2,0,L|398:98,2,117.700003591919,2|10|2,3:0|0:0|3:0,0:0:0:0:
363,281,62530,1,8,0:0:0:0:
261,221,62856,1,10,0:0:0:0:
169,294,63182,5,6,1:0:0:0:
169,294,63346,1,2,0:0:0:0:
169,294,63509,2,0,L|97:288,1,58.8500017959595,10|2,0:0|0:0,0:0:0:0:
52,280,63835,2,0,P|81:226|67:158,1,117.700003591919,2|10,1:0|0:0,0:0:0:0:
30,133,64324,1,2,0:0:0:0:
10,17,64650,2,0,L|69:11,1,58.8500017959595,2|10,0:0|0:0,0:0:0:0:
125,26,64976,1,2,0:0:0:0:
125,26,65139,2,0,L|247:22,1,117.700003591919,2|10,1:0|0:0,0:0:0:0:
338,90,65791,6,0,P|361:161|343:215,1,117.700003591919,2|8,1:0|0:0,0:0:0:0:
254,266,66443,2,0,L|185:257,2,58.8500017959595,2|2|10,1:0|0:0|0:0,0:0:0:0:
303,297,66932,2,0,L|425:288,1,117.700003591919,2|2,0:0|0:0,0:0:0:0:
478,279,67422,1,10,0:0:0:0:
465,161,67748,2,0,L|468:88,1,58.8500017959595,0|0,1:0|0:0,0:0:0:0:
466,43,68074,1,10,0:0:0:0:
352,10,68400,6,0,P|301:-3|240:18,1,117.700003591919,6|10,1:0|0:0,0:0:0:0:
252,75,68889,1,2,0:0:0:0:
252,75,69052,2,0,L|264:202,1,117.700003591919,2|10,1:0|0:0,0:0:0:0:
275,249,69541,1,2,0:0:0:0:
296,364,69867,1,2,0:0:0:0:
296,364,70030,2,0,L|224:361,1,58.8500017959595,10|2,0:0|0:0,0:0:0:0:
182,339,70356,2,0,L|57:328,1,117.700003591919,2|10,1:0|0:0,0:0:0:0:
34,218,71009,6,0,L|154:220,1,117.700003591919,6|8,1:0|0:0,0:0:0:0:
268,230,71683,2,0,L|260:160,2,58.8500017959595,2|10|10,1:0|3:0|0:0,0:0:0:0:
280,287,72188,1,10,0:0:0:0:
393,329,72515,1,10,0:0:0:0:
481,250,72833,1,2,3:0:0:0:
481,250,72991,2,0,L|467:133,1,117.700003591919,8|10,0:0|0:0,0:0:0:0:
432,34,73626,6,0,P|386:17|318:37,1,107,6|8,1:0|0:0,0:0:0:0:
307,77,74115,2,0,P|261:94|193:74,1,107,2|2,0:0|0:0,0:0:0:0:
112,30,74767,1,2,0:0:0:0:
112,30,74930,2,0,L|121:151,1,107,2|10,1:0|0:0,0:0:0:0:
219,174,75582,2,0,L|210:295,1,107,2|10,1:0|0:0,0:0:0:0:
138,358,76234,6,0,P|216:384|253:375,1,107,6|10,1:0|0:0,0:0:0:0:
282,349,76723,1,2,0:0:0:0:
282,349,76886,2,0,L|348:335,1,53.5,2|0,1:0|0:0,0:0:0:0:
432,294,77376,2,0,P|478:341|491:383,2,107,2|2|2,0:0|0:0|0:0,0:0:0:0:
329,261,78354,1,2,0:0:0:0:
329,261,78517,2,0,L|336:196,1,53.5,10|2,0:0|0:0,0:0:0:0:
343,155,78843,6,0,P|301:134|238:143,1,107,6|8,1:0|0:0,0:0:0:0:
190,233,79495,2,0,P|142:255|89:247,1,107,2|10,1:0|0:0,0:0:0:0:
25,162,80147,1,2,1:0:0:0:
26,55,80473,1,10,0:0:0:0:
124,13,80799,2,0,L|233:15,1,107,2|10,1:0|0:0,0:0:0:0:
284,16,81289,5,2,0:0:0:0:
284,16,81452,2,0,P|307:55|294:117,1,107,6|8,1:0|0:0,0:0:0:0:
209,176,82104,2,0,P|186:215|199:277,1,107,2|8,1:0|0:0,0:0:0:0:
301,294,82756,2,0,L|300:361,2,53.5,10|2|10,0:0|1:0|0:0,0:0:0:0:
303,187,83408,1,10,0:0:0:0:
409,185,83734,1,8,0:0:0:0:
408,294,84060,6,0,L|297:294,1,107,6|8,1:0|0:0,0:0:0:0:
248,284,84549,2,0,L|141:284,1,107,2|2,0:0|0:0,0:0:0:0:
33,279,85202,2,0,P|53:218|44:167,1,107,2|2,0:0|0:0,0:0:0:0:
9,139,85691,1,10,0:0:0:0:
9,139,85854,1,2,0:0:0:0:
58,44,86180,1,2,0:0:0:0:
58,44,86343,2,0,L|115:47,1,53.5,10|2,0:0|0:0,0:0:0:0:
162,63,86669,6,0,L|285:53,1,107,2|10,1:0|0:0,0:0:0:0:
362,104,87321,2,0,L|354:170,2,53.5,2|2|10,1:0|0:0|0:0,0:0:0:0:
405,73,87810,2,0,P|440:83|470:148,1,107,2|2,0:0|0:0,0:0:0:0:
454,193,88299,1,10,0:0:0:0:
454,193,88462,1,2,0:0:0:0:
471,298,88789,1,2,0:0:0:0:
471,298,88952,2,0,L|412:287,1,53.5,10|2,0:0|0:0,0:0:0:0:
367,271,89278,6,0,L|248:279,1,107,6|10,1:0|0:0,0:0:0:0:
153,283,89930,2,0,P|133:233|161:182,1,107,2|10,1:0|0:0,0:0:0:0:
260,176,90582,2,0,L|379:160,1,107,2|10,1:0|0:0,0:0:0:0:
454,101,91234,2,0,P|445:38|396:8,1,107,2|10,1:0|0:0,0:0:0:0:
319,63,91886,5,6,1:0:0:0:
217,28,92212,1,10,0:0:0:0:
157,117,92539,2,0,L|39:106,1,107,2|10,1:0|0:0,0:0:0:0:
7,205,93191,2,0,P|-1:252|29:305,1,107,14|10,0:0|0:0,0:0:0:0:
77,317,93680,1,10,3:0:0:0:
77,317,93843,2,0,L|71:375,2,53.5,10|2|10,3:0|0:0|3:0,0:0:0:0:
150,238,94495,5,6,1:0:0:0:
