osu file format v14

[General]
AudioFilename: audio.mp3
AudioLeadIn: 0
PreviewTime: 45612
Countdown: 0
SampleSet: Soft
StackLeniency: 0.7
Mode: 2
LetterboxInBreaks: 0
WidescreenStoryboard: 1

[Editor]
DistanceSpacing: 1.2
BeatDivisor: 4
GridSize: 8
TimelineZoom: 3.499999

[Metadata]
Title:nameless story (TV Size)
TitleUnicode:nameless story (TV Size)
Artist:KISIDA KYODAN & THE AKEBOSI ROCKETS
ArtistUnicode:岸田教団&THE明星ロケッツ
Creator:Verti
Version:Salad
Source:とある科学の超電磁砲T
Tags:kishida kyoudan and akeboshi Japanese Anime JP jrock J-Rock Rock A Certain Scientific Railgun Ichigo T Toaru Kagaku no Choudenjihou 3 grindle ed ending 御坂 美琴 Misaka Mikoto 白井 黒子 Shirai Kuroko 初春 飾利 Uiharu Kazari 佐天 涙子 Saten Ruiko AlexDemon- -Rustyy [ Azu- ] Greaper PotatoDew
BeatmapID:3136942
BeatmapSetID:1529309

[Difficulty]
HPDrainRate:3
CircleSize:3
OverallDifficulty:7
ApproachRate:7
SliderMultiplier:1.54
SliderTickRate:1

[Events]
//Background and Video events
0,0,"813458.jpg",0,0
//Break Periods
//Storyboard Layer 0 (Background)
//Storyboard Layer 1 (Fail)
//Storyboard Layer 2 (Pass)
//Storyboard Layer 3 (Foreground)
//Storyboard Layer 4 (Overlay)
//Storyboard Sound Samples

[TimingPoints]
538,309.278350515464,4,2,1,10,1,0
615,-100,4,2,1,10,0,0
1001,-100,4,2,1,17,0,0
1465,-100,4,2,1,30,0,0
1929,-100,4,2,1,45,0,0
2393,-100,4,2,1,60,0,0
2702,-100,4,2,1,70,0,0
3012,-100,4,2,1,72,0,0
4713,-100,4,2,12,60,0,0
4867,-100,4,2,14,60,0,0
5022,-100,4,2,13,60,0,0
5177,-100,4,2,12,60,0,0
5331,-100,4,2,14,60,0,0
5486,-100,4,2,13,60,0,0
5641,-100,4,2,16,80,0,0
5795,-100,4,2,15,80,0,0
5950,-100,4,2,14,80,0,0
6105,-100,4,2,32,70,0,0
6182,-100,4,2,1,70,0,0
6259,-100,4,2,31,70,0,0
6336,-100,4,2,1,70,0,0
6414,-100,4,2,30,70,0,0
6491,-100,4,2,1,70,0,0
6568,-100,4,2,1,75,0,0
16465,-100,4,2,1,50,0,0
24970,-100,4,2,1,55,0,0
26053,-100,4,2,1,60,0,0
26208,-100,4,2,41,60,0,0
26285,-100,4,2,1,60,0,0
26362,-100,4,2,46,60,0,0
26440,-100,4,2,1,60,0,0
36414,-100,4,2,1,55,0,0
43836,-100,4,2,1,62,0,0
44764,-100,4,2,1,68,0,0
45692,-100,4,2,22,85,0,0
46001,-100,4,2,24,85,0,0
46156,-100,4,2,51,85,0,1
46388,-100,4,1,2,5,0,1
46465,-100,4,2,1,78,0,1
47393,-100,4,2,52,78,0,1
47625,-100,4,1,2,5,0,1
47702,-100,4,2,1,78,0,1
48630,-100,4,2,53,78,0,1
48862,-100,4,1,2,5,0,1
48940,-100,4,2,1,78,0,1
49481,-100,4,1,2,5,0,1
49558,-100,4,2,1,78,0,1
49867,-100,4,2,54,78,0,1
50099,-100,4,1,2,5,0,1
50177,-100,4,2,1,78,0,1
50795,-100,4,2,23,78,0,1
50873,-100,4,2,1,78,0,1
50950,-100,4,2,24,78,0,1
51027,-100,4,2,1,78,0,1
51105,-100,4,2,55,78,0,1
51182,-100,4,2,1,78,0,1
52342,-100,4,2,56,78,0,1
52419,-100,4,2,1,78,0,1
53424,-100,4,2,22,78,0,1
53579,-100,4,2,57,78,0,1
53656,-100,4,2,1,78,0,1
54816,-100,4,2,58,78,0,1
54893,-100,4,2,1,78,0,1
55589,-100,4,2,22,78,0,1
55666,-100,4,2,1,78,0,1
55898,-100,4,2,24,78,0,1
55976,-100,4,2,1,78,0,1
56053,-100,4,2,51,78,0,1
56285,-100,4,1,2,5,0,1
56362,-100,4,2,1,78,0,1
57290,-100,4,2,52,78,0,1
57522,-100,4,1,2,5,0,1
57599,-100,4,2,1,78,0,1
58527,-100,4,2,59,78,0,1
58759,-100,4,1,2,5,0,1
58836,-100,4,2,1,78,0,1
59761,-100,4,2,70,78,0,1
59996,-100,4,1,2,5,0,1
60074,-100,4,2,71,78,0,1
60306,-100,4,1,2,5,0,1
60383,-100,4,2,70,78,0,1
60615,-100,4,1,2,5,0,1
60692,-100,4,2,72,78,0,1
60769,-100,4,2,1,78,0,1
60998,-100,4,2,60,78,0,1
61079,-100,4,2,1,78,0,1
62239,-100,4,2,56,78,0,1
62316,-100,4,2,1,78,0,1
63089,-100,4,1,2,5,0,1
63166,-100,4,2,1,78,0,1
63476,-100,4,2,65,78,0,1
63785,-100,4,2,66,78,0,1
64017,-100,4,2,1,78,0,1
65486,-100,4,2,1,72,0,1
65950,-100,4,2,1,80,0,0
70434,-100,4,2,1,72,0,0
70898,-100,4,2,1,80,0,0
75538,-100,4,2,1,72,0,0
75847,-100,4,2,1,80,0,0
80331,-100,4,2,1,72,0,0
80795,-100,4,2,1,80,0,0
87599,-100,4,2,1,82,0,0
87831,-100,4,1,2,5,0,0
87909,-100,4,2,1,82,0,0
88141,-100,4,1,2,5,0,0
88218,-100,4,2,1,82,0,0
88295,-100,4,2,1,5,0,0
89610,-100,4,1,2,5,0,0

[Colours]
Combo1 : 169,163,192
Combo2 : 112,119,184
Combo3 : 211,169,126
Combo4 : 213,155,170

[HitObjects]
256,192,538,12,0,2393,0:0:0:0:
376,320,2702,6,0,L|376:240,1,77,8|0,1:2|1:0,0:0:0:0:
208,192,3012,2,0,L|48:192,1,154,4|0,0:0|0:0,0:0:0:0:
128,128,3476,1,10,0:0:0:0:
272,192,3785,1,0,1:0:0:0:
104,184,3940,6,0,P|48:136|104:96,1,154,12|8,0:0|0:0,0:0:0:0:
176,96,4403,1,2,0:0:0:0:
256,192,4713,12,2,5795,0:0:0:0:
304,248,6105,6,0,L|392:248,2,77,10|10|10,0:0|0:0|0:0,0:0:0:0:
144,240,6568,2,0,P|88:184|144:152,1,154,4|0,3:2|3:0,0:0:0:0:
208,144,7032,1,8,0:0:0:0:
344,208,7342,2,0,L|368:128,1,77,2|0,3:2|3:0,0:0:0:0:
104,184,7806,6,0,L|288:184,1,154,2|0,3:2|3:0,0:0:0:0:
336,184,8269,1,8,0:0:0:0:
200,296,8579,2,0,L|176:216,1,77,2|0,3:2|3:0,0:0:0:0:
440,256,9043,6,0,P|488:192|440:144,1,154,4|0,3:2|3:0,0:0:0:0:
368,128,9507,1,8,0:0:0:0:
232,88,9816,2,0,L|160:40,2,77,2|0|8,3:2|3:0|0:0,0:0:0:0:
392,256,10280,6,0,P|448:200|392:160,1,154,2|0,3:2|0:0,0:0:0:0:
328,144,10744,1,8,0:0:0:0:
192,192,11053,1,8,1:2:0:0:
272,152,11208,2,0,L|288:56,1,77,8|8,1:2|1:2,0:0:0:0:
120,288,11517,6,0,P|72:232|120:184,1,154,4|0,3:2|3:0,0:0:0:0:
200,176,11981,1,8,0:0:0:0:
352,176,12290,2,0,L|368:88,1,77,2|0,3:2|3:0,0:0:0:0:
104,272,12754,6,0,L|272:272,1,154,2|0,3:2|3:0,0:0:0:0:
184,200,13218,1,8,0:0:0:0:
48,176,13527,2,0,L|32:96,1,77,2|0,3:2|3:3,0:0:0:0:
296,184,13991,6,0,P|352:128|296:88,1,154,4|0,3:2|3:0,0:0:0:0:
240,72,14455,1,8,0:0:0:0:
104,184,14764,2,0,L|32:144,2,77,2|0|8,3:2|3:0|0:0,0:0:0:0:
264,192,15228,6,0,L|424:192,1,154,4|0,3:2|3:3,0:0:0:0:
344,136,15692,1,8,0:0:0:0:
208,80,16001,2,0,L|136:32,2,77,0|8|8,1:0|0:0|0:0,0:0:0:0:
368,192,16465,6,0,P|424:136|368:96,1,154,4|0,3:2|0:0,0:0:0:0:
304,80,16929,1,2,3:0:0:0:
160,184,17239,2,0,L|144:96,1,77,2|0,3:0|0:0,0:0:0:0:
224,64,17548,1,2,3:0:0:0:
304,176,17702,6,0,P|368:128|304:96,1,154,2|0,2:3|0:0,0:0:0:0:
256,72,18166,1,2,3:0:0:0:
400,200,18476,2,0,L|424:120,1,77,2|0,3:0|0:0,0:0:0:0:
352,88,18785,1,10,3:2:0:0:
192,200,18940,6,0,P|136:152|192:112,1,154,2|2,3:2|0:3,0:0:0:0:
248,96,19403,1,2,3:0:0:0:
320,96,19558,2,0,L|152:96,1,154,0|2,0:0|0:3,0:0:0:0:
232,160,20022,1,2,3:0:0:0:
304,160,20177,6,0,P|360:104|304:72,1,154,0|2,0:0|0:3,0:0:0:0:
248,64,20641,1,2,3:0:0:0:
176,64,20795,2,0,P|120:112|176:152,1,154,0|8,0:0|0:0,0:0:0:0:
240,120,21259,1,2,3:0:0:0:
400,184,21414,6,0,P|456:128|400:96,1,154,4|0,3:2|0:0,0:0:0:0:
336,80,21878,1,2,3:0:0:0:
472,256,22187,2,0,L|488:176,1,77,2|0,3:0|0:0,0:0:0:0:
416,160,22496,1,2,3:0:0:0:
344,144,22651,6,0,L|168:144,1,154,2|0,2:3|0:0,0:0:0:0:
264,224,23115,1,2,3:0:0:0:
408,112,23424,2,0,L|472:64,2,77,2|8|2,3:0|0:0|3:0,0:0:0:0:
248,304,23888,6,0,P|200:240|248:192,1,154,2|0,3:0|0:0,0:0:0:0:
312,184,24352,1,2,3:2:0:0:
376,184,24507,2,0,L|208:184,1,154
296,120,24970,2,0,L|384:88,1,77,2|0,3:2|0:0,0:0:0:0:
208,256,25280,6,0,L|208:152,1,77,10|0,0:0|3:0,0:0:0:0:
288,144,25589,1,2,0:0:0:0:
360,112,25744,2,0,L|184:104,1,154,8|8,0:0|1:2,0:0:0:0:
288,192,26208,1,10,0:2:0:0:
456,200,26362,6,0,L|456:40,1,154,6|0,3:2|3:3,0:0:0:0:
376,200,26826,1,8,0:0:0:0:
200,304,27135,2,0,L|176:200,1,77,2|0,3:2|3:0,0:0:0:0:
256,208,27445,1,8,0:0:0:0:
336,208,27599,6,0,L|176:184,1,154,2|0,3:2|3:0,0:0:0:0:
264,128,28063,1,8,0:0:0:0:
400,136,28373,1,2,3:2:0:0:
400,64,28527,1,0,3:1:0:0:
320,32,28682,1,8,0:0:0:0:
160,320,28836,6,0,P|112:264|160:216,1,154,2|0,3:2|3:2,0:0:0:0:
232,200,29300,1,8,0:0:0:0:
304,200,29455,2,0,L|128:200,1,154,0|0,1:0|0:0,0:0:0:0:
216,144,29919,1,8,0:0:0:0:
288,144,30074,6,0,P|344:96|288:56,1,154,2|0,3:2|3:0,0:0:0:0:
232,48,30538,1,8,0:0:0:0:
160,48,30692,2,0,P|112:104|160:152,1,154,0|0,1:0|3:2,0:0:0:0:
232,112,31156,1,8,0:0:0:0:
392,192,31311,6,0,P|448:136|392:104,1,154,4|0,3:2|3:0,0:0:0:0:
328,88,31775,1,8,0:0:0:0:
176,184,32084,1,2,3:2:0:0:
248,152,32239,2,0,L|256:48,1,77,0|8,3:3|0:0,0:0:0:0:
184,56,32548,6,0,L|24:56,1,154,2|0,3:2|3:0,0:0:0:0:
96,136,33012,1,8,0:0:0:0:
232,160,33321,2,0,L|304:112,2,77,2|0|8,3:2|3:0|0:0,0:0:0:0:
72,280,33785,6,0,P|16:232|72:192,1,154,4|0,3:2|3:0,0:0:0:0:
128,192,34249,1,8,0:0:0:0:
200,184,34403,2,0,L|24:184,1,154,0|0,0:0|3:0,0:0:0:0:
120,120,34867,1,8,0:0:0:0:
280,160,35022,6,0,P|336:104|280:72,1,154,4|0,3:2|3:0,0:0:0:0:
216,56,35486,1,8,0:0:0:0:
80,56,35795,2,0,L|16:8,2,77,8|0|0,0:0|3:0|1:0,0:0:0:0:
344,192,36414,6,0,P|400:144|344:104,1,154,4|0,3:2|0:0,0:0:0:0:
216,48,37032,1,8,0:0:0:0:
352,208,37342,2,0,L|176:208,1,154,2|4,0:0|0:0,0:0:0:0:
344,288,37960,6,0,P|400:232|344:192,1,154,2|8,0:0|0:0,0:0:0:0:
216,80,38579,1,8,0:0:0:0:
496,328,38888,6,0,L|496:160,1,154,4|0,3:2|0:0,0:0:0:0:
344,248,39507,1,8,0:0:0:0:
192,232,39816,2,0,P|136:184|192:128,1,154,8|0,0:0|0:0,0:0:0:0:
312,96,40434,6,0,L|392:48,2,77,8|0|8,0:0|1:0|0:0,0:0:0:0:
240,176,40898,2,0,L|168:128,2,77,0|0|0,3:0|1:0|1:0,0:0:0:0:
400,176,41362,6,0,P|456:128|400:88,1,154,4|2,0:0|0:0,0:0:0:0:
272,184,41981,2,0,P|216:128|272:80,1,154,2|2,0:0|0:0,0:0:0:0:
400,224,42599,6,0,L|224:224,1,154,2|2,0:0|0:0,0:0:0:0:
104,224,43218,2,0,P|48:168|104:120,1,154,2|2,0:0|0:0,0:0:0:0:
352,192,43836,6,0,L|352:112,1,77,12|0,0:0|3:0,0:0:0:0:
280,88,44146,1,0,3:0:0:0:
208,80,44300,2,0,P|152:128|208:168,1,154,8|8,1:2|1:2,0:0:0:0:
280,144,44764,1,0,1:0:0:0:
440,192,44919,6,0,P|496:136|440:72,1,154,12|8,0:2|0:0,0:0:0:0:
384,72,45383,1,8,0:0:0:0:
304,56,45538,1,8,0:0:0:0:
88,160,46156,6,0,L|88:320,1,154,6|0,0:0|3:0,0:0:0:0:
168,152,46620,1,10,0:0:0:0:
248,144,46775,1,0,1:0:0:0:
168,112,46929,1,2,3:2:0:0:
168,112,47084,1,0,3:0:0:0:
424,240,47393,6,0,P|480:192|424:144,1,154,6|0,0:0|3:0,0:0:0:0:
368,128,47857,2,0,L|288:88,2,77,10|0|2,0:0|1:0|3:2,0:0:0:0:
448,160,48321,1,0,3:0:0:0:
184,200,48630,6,0,P|128:152|184:96,1,154,6|0,0:0|3:0,0:0:0:0:
232,96,49094,1,8,0:0:0:0:
304,96,49249,2,0,L|136:96,1,154,2|0,3:2|3:0,0:0:0:0:
216,160,49713,1,8,0:0:0:0:
392,168,49867,6,0,P|448:200|392:256,1,154,6|0,0:0|3:0,0:0:0:0:
336,168,50331,1,10,0:0:0:0:
256,168,50486,2,0,L|168:168,1,77,0|10,0:0|1:2,0:0:0:0:
256,104,50795,2,0,L|256:192,1,77,10|10,0:2|0:2,0:0:0:0:
72,312,51105,6,0,P|24:264|72:208,1,154,6|0,0:0|3:0,0:0:0:0:
136,200,51568,2,0,L|224:248,2,77,10|0|2,0:0|1:0|3:2,0:0:0:0:
64,152,52032,1,0,3:0:0:0:
320,176,52342,6,0,L|144:176,1,154,6|0,0:0|3:0,0:0:0:0:
240,128,52806,2,0,L|336:104,1,77,10|0,0:0|0:0,0:0:0:0:
168,288,53269,2,0,L|168:192,1,77,0|8,3:0|0:0,0:0:0:0:
328,192,53579,6,0,P|384:144|328:112,1,154,6|0,0:0|3:0,0:0:0:0:
264,104,54043,1,10,0:0:0:0:
192,104,54197,2,0,P|136:48|192:16,1,154,0|0,0:0|3:0,0:0:0:0:
248,176,54661,1,10,0:0:0:0:
408,192,54816,6,0,P|464:136|408:80,1,154,6|0,0:0|3:0,0:0:0:0:
360,64,55280,1,10,0:0:0:0:
216,264,55589,1,10,0:2:0:0:
288,208,55744,2,0,L|296:120,1,77,8|10,1:2|0:2,0:0:0:0:
136,264,56053,6,0,P|80:216|136:168,1,154,6|0,0:0|3:0,0:0:0:0:
192,152,56517,2,0,L|272:112,2,77,10|0|2,0:0|1:0|3:2,0:0:0:0:
112,184,56981,1,0,3:0:0:0:
376,232,57290,6,0,P|432:184|376:136,1,154,6|0,0:0|3:0,0:0:0:0:
320,120,57754,2,0,L|240:80,2,77,10|0|2,0:0|1:0|3:2,0:0:0:0:
400,152,58218,1,0,3:0:0:0:
144,280,58527,6,0,L|328:280,1,154,6|0,0:0|3:0,0:0:0:0:
216,216,58991,2,0,L|128:184,1,77,10|0,0:0|0:0,0:0:0:0:
288,192,59455,2,0,L|288:104,1,77,0|10,3:0|0:0,0:0:0:0:
128,128,59764,6,0,L|16:16,2,154,6|6|6,0:0|0:0|0:0,0:0:0:0:
272,192,60692,2,0,L|304:112,1,77,10|8,0:2|1:2,0:0:0:0:
136,304,61001,6,0,P|80:248|136:200,1,154,6|0,0:0|3:0,0:0:0:0:
192,176,61465,2,0,L|272:136,2,77,10|0|2,0:0|1:0|3:2,0:0:0:0:
120,216,61929,1,0,3:0:0:0:
384,184,62239,6,0,P|440:128|384:72,1,154,6|0,0:0|3:0,0:0:0:0:
336,64,62702,1,8,0:0:0:0:
272,64,62857,2,0,L|432:64,1,154,2|0,0:0|3:0,0:0:0:0:
352,128,63321,1,8,0:0:0:0:
192,184,63476,6,0,P|136:136|192:104,1,154,6|2,0:0|0:0,0:0:0:0:
256,96,63940,1,10,0:0:0:0:
400,184,64249,2,0,L|408:96,1,77,2|0,3:2|3:0,0:0:0:0:
328,96,64558,1,10,0:0:0:0:
248,168,64713,6,0,P|192:120|248:80,1,154,2|0,0:0|3:0,0:0:0:0:
312,64,65177,1,10,0:0:0:0:
160,104,65486,2,0,L|80:64,2,77,8|8|8,1:2|1:2|1:2,0:0:0:0:
320,184,65950,6,0,P|376:128|320:88,1,154,4|0,0:0|3:0,0:0:0:0:
256,72,66414,1,10,0:0:0:0:
104,184,66723,2,0,P|48:144|104:104,1,154,2|10,0:0|0:0,0:0:0:0:
168,104,67187,6,0,P|224:48|168:16,1,154,2|0,0:0|3:0,0:0:0:0:
104,16,67651,1,10,0:0:0:0:
240,184,67960,2,0,L|400:184,1,154,2|10,0:0|0:0,0:0:0:0:
232,272,68424,6,0,P|176:216|232:160,1,154,4|0,0:0|3:0,0:0:0:0:
288,144,68888,1,10,0:0:0:0:
144,176,69197,2,0,P|88:120|144:80,1,154,2|10,0:0|0:0,0:0:0:0:
200,64,69661,6,0,L|32:64,1,154,2|0,0:0|3:0,0:0:0:0:
120,144,70125,1,10,0:0:0:0:
264,128,70434,2,0,L|344:72,2,77,8|8|8,1:2|1:2|1:2,0:0:0:0:
104,288,70898,6,0,P|48:248|104:208,1,154,4|0,0:0|3:0,0:0:0:0:
176,200,71362,1,10,0:0:0:0:
328,128,71672,2,0,L|160:128,1,154,2|10,0:0|0:0,0:0:0:0:
248,184,72135,6,0,P|304:136|248:104,1,154,2|0,0:0|3:0,0:0:0:0:
184,88,72599,1,10,0:0:0:0:
336,192,72909,2,0,L|496:192,1,154,2|10,0:0|0:0,0:0:0:0:
328,264,73373,6,0,P|272:216|328:176,1,154,4|0,0:0|3:0,0:0:0:0:
384,168,73836,1,10,0:0:0:0:
448,160,73991,2,0,P|496:112|448:56,1,154,0|0,3:0|1:0,0:0:0:0:
376,48,74455,1,10,0:0:0:0:
216,192,74610,6,0,P|160:144|216:96,1,154,4|0,0:0|3:0,0:0:0:0:
272,88,75074,1,10,0:0:0:0:
344,88,75228,2,0,P|400:144|344:176,1,154,4|8,0:0|1:2,0:0:0:0:
288,128,75692,1,8,1:2:0:0:
128,184,75847,6,0,P|72:136|128:96,1,154,4|0,0:0|3:0,0:0:0:0:
192,96,76311,1,10,0:0:0:0:
336,184,76620,2,0,L|168:184,1,154,2|10,0:0|0:0,0:0:0:0:
256,264,77084,6,0,P|304:208|256:160,1,154,2|0,0:0|3:0,0:0:0:0:
192,136,77548,1,10,0:0:0:0:
56,176,77857,2,0,P|16:112|64:48,1,154,2|10,0:0|0:0,0:0:0:0:
216,192,78321,6,0,L|392:192,1,154,4|0,0:0|3:0,0:0:0:0:
296,112,78785,1,10,0:0:0:0:
152,128,79094,2,0,P|96:80|152:40,1,154,2|10,0:0|0:0,0:0:0:0:
216,48,79558,6,0,L|56:48,1,154,2|0,0:0|3:0,0:0:0:0:
136,160,80022,1,8,0:0:0:0:
280,192,80331,1,8,1:2:0:0:
208,160,80486,2,0,L|192:72,1,77,8|8,1:2|1:2,0:0:0:0:
352,256,80795,6,0,P|408:208|352:168,1,154,4|0,0:0|3:0,0:0:0:0:
288,144,81259,1,10,0:0:0:0:
144,80,81568,2,0,L|320:80,1,154,2|10,0:0|0:0,0:0:0:0:
224,184,82032,6,0,P|168:136|224:88,1,154,2|0,0:0|3:0,0:0:0:0:
288,88,82496,1,10,0:0:0:0:
432,184,82806,2,0,P|488:128|432:88,1,154,2|10,3:2|0:0,0:0:0:0:
288,192,83269,6,0,P|232:144|288:96,1,154,4|0,0:0|3:0,0:0:0:0:
352,104,83733,1,10,0:0:0:0:
192,184,84043,2,0,P|136:136|192:96,1,154,10|10,0:0|0:0,0:0:0:0:
344,184,84507,6,0,P|400:136|344:96,1,154,4|0,0:0|3:0,0:0:0:0:
288,88,84970,1,10,0:0:0:0:
216,160,85125,2,0,P|160:112|216:72,1,154,4|0,0:0|3:0,0:0:0:0:
280,144,85589,1,10,0:0:0:0:
440,192,85744,6,0,P|496:144|440:88,1,154,4|0,0:0|0:0,0:0:0:0:
376,80,86208,1,10,0:0:0:0:
224,264,86517,1,10,0:0:0:0:
296,216,86672,2,0,L|312:128,1,77,8|2,0:0|0:0,0:0:0:0:
152,160,86981,6,0,P|96:112|152:72,1,154,4|8,0:0|1:2,0:0:0:0:
216,72,87445,1,8,1:2:0:0:
376,232,87599,2,0,L|376:64,1,154,6|6,0:0|0:0,0:0:0:0:
72,192,88218,5,6,0:0:0:0:
256,192,88527,12,0,89764,0:0:0:0:
