osu file format v14

[General]
AudioFilename: audio.mp3
AudioLeadIn: 0
PreviewTime: 45612
Countdown: 0
SampleSet: Soft
StackLeniency: 0.7
Mode: 2
LetterboxInBreaks: 0
WidescreenStoryboard: 1

[Editor]
DistanceSpacing: 1.2
BeatDivisor: 4
GridSize: 8
TimelineZoom: 3.499999

[Metadata]
Title:nameless story (TV Size)
TitleUnicode:nameless story (TV Size)
Artist:KISIDA KYODAN & THE AKEBOSI ROCKETS
ArtistUnicode:岸田教団&THE明星ロケッツ
Creator:Verti
Version:AlexDemon's Cup
Source:とある科学の超電磁砲T
Tags:kishida kyoudan and akeboshi Japanese Anime JP jrock J-Rock Rock A Certain Scientific Railgun Ichigo T Toaru Kagaku no Choudenjihou 3 grindle ed ending 御坂 美琴 Misaka Mikoto 白井 黒子 Shirai Kuroko 初春 飾利 Uiharu Kazari 佐天 涙子 Saten Ruiko AlexDemon- -Rustyy [ Azu- ] Greaper PotatoDew
BeatmapID:3138432
BeatmapSetID:1529309

[Difficulty]
HPDrainRate:2
CircleSize:2.5
OverallDifficulty:6
ApproachRate:6
SliderMultiplier:1.24
SliderTickRate:1

[Events]
//Background and Video events
0,0,"813458.jpg",0,0
//Break Periods
//Storyboard Layer 0 (Background)
//Storyboard Layer 1 (Fail)
//Storyboard Layer 2 (Pass)
//Storyboard Layer 3 (Foreground)
//Storyboard Layer 4 (Overlay)
//Storyboard Sound Samples

[TimingPoints]
538,309.278350515464,4,2,1,10,1,0
615,-100,4,2,1,10,0,0
1001,-100,4,2,1,17,0,0
1465,-100,4,2,1,30,0,0
1929,-100,4,2,1,45,0,0
2393,-100,4,2,1,60,0,0
2702,-100,4,2,1,70,0,0
3012,-100,4,2,1,72,0,0
4713,-100,4,2,12,60,0,0
4867,-100,4,2,14,60,0,0
5022,-100,4,2,13,60,0,0
5177,-100,4,2,12,60,0,0
5331,-100,4,2,14,60,0,0
5486,-100,4,2,13,60,0,0
5641,-100,4,2,16,80,0,0
5795,-100,4,2,15,80,0,0
5950,-100,4,2,14,80,0,0
6105,-100,4,2,32,70,0,0
6182,-100,4,2,1,70,0,0
6259,-100,4,2,31,70,0,0
6336,-100,4,2,1,70,0,0
6414,-100,4,2,30,70,0,0
6491,-100,4,2,1,70,0,0
6568,-100,4,2,1,75,0,0
16465,-100,4,2,1,50,0,0
24970,-100,4,2,1,55,0,0
26053,-100,4,2,1,60,0,0
26208,-100,4,2,41,60,0,0
26285,-100,4,2,1,60,0,0
26362,-100,4,2,46,60,0,0
26440,-100,4,2,1,60,0,0
36414,-100,4,2,1,55,0,0
43836,-100,4,2,1,62,0,0
44764,-100,4,2,1,68,0,0
45692,-100,4,2,22,85,0,0
46001,-100,4,2,24,85,0,0
46156,-100,4,2,51,85,0,1
46388,-100,4,1,2,5,0,1
46465,-100,4,2,1,78,0,1
47393,-100,4,2,52,78,0,1
47625,-100,4,1,2,5,0,1
47702,-100,4,2,1,78,0,1
48630,-100,4,2,53,78,0,1
48862,-100,4,1,2,5,0,1
48940,-100,4,2,1,78,0,1
49481,-100,4,1,2,5,0,1
49558,-100,4,2,1,78,0,1
49867,-100,4,2,54,78,0,1
50099,-100,4,1,2,5,0,1
50177,-100,4,2,1,78,0,1
50795,-100,4,2,23,78,0,1
50873,-100,4,2,1,78,0,1
50950,-100,4,2,24,78,0,1
51027,-100,4,2,1,78,0,1
51105,-100,4,2,55,78,0,1
51182,-100,4,2,1,78,0,1
52342,-100,4,2,56,78,0,1
52419,-100,4,2,1,78,0,1
53424,-100,4,2,22,78,0,1
53579,-100,4,2,57,78,0,1
53656,-100,4,2,1,78,0,1
54816,-100,4,2,58,78,0,1
54893,-100,4,2,1,78,0,1
55589,-100,4,2,22,78,0,1
55666,-100,4,2,1,78,0,1
55898,-100,4,2,24,78,0,1
55976,-100,4,2,1,78,0,1
56053,-100,4,2,51,78,0,1
56285,-100,4,1,2,5,0,1
56362,-100,4,2,1,78,0,1
57290,-100,4,2,52,78,0,1
57522,-100,4,1,2,5,0,1
57599,-100,4,2,1,78,0,1
58527,-100,4,2,59,78,0,1
58759,-100,4,1,2,5,0,1
58836,-100,4,2,1,78,0,1
59761,-100,4,2,70,78,0,1
59996,-100,4,1,2,5,0,1
60074,-100,4,2,71,78,0,1
60306,-100,4,1,2,5,0,1
60383,-100,4,2,70,78,0,1
60615,-100,4,1,2,5,0,1
60692,-100,4,2,72,78,0,1
60769,-100,4,2,1,78,0,1
60998,-100,4,2,60,78,0,1
61079,-100,4,2,1,78,0,1
62239,-100,4,2,56,78,0,1
62316,-100,4,2,1,78,0,1
63089,-100,4,1,2,5,0,1
63166,-100,4,2,1,78,0,1
63476,-100,4,2,65,78,0,1
63785,-100,4,2,66,78,0,1
64017,-100,4,2,1,78,0,1
65486,-100,4,2,1,72,0,1
65950,-100,4,2,1,80,0,0
70434,-100,4,2,1,72,0,0
70898,-100,4,2,1,80,0,0
75538,-100,4,2,1,72,0,0
75847,-100,4,2,1,80,0,0
80331,-100,4,2,1,72,0,0
80795,-100,4,2,1,80,0,0
87599,-100,4,2,1,82,0,0
87831,-100,4,1,2,5,0,0
87909,-100,4,2,1,82,0,0
88141,-100,4,1,2,5,0,0
88218,-100,4,2,1,82,0,0
88295,-100,4,2,1,5,0,0
89610,-100,4,1,2,5,0,0

[Colours]
Combo1 : 169,163,192
Combo2 : 112,119,184
Combo3 : 211,169,126
Combo4 : 213,155,170

[HitObjects]
256,192,538,12,0,2393,0:0:0:0:
193,238,2702,6,0,L|153:185,1,62,8|0,1:2|1:0,0:0:0:0:
236,177,3012,2,0,P|304:190|244:267,1,186,4|10,0:0|0:0,0:0:0:0:
140,260,3785,5,0,1:0:0:0:
78,254,3940,2,0,P|51:199|117:171,1,124,12|8,0:0|0:0,0:0:0:0:
173,164,4403,5,2,0:0:0:0:
256,192,4713,12,10,6259,0:0:0:0:
277,225,6568,6,0,P|309:173|259:119,1,124,4|0,3:2|3:0,0:0:0:0:
216,126,7032,1,8,0:0:0:0:
91,124,7342,2,0,P|81:174|152:219,1,124,2|8,3:2|0:0,0:0:0:0:
210,206,7806,6,0,L|346:198,1,124,2|0,3:2|3:0,0:0:0:0:
272,200,8269,1,8,0:0:0:0:
147,202,8579,2,0,P|115:156|164:102,1,124,2|8,3:2|0:0,0:0:0:0:
229,105,9043,6,0,P|255:144|197:196,1,124,4|0,3:2|3:0,0:0:0:0:
149,195,9507,1,8,0:0:0:0:
25,197,9816,2,0,L|168:194,1,124,2|8,3:2|0:0,0:0:0:0:
230,192,10280,6,0,L|97:194,1,124,2|0,3:2|0:0,0:0:0:0:
43,197,10744,1,8,0:0:0:0:
167,185,11053,2,0,L|295:185,1,124,8|8,1:2|1:2,0:0:0:0:
210,180,11517,6,0,L|130:85,1,124,4|0,3:2|3:0,0:0:0:0:
192,89,11981,1,8,0:0:0:0:
315,81,12290,2,0,P|326:141|266:175,1,124,2|8,3:2|0:0,0:0:0:0:
199,169,12754,6,0,P|138:162|126:84,1,124,2|0,3:2|3:0,0:0:0:0:
179,89,13218,1,8,0:0:0:0:
301,99,13527,2,0,L|437:99,1,124,2|8,3:2|0:0,0:0:0:0:
345,98,13991,6,0,L|210:90,1,124,4|0,3:2|3:0,0:0:0:0:
160,87,14455,1,8,0:0:0:0:
283,85,14764,2,0,L|420:141,1,124,2|8,3:2|0:0,0:0:0:0:
317,170,15228,6,0,L|173:169,1,124,4|0,3:2|3:3,0:0:0:0:
130,167,15692,1,8,0:0:0:0:
253,162,16001,6,0,L|403:160,1,124,0|8,1:0|0:0,0:0:0:0:
296,161,16465,2,0,P|241:206|309:284,1,186,4|2,3:2|3:0,0:0:0:0:
421,286,17239,2,0,L|424:207,1,62,2|0,3:0|0:0,0:0:0:0:
361,219,17548,1,2,3:0:0:0:
280,219,17702,6,0,L|110:138,1,186,2|2,2:3|3:0,0:0:0:0:
237,216,18476,2,0,L|317:217,2,62,2|0|10,3:0|0:0|3:2,0:0:0:0:
155,211,18940,6,0,P|118:164|208:127,1,186,2|2,3:2|3:0,0:0:0:0:
268,123,19558,1,0,0:0:0:0:
81,123,20022,1,2,3:0:0:0:
18,123,20177,1,0,0:0:0:0:
204,120,20641,5,2,3:0:0:0:
265,118,20795,1,0,0:0:0:0:
389,116,21105,1,8,0:0:0:0:
389,116,21259,1,2,3:0:0:0:
308,117,21414,5,4,3:2:0:0:
117,125,21878,1,2,3:0:0:0:
240,123,22187,2,0,L|317:120,2,62,2|0|2,3:0|0:0|3:0,0:0:0:0:
159,123,22651,6,0,P|98:170|165:250,1,186,2|2,2:3|3:0,0:0:0:0:
269,231,23424,1,2,3:0:0:0:
330,225,23578,1,8,0:0:0:0:
392,220,23733,1,2,3:0:0:0:
311,220,23888,6,0,L|108:219,1,186,2|2,3:0|3:2,0:0:0:0:
187,218,24507,1,0,0:0:0:0:
372,210,24970,1,2,3:2:0:0:
452,204,25125,6,0,P|488:157|431:130,1,124,0|0,0:0|3:0,0:0:0:0:
383,117,25589,2,0,L|244:120,1,124,2|2,0:0|3:2,0:0:0:0:
320,113,26053,1,8,1:2:0:0:
469,111,26362,6,0,P|460:159|378:180,1,124,6|0,3:2|3:3,0:0:0:0:
336,193,26826,1,8,0:0:0:0:
212,181,27135,2,0,L|128:171,2,62,2|0|8,3:2|3:0|0:0,0:0:0:0:
292,183,27599,6,0,P|319:141|213:65,1,186,2|8,3:2|0:0,0:0:0:0:
113,81,28373,2,0,P|90:111|156:166,1,124,2|8,3:2|0:0,0:0:0:0:
217,158,28836,6,0,L|431:162,1,186,2|8,3:2|0:0,0:0:0:0:
341,160,29455,1,0,1:0:0:0:
156,151,29919,1,8,0:0:0:0:
77,137,30074,6,0,P|53:97|123:60,1,124,2|0,3:2|3:0,0:0:0:0:
165,56,30538,1,8,0:0:0:0:
226,65,30692,2,0,P|256:121|212:161,1,124,0|0,1:0|3:2,0:0:0:0:
72,161,31311,6,0,P|61:118|129:82,1,124,4|0,3:2|3:0,0:0:0:0:
183,82,31775,2,0,L|326:81,2,124,8|2|8,0:0|3:2|0:0,0:0:0:0:
61,97,32702,6,0,P|63:130|152:124,1,124,0|8,0:0|0:0,0:0:0:0:
263,137,33321,2,0,L|412:139,1,124,2|8,3:2|0:0,0:0:0:0:
307,137,33785,6,0,P|273:192|358:240,1,186,4|8,3:2|0:0,0:0:0:0:
421,219,34403,2,0,P|476:169|437:127,1,124,0|0,0:0|3:0,0:0:0:0:
310,126,35022,6,0,P|287:114|337:46,1,124,4|0,3:2|3:0,0:0:0:0:
377,46,35486,2,0,L|237:39,1,124,8|8,0:0|0:0,0:0:0:0:
129,40,36105,1,0,1:0:0:0:
278,48,36414,6,0,L|414:42,1,124,4|0,3:2|0:0,0:0:0:0:
279,48,37032,1,8,0:0:0:0:
403,60,37342,1,2,0:0:0:0:
255,58,37651,6,0,L|130:57,1,124,4|2,0:0|0:0,0:0:0:0:
255,59,38269,1,8,0:0:0:0:
378,62,38579,1,8,0:0:0:0:
229,59,38888,6,0,P|213:116|285:151,1,124,4|0,3:2|0:0,0:0:0:0:
383,150,39507,1,8,0:0:0:0:
260,147,39816,1,8,0:0:0:0:
180,141,39970,6,0,P|134:124|164:61,1,124,4|0,3:2|0:0,0:0:0:0:
216,72,40434,1,8,0:0:0:0:
344,72,40744,1,8,0:0:0:0:
221,72,41053,1,0,1:0:0:0:
73,83,41362,6,0,P|47:130|96:167,1,124,4|2,0:0|0:0,0:0:0:0:
218,48,41981,2,0,L|85:46,1,124,2|2,0:0|0:0,0:0:0:0:
243,43,42599,6,0,L|373:45,1,124,2|2,0:0|0:0,0:0:0:0:
248,40,43218,2,0,L|108:44,1,124,2|2,0:0|0:0,0:0:0:0:
272,42,43836,6,0,L|272:180,1,124,12|0,0:0|3:0,0:0:0:0:
206,248,44300,2,0,L|72:248,1,124,8|8,1:2|1:2,0:0:0:0:
206,250,44919,1,12,0:2:0:0:
83,253,45228,6,0,L|157:255,1,62,8|8,0:0|0:0,0:0:0:0:
207,250,45538,1,8,0:0:0:0:
145,254,45692,2,0,P|110:207|156:161,1,124,2|2,0:0|0:0,0:0:0:0:
226,250,46156,5,6,0:0:0:0:
350,243,46465,1,0,3:0:0:0:
412,232,46620,2,0,P|409:173|334:140,1,124,10|2,0:0|3:2,0:0:0:0:
295,138,47084,1,0,3:0:0:0:
148,133,47393,6,0,P|165:93|244:77,1,124,6|0,0:0|3:0,0:0:0:0:
300,77,47857,2,0,P|350:113|319:174,1,124,10|2,0:0|3:2,0:0:0:0:
272,166,48321,1,0,3:0:0:0:
124,174,48630,6,0,P|76:149|134:106,1,124,6|0,0:0|3:0,0:0:0:0:
171,91,49094,1,8,0:0:0:0:
232,85,49249,2,0,P|272:136|220:158,1,124,2|0,3:2|3:0,0:0:0:0:
88,151,49867,6,0,P|72:126|144:77,1,124,6|0,0:0|3:0,0:0:0:0:
189,80,50331,2,0,L|262:79,1,62,10|0,0:0|0:0,0:0:0:0:
376,78,50795,2,0,P|389:120|373:143,1,62,10|10,0:2|0:2,0:0:0:0:
301,139,51105,6,0,L|178:63,1,124,6|0,0:0|3:0,0:0:0:0:
128,42,51568,1,0,0:0:0:0:
253,124,51878,2,0,L|328:131,2,62,0|2|0,1:0|3:2|3:0,0:0:0:0:
172,124,52342,6,0,P|141:171|193:215,1,124,6|0,0:0|3:0,0:0:0:0:
243,219,52806,1,10,0:0:0:0:
305,223,52960,1,0,0:0:0:0:
429,215,53269,1,0,3:0:0:0:
491,213,53424,1,8,0:0:0:0:
411,210,53579,5,6,0:0:0:0:
230,82,54043,1,10,0:0:0:0:
169,82,54197,2,0,P|129:161|163:182,1,124,0|0,0:0|3:0,0:0:0:0:
203,171,54661,1,10,0:0:0:0:
284,165,54816,6,0,P|321:141|266:83,1,124,6|0,0:0|3:0,0:0:0:0:
225,84,55280,1,10,0:0:0:0:
102,79,55589,1,10,0:2:0:0:
226,80,55898,1,10,0:2:0:0:
306,94,56053,6,0,P|326:144|282:212,1,124,6|0,0:0|3:0,0:0:0:0:
231,203,56517,2,0,L|80:203,1,124,10|2,0:0|3:2,0:0:0:0:
181,203,56981,1,0,3:0:0:0:
329,205,57290,6,0,P|379:150|346:122,1,124,6|0,0:0|3:0,0:0:0:0:
233,112,57909,2,0,L|143:112,2,62,0|2|0,1:0|3:2|3:0,0:0:0:0:
381,112,58527,5,6,0:0:0:0:
195,106,58991,1,10,0:0:0:0:
133,102,59146,2,0,P|87:148|125:203,1,124,0|0,0:0|3:0,0:0:0:0:
171,200,59610,1,10,0:0:0:0:
235,200,59764,5,6,0:0:0:0:
384,205,60074,1,6,0:0:0:0:
261,200,60383,1,6,0:0:0:0:
138,194,60692,1,10,0:2:0:0:
261,200,61001,6,0,P|308:172|258:122,1,124,6|0,0:0|3:0,0:0:0:0:
156,125,61620,1,0,1:0:0:0:
95,119,61775,2,0,L|45:233,1,124,2|10,3:2|0:0,0:0:0:0:
126,179,62239,5,6,0:0:0:0:
312,181,62702,1,8,0:0:0:0:
372,138,62857,2,0,L|227:137,1,124,2|0,0:0|3:0,0:0:0:0:
124,134,63476,5,6,0:0:0:0:
248,131,63785,1,2,0:0:0:0:
310,135,63940,2,0,P|322:209|282:220,1,124,10|2,0:0|3:2,0:0:0:0:
160,208,64558,2,0,L|79:210,1,62,10|2,0:0|0:0,0:0:0:0:
249,128,65022,6,0,L|250:205,1,62,0|10,3:0|0:0,0:0:0:0:
125,184,65486,2,0,P|46:144|44:98,1,124,8|8,1:2|1:2,0:0:0:0:
122,80,65950,5,4,0:0:0:0:
246,84,66259,1,0,3:0:0:0:
309,83,66414,2,0,P|338:130|291:195,1,124,10|2,0:0|0:0,0:0:0:0:
185,187,67032,1,8,0:0:0:0:
125,176,67187,6,0,P|79:119|121:93,1,124,2|0,0:0|3:0,0:0:0:0:
166,95,67651,2,0,L|302:94,1,124,10|2,0:0|0:0,0:0:0:0:
414,92,68269,1,10,0:0:0:0:
476,103,68424,6,0,P|468:144|389:186,1,124,4|0,0:0|3:0,0:0:0:0:
341,180,68888,1,10,0:0:0:0:
218,169,69197,2,0,P|170:120|206:96,1,124,2|10,0:0|0:0,0:0:0:0:
261,98,69661,6,0,P|299:137|262:194,1,124,2|0,0:0|3:0,0:0:0:0:
209,183,70125,1,10,0:0:0:0:
61,172,70434,2,0,P|46:112|94:89,1,124,8|8,1:2|1:2,0:0:0:0:
173,96,70898,5,4,0:0:0:0:
297,113,71208,1,0,3:0:0:0:
357,127,71362,2,0,P|394:186|337:226,1,124,10|2,0:0|0:0,0:0:0:0:
248,183,71981,1,10,0:0:0:0:
189,167,72135,6,0,P|169:114|234:93,1,124,2|0,0:0|3:0,0:0:0:0:
281,95,72599,1,10,0:0:0:0:
405,104,72909,1,2,0:0:0:0:
282,101,73218,1,10,0:0:0:0:
220,102,73373,6,0,L|80:96,1,124,4|0,0:0|3:0,0:0:0:0:
158,101,73836,1,10,0:0:0:0:
283,98,74146,1,2,1:2:0:0:
407,107,74455,1,10,0:0:0:0:
470,109,74610,6,0,P|481:154|411:175,1,124,4|0,0:0|3:0,0:0:0:0:
297,176,75228,2,0,L|147:168,1,124,4|8,0:0|1:2,0:0:0:0:
236,172,75692,1,8,1:2:0:0:
317,181,75847,6,0,P|365:153|325:113,1,124,4|0,0:0|3:0,0:0:0:0:
267,108,76311,1,10,0:0:0:0:
144,106,76620,2,0,L|15:106,1,124,2|10,0:0|0:0,0:0:0:0:
82,110,77084,6,0,L|223:110,1,124,2|0,0:0|3:0,0:0:0:0:
268,104,77548,1,10,0:0:0:0:
392,111,77857,1,2,0:0:0:0:
269,105,78166,1,10,0:0:0:0:
208,109,78321,6,0,L|67:108,1,124,4|0,0:0|3:0,0:0:0:0:
146,112,78785,1,10,0:0:0:0:
270,110,79094,1,2,0:0:0:0:
147,110,79403,1,10,0:0:0:0:
85,112,79558,6,0,P|74:155|130:205,1,124,2|0,0:0|3:0,0:0:0:0:
189,211,80022,1,8,0:0:0:0:
313,209,80331,2,0,P|370:154|331:114,1,124,8|8,1:2|1:2,0:0:0:0:
277,112,80795,6,0,L|148:32,1,124,4|0,0:0|3:0,0:0:0:0:
234,117,81259,1,10,0:0:0:0:
358,125,81568,2,0,P|365:173|304:212,1,124,2|10,0:0|0:0,0:0:0:0:
247,210,82032,6,0,P|218:152|266:116,1,124,2|0,0:0|3:0,0:0:0:0:
317,121,82496,1,10,0:0:0:0:
443,123,82806,2,0,P|481:174|436:194,1,124,2|10,3:2|0:0,0:0:0:0:
362,119,83269,6,0,L|232:120,1,124,4|0,0:0|3:0,0:0:0:0:
300,120,83733,1,10,0:0:0:0:
424,110,84043,2,0,P|474:165|443:210,1,124,10|10,0:0|0:0,0:0:0:0:
394,201,84507,6,0,L|259:211,1,124,4|0,0:0|3:0,0:0:0:0:
147,225,85125,2,0,L|290:212,1,124,4|0,0:0|3:0,0:0:0:0:
146,226,85744,5,4,0:0:0:0:
267,203,86053,1,0,0:0:0:0:
328,197,86208,2,0,P|342:150|280:114,1,124,10|10,0:0|0:0,0:0:0:0:
225,122,86672,1,8,0:0:0:0:
101,123,86981,6,0,P|88:176|163:208,1,124,4|8,0:0|1:2,0:0:0:0:
199,216,87445,2,0,L|287:214,1,62,8|6,1:2|0:0,0:0:0:0:
143,204,87909,1,6,0:0:0:0:
291,197,88218,5,6,0:0:0:0:
256,192,88527,12,0,89764,0:0:0:0:
