osu file format v14

[General]
AudioFilename: audio.mp3
AudioLeadIn: 0
PreviewTime: 45689
Countdown: 0
SampleSet: Soft
StackLeniency: 0.7
Mode: 0
LetterboxInBreaks: 0
WidescreenStoryboard: 1

[Editor]
DistanceSpacing: 1.2
BeatDivisor: 4
GridSize: 32
TimelineZoom: 2.1

[Metadata]
Title:nameless story (TV Size)
TitleUnicode:nameless story (TV Size)
Artist:KISIDA KYODAN & THE AKEBOSI ROCKETS
ArtistUnicode:岸田教団&THE明星ロケッツ
Creator:SMOKELIND
Version:Alexandrine's Extra
Source:とある科学の超電磁砲T
Tags:Japanese Anime JP J-Rock Rock Ichigo Kishida Kyoudan and Akeboshi A Certain Scientific Railgun T Toaru Kagaku no Choudenjihou 3 Ending ED DeRandom_Otaku DeRandom Otaku Ren Kowari Reform Kujinn Alexandrine
BeatmapID:2304139
BeatmapSetID:1103008

[Difficulty]
HPDrainRate:5
CircleSize:3.7
OverallDifficulty:9
ApproachRate:9.2
SliderMultiplier:1.82
SliderTickRate:1

[Events]
//Background and Video events
0,0,"bg.jpg",0,0
//Break Periods
2,4755,5532
//Storyboard Layer 0 (Background)
//Storyboard Layer 1 (Fail)
//Storyboard Layer 2 (Pass)
//Storyboard Layer 3 (Foreground)
//Storyboard Layer 4 (Overlay)
//Storyboard Sound Samples

[TimingPoints]
535,309.278350515464,4,2,7,47,1,0
3009,-121.951219512195,4,2,7,77,0,0
6565,-98.0392156862745,4,2,7,77,0,0
16462,-121.951219512195,4,2,7,57,0,0
26359,-108.695652173913,4,2,7,67,0,0
36411,-98.0392156862745,4,2,7,67,0,0
46153,-89.2857142857143,4,2,7,87,0,0
59993,-89.2857142857143,4,2,7,7,0,0
60071,-89.2857142857143,4,2,7,87,0,0
60303,-89.2857142857143,4,2,7,7,0,0
60380,-89.2857142857143,4,2,7,87,0,0
63473,-89.2857142857143,4,2,7,77,0,0
65947,-85.4700854700855,4,2,7,87,0,0
73370,-89.2857142857143,4,2,7,77,0,0
75844,-89.2857142857143,4,2,7,87,0,0
84736,-89.2857142857143,4,2,7,7,0,0
84813,-89.2857142857143,4,2,7,87,0,0
85354,-89.2857142857143,4,2,7,7,0,0
85431,-89.2857142857143,4,2,7,87,0,0
87828,-89.2857142857143,4,2,7,7,0,0
87905,-89.2857142857143,4,2,7,87,0,0
88138,-89.2857142857143,4,2,7,7,0,0
88215,-192.307692307692,4,2,7,77,0,0
88370,-192.307692307692,4,2,7,7,0,0

[Colours]
Combo1 : 255,121,185
Combo2 : 255,182,121
Combo3 : 188,121,255

[HitObjects]
347,70,2700,5,10,0:0:0:0:
431,325,2855,1,10,3:0:0:0:
431,325,2932,1,8,3:0:0:0:
431,325,3009,2,0,P|373:241|263:242,1,186.550002846527,6|0,1:0|0:0,0:0:0:0:
264,230,3473,2,0,P|206:244|166:244,1,74.6200011386109,6|0,1:0|0:0,0:0:0:0:
78,363,3783,1,0,1:0:0:0:
78,363,3859,1,0,1:0:0:0:
78,363,3937,2,0,P|115:367|150:377,1,74.6200011386109,10|0,0:0|0:0,0:0:0:0:
130,166,4246,1,10,0:0:0:0:
270,331,4401,2,0,P|265:274|266:240,1,74.6200011386109,2|0,1:0|0:0,0:0:0:0:
137,30,6102,5,10,0:0:0:0:
137,30,6179,1,8,0:0:0:0:
137,30,6256,2,0,P|148:72|148:96,1,37.3100005693054,10|8,0:0|0:0,0:0:0:0:
307,96,6411,2,0,P|309:74|313:59,1,37.3100005693054,10|8,0:0|0:0,0:0:0:0:
185,238,6565,6,0,P|128:256|73:248,1,92.8200005665283,6|0,1:0|0:0,0:0:0:0:
222,72,6875,1,2,1:0:0:0:
307,285,7030,1,10,0:0:0:0:
123,143,7185,1,0,3:0:0:0:
123,143,7262,1,0,3:0:0:0:
123,143,7339,1,2,1:0:0:0:
89,355,7494,1,2,1:0:0:0:
238,157,7649,1,10,0:0:0:0:
392,363,7803,6,0,P|384:293|384:260,1,92.8200005665283,6|0,1:0|0:0,0:0:0:0:
448,65,8112,1,2,1:0:0:0:
291,238,8267,1,10,0:0:0:0:
217,28,8422,1,0,3:0:0:0:
217,28,8499,1,0,3:0:0:0:
217,28,8576,1,2,1:0:0:0:
400,143,8731,1,2,1:0:0:0:
177,244,8886,1,10,0:0:0:0:
330,74,9040,6,0,P|254:89|207:88,1,92.8200005665283,6|0,1:0|0:0,0:0:0:0:
330,282,9350,1,2,1:0:0:0:
154,137,9504,1,10,0:0:0:0:
108,344,9659,1,0,3:0:0:0:
108,344,9736,1,0,3:0:0:0:
108,344,9813,1,2,1:0:0:0:
267,163,9968,1,2,1:0:0:0:
316,383,10123,1,10,0:0:0:0:
143,236,10277,6,0,P|87:216|44:218,1,92.8200005665283,6|0,1:0|0:0,0:0:0:0:
226,44,10587,1,2,1:0:0:0:
317,261,10741,1,10,0:0:0:0:
126,105,10896,2,0,P|134:177|133:217,1,92.8200005665283,2|10,1:0|0:0,0:0:0:0:
269,125,11128,1,8,0:0:0:0:
269,125,11205,2,0,P|291:116|321:111,1,46.4100002832642,8|8,0:0|0:0,0:0:0:0:
354,259,11360,2,0,P|376:267|406:272,1,46.4100002832642,8|8,0:0|0:0,0:0:0:0:
502,67,11515,6,0,P|491:149|491:188,1,92.8200005665283,6|0,1:0|0:0,0:0:0:0:
389,363,11824,1,2,1:0:0:0:
283,158,11978,1,10,0:0:0:0:
470,289,12133,1,0,3:0:0:0:
470,289,12210,1,0,3:0:0:0:
470,289,12288,1,2,1:0:0:0:
411,67,12442,1,2,1:0:0:0:
306,282,12597,1,10,0:0:0:0:
176,85,12752,6,0,P|106:66|69:67,1,92.8200005665283,6|0,1:0|0:0,0:0:0:0:
187,282,13061,1,2,1:0:0:0:
285,96,13216,2,0,P|355:77|392:78,1,92.8200005665283,8|0,0:0|0:0,0:0:0:0:
418,96,13448,1,0,3:0:0:0:
418,96,13525,1,2,1:0:0:0:
324,310,13679,1,2,1:0:0:0:
202,106,13834,1,10,0:0:0:0:
399,244,13989,6,0,P|388:172|389:121,1,92.8200005665283,6|0,1:0|0:0,0:0:0:0:
240,345,14298,1,2,1:0:0:0:
300,105,14453,1,10,0:0:0:0:
152,302,14607,1,0,0:0:0:0:
100,70,14762,1,2,1:0:0:0:
302,265,14917,1,2,1:0:0:0:
354,23,15071,1,10,0:0:0:0:
173,196,15226,6,0,P|108:218|44:206,1,92.8200005665283,6|0,1:0|0:0,0:0:0:0:
230,45,15535,1,2,1:0:0:0:
327,244,15690,1,10,0:0:0:0:
136,129,15844,1,2,3:0:0:0:
136,129,15922,1,0,3:0:0:0:
136,129,15999,2,0,P|141:173|141:200,1,46.4100002832642,8|8,3:0|3:0,0:0:0:0:
303,150,16154,1,10,0:0:0:0:
303,150,16231,1,8,0:0:0:0:
303,150,16308,2,0,P|304:126|308:103,1,46.4100002832642,10|8,0:0|0:0,0:0:0:0:
201,22,16463,6,0,P|153:-4|49:7,1,149.240002277222,6|0,1:0|0:0,0:0:0:0:
3,105,16927,2,0,P|8:158|9:198,1,74.6200011386109,0|0,1:0|0:0,0:0:0:0:
140,267,17236,2,0,P|141:229|145:192,1,74.6200011386109,2|2,1:0|0:0,0:0:0:0:
42,263,17545,1,2,1:0:0:0:
218,343,17700,6,0,P|264:322|364:318,1,149.240002277222,2|0,0:0|0:0,0:0:0:0:
320,178,18164,2,0,P|275:172|233:163,1,74.6200011386109,0|0,1:0|0:0,0:0:0:0:
230,83,18473,1,2,1:0:0:0:
98,175,18628,1,2,0:0:0:0:
193,68,18783,1,10,0:0:0:0:
156,253,18937,6,0,P|146:103|145:86,1,149.240002277222,6|0,1:0|0:0,0:0:0:0:
269,195,19401,1,2,1:0:0:0:
269,195,19556,2,0,P|279:45|280:28,1,149.240002277222,2|0,0:0|0:0,0:0:0:0:
409,144,20020,1,2,1:0:0:0:
409,144,20175,6,0,P|419:294|420:311,1,149.240002277222,2|0,0:0|0:0,0:0:0:0:
286,349,20638,1,2,1:0:0:0:
286,349,20793,2,0,P|235:336|198:335,1,74.6200011386109,2|0,0:0|1:0,0:0:0:0:
113,238,21102,1,8,0:0:0:0:
303,195,21257,1,2,0:0:0:0:
179,63,21411,6,0,P|189:213|190:230,1,149.240002277222,6|0,1:0|0:0,0:0:0:0:
288,317,21875,2,0,P|333:308|384:307,1,74.6200011386109,0|0,1:0|0:0,0:0:0:0:
423,191,22185,2,0,P|385:188|349:180,1,74.6200011386109,2|2,1:0|0:0,0:0:0:0:
430,304,22494,1,2,1:0:0:0:
273,213,22649,6,0,P|218:180|126:181,1,149.240002277222,2|0,0:0|0:0,0:0:0:0:
40,62,23112,2,0,P|84:56|120:48,1,74.6200011386109,0|0,1:0|0:0,0:0:0:0:
50,196,23422,1,2,1:0:0:0:
162,70,23576,1,10,0:0:0:0:
192,259,23731,1,2,0:0:0:0:
69,97,23886,6,0,P|79:188|87:268,1,149.240002277222,2|0,1:0|0:0,0:0:0:0:
212,156,24350,1,2,1:0:0:0:
212,156,24504,2,0,P|254:128|359:136,1,149.240002277222,2|0,0:0|0:0,0:0:0:0:
426,297,24968,1,2,1:0:0:0:
282,215,25123,5,2,0:0:0:0:
183,353,25277,2,0,P|138:365|102:367,1,74.6200011386109,8|0,0:0|1:0,0:0:0:0:
179,208,25587,1,2,1:0:0:0:
13,297,25741,2,0,P|21:227|21:199,1,74.6200011386109,8|2,0:0|1:0,0:0:0:0:
94,82,26051,1,8,0:0:0:0:
94,82,26128,1,8,0:0:0:0:
94,82,26205,2,0,L|139:72,1,37.3100005693054,10|8,0:0|0:0,0:0:0:0:
209,218,26360,6,0,P|274:254|369:250,1,167.439994379151,6|0,1:0|1:0,0:0:0:0:
448,152,26824,2,0,P|444:95|444:62,1,83.7199971895753,8|0,0:0|0:0,0:0:0:0:
290,168,27133,1,2,1:0:0:0:
396,13,27288,1,2,1:0:0:0:
338,183,27442,1,10,0:0:0:0:
224,42,27597,6,0,P|174:14|67:22,1,167.439994379151,6|0,1:0|1:0,0:0:0:0:
19,178,28061,2,0,P|26:230|27:267,1,83.7199971895753,8|0,0:0|0:0,0:0:0:0:
178,128,28370,1,2,1:0:0:0:
99,313,28525,1,2,1:0:0:0:
217,157,28679,1,10,0:0:0:0:
359,336,28834,6,0,P|352:250|356:155,1,167.439994379151,2|0,1:0|1:0,0:0:0:0:
236,311,29298,1,10,0:0:0:0:
153,147,29453,1,2,0:0:0:0:
153,147,29530,1,0,3:0:0:0:
153,147,29607,2,0,P|99:129|57:131,1,83.7199971895753,0|0,1:0|1:0,0:0:0:0:
158,293,29917,1,10,0:0:0:0:
250,134,30071,6,0,P|324:112|422:151,1,167.439994379151,2|0,1:0|1:0,0:0:0:0:
290,304,30535,1,10,0:0:0:0:
158,187,30690,1,2,0:0:0:0:
158,187,30767,1,0,3:0:0:0:
158,187,30844,2,0,P|164:249|165:280,1,83.7199971895753,0|2,1:0|1:0,0:0:0:0:
303,144,31154,1,8,0:0:0:0:
50,114,31308,6,0,P|107:74|213:77,1,167.439994379151,6|2,1:0|1:0,0:0:0:0:
248,213,31772,2,0,P|239:272|239:312,1,83.7199971895753,10|0,0:0|0:0,0:0:0:0:
171,344,32004,1,0,3:0:0:0:
171,344,32082,2,0,P|111:333|76:333,1,83.7199971895753,0|0,1:0|1:0,0:0:0:0:
3,230,32391,1,8,0:0:0:0:
149,114,32545,6,0,P|207:87|309:99,1,167.439994379151,0|0,1:0|1:0,0:0:0:0:
406,215,33009,2,0,P|398:275|396:323,1,83.7199971895753,8|0,0:0|0:0,0:0:0:0:
230,344,33319,2,0,P|226:302|220:260,1,83.7199971895753,0|2,1:0|1:0,0:0:0:0:
292,155,33628,1,10,0:0:0:0:
102,296,33783,6,0,P|114:188|120:124,1,167.439994379151,6|2,1:0|1:0,0:0:0:0:
247,307,34246,1,10,0:0:0:0:
197,110,34401,2,0,P|247:118|286:117,1,83.7199971895753,2|0,0:0|1:0,0:0:0:0:
151,284,34710,1,2,1:0:0:0:
74,118,34865,1,10,0:0:0:0:
243,242,35020,6,0,L|234:63,1,167.439994379151,6|2,1:0|1:0,0:0:0:0:
140,249,35484,1,10,0:0:0:0:
330,97,35638,1,8,0:0:0:0:
330,97,35716,1,8,0:0:0:0:
330,97,35793,2,0,P|375:89|405:89,1,41.8599985947876,8|8,0:0|0:0,0:0:0:0:
245,197,35948,2,0,P|200:205|170:205,1,41.8599985947876,8|8,3:0|3:0,0:0:0:0:
56,97,36102,1,2,1:0:0:0:
59,121,36179,1,8,3:0:0:0:
62,146,36256,1,8,3:0:0:0:
65,171,36333,1,8,3:0:0:0:
68,192,36411,6,0,L|48:383,1,185.640001133057,6|0,1:0|0:0,0:0:0:0:
179,286,36874,1,0,1:0:0:0:
179,286,36952,1,0,1:0:0:0:
179,286,37029,2,0,P|228:276|273:274,1,92.8200005665283,10|0,0:0|0:0,0:0:0:0:
342,104,37338,2,0,P|295:101|250:91,1,92.8200005665283,2|0,0:0|0:0,0:0:0:0:
381,284,37648,5,4,1:0:0:0:
149,118,37802,1,8,0:0:0:0:
149,118,37957,2,0,P|161:205|160:285,1,139.230000849792,2|0,0:0|1:0,0:0:0:0:
185,295,38266,2,0,P|235:303|283:309,1,92.8200005665283,8|0,0:0|1:0,0:0:0:0:
362,126,38575,2,0,L|270:139,1,92.8200005665283,10|0,0:0|0:0,0:0:0:0:
460,369,38885,6,0,P|450:290|448:173,1,185.640001133057,4|0,1:0|0:0,0:0:0:0:
287,341,39349,1,0,1:0:0:0:
287,341,39426,1,0,1:0:0:0:
287,341,39503,2,0,P|225:323|187:319,1,92.8200005665283,10|0,0:0|1:0,0:0:0:0:
72,213,39813,1,10,0:0:0:0:
193,37,39967,6,0,P|274:2|385:23,1,185.640001133057,4|0,1:0|1:0,0:0:0:0:
477,227,40431,1,10,0:0:0:0:
231,163,40586,1,8,0:0:0:0:
231,163,40663,1,8,0:0:0:0:
231,163,40740,2,0,P|239:221|240:237,1,46.4100002832642,10|8,0:0|0:0,0:0:0:0:
397,155,40895,2,0,P|399:131|403:109,1,46.4100002832642,8|8,3:0|3:0,0:0:0:0:
274,0,41050,1,2,1:0:0:0:
271,24,41127,1,8,3:0:0:0:
268,49,41204,1,8,3:0:0:0:
265,74,41281,1,8,3:0:0:0:
262,95,41359,6,0,L|282:286,2,185.640001133057,6|0|0,1:0|1:0|1:0,0:0:0:0:
84,40,42287,2,0,P|81:94|74:143,1,92.8200005665283,2|0,1:0|0:0,0:0:0:0:
164,316,42596,2,0,P|244:288|370:302,1,185.640001133057,2|0,1:0|1:0,0:0:0:0:
473,46,43215,2,0,P|380:52|293:23,1,185.640001133057,2|0,1:0|1:0,0:0:0:0:
82,193,43833,6,0,P|91:266|91:319,1,92.8200005665283,14|0,0:0|1:0,0:0:0:0:
242,94,44142,1,0,1:0:0:0:
365,265,44297,2,0,P|356:338|356:391,1,92.8200005665283,8|0,0:0|1:0,0:0:0:0:
167,192,44606,1,10,0:0:0:0:
264,380,44761,1,2,1:0:0:0:
367,173,44916,2,0,P|419:159|457:159,1,92.8200005665283,14|0,0:0|0:0,0:0:0:0:
359,374,45225,1,10,0:0:0:0:
271,123,45380,1,10,0:0:0:0:
434,323,45534,1,10,0:0:0:0:
474,59,45998,5,2,0:0:0:0:
262,246,46153,2,0,B|369:238|314:181|461:174,1,203.840002488281,6|2,1:0|1:0,0:0:0:0:
254,134,46617,1,10,0:0:0:0:
411,297,46772,1,2,0:0:0:0:
411,297,46849,1,0,3:0:0:0:
411,297,46927,1,2,1:0:0:0:
403,82,47081,1,2,1:0:0:0:
262,283,47236,1,8,0:0:0:0:
133,64,47390,6,0,P|143:131|143:176,1,101.920001244141,6|0,1:0|0:0,0:0:0:0:
291,13,47700,1,2,1:0:0:0:
196,238,47855,1,10,0:0:0:0:
53,40,48009,1,2,0:0:0:0:
53,40,48086,1,0,3:0:0:0:
53,40,48164,1,2,1:0:0:0:
259,130,48318,1,2,1:0:0:0:
45,233,48473,1,8,0:0:0:0:
249,320,48628,6,0,P|322:306|367:306,1,101.920001244141,6|0,1:0|0:0,0:0:0:0:
145,125,48937,1,2,1:0:0:0:
38,336,49092,1,10,0:0:0:0:
228,165,49246,1,2,1:0:0:0:
228,165,49324,1,0,3:0:0:0:
228,165,49401,1,0,1:0:0:0:
274,384,49556,1,2,1:0:0:0:
112,215,49710,1,10,0:0:0:0:
331,307,49865,6,0,P|399:294|442:288,1,101.920001244141,6|0,1:0|0:0,0:0:0:0:
247,88,50174,1,0,1:0:0:0:
174,306,50329,1,10,0:0:0:0:
329,133,50483,1,2,0:0:0:0:
396,355,50638,1,8,0:0:0:0:
396,355,50715,1,8,0:0:0:0:
396,355,50793,2,0,L|389:280,1,50.9600006220703,10|8,0:0|0:0,0:0:0:0:
205,164,50947,2,0,L|198:217,1,50.9600006220703,10|8,0:0|0:0,0:0:0:0:
304,378,51102,6,0,L|341:153,1,203.840002488281,6|0,1:0|1:0,0:0:0:0:
179,4,51566,1,8,0:0:0:0:
79,237,51720,1,2,0:0:0:0:
79,237,51798,1,0,3:0:0:0:
79,237,51875,1,2,1:0:0:0:
245,66,52030,1,2,1:0:0:0:
287,307,52184,1,10,0:0:0:0:
137,128,52339,6,0,P|82:108|26:105,1,101.920001244141,6|0,1:0|0:0,0:0:0:0:
151,331,52648,1,0,1:0:0:0:
260,115,52803,1,10,0:0:0:0:
62,264,52958,1,2,0:0:0:0:
62,264,53035,1,0,3:0:0:0:
62,264,53112,1,0,1:0:0:0:
88,22,53267,1,2,1:0:0:0:
220,236,53422,1,10,0:0:0:0:
402,3,53576,6,0,P|382:103|385:226,1,203.840002488281,6|0,1:0|1:0,0:0:0:0:
216,46,54040,1,10,0:0:0:0:
311,291,54195,1,10,3:0:0:0:
311,291,54272,1,8,3:0:0:0:
311,291,54349,1,0,1:0:0:0:
97,116,54504,1,2,1:0:0:0:
55,349,54659,1,10,0:0:0:0:
229,157,54813,6,0,P|282:139|337:138,1,101.920001244141,6|0,1:0|0:0,0:0:0:0:
193,356,55123,1,0,1:0:0:0:
77,123,55277,1,8,0:0:0:0:
284,298,55432,1,0,1:0:0:0:
305,35,55586,1,10,0:0:0:0:
182,228,55741,1,8,0:0:0:0:
182,228,55818,1,8,0:0:0:0:
182,228,55896,2,0,L|189:155,1,50.9600006220703,10|8,0:0|0:0,0:0:0:0:
402,69,56050,6,0,L|432:317,1,203.840002488281,6|2,1:0|1:0,0:0:0:0:
262,126,56514,1,10,0:0:0:0:
187,347,56669,1,2,0:0:0:0:
187,347,56746,1,0,3:0:0:0:
187,347,56824,1,2,1:0:0:0:
341,164,56978,1,2,1:0:0:0:
430,384,57133,1,8,0:0:0:0:
204,220,57288,6,0,P|211:299|212:346,1,101.920001244141,6|0,1:0|0:0,0:0:0:0:
354,154,57596,2,0,P|347:233|346:280,1,101.920001244141,2|8,1:0|0:0,0:0:0:0:
452,120,57906,1,2,0:0:0:0:
452,120,57983,1,0,3:0:0:0:
452,120,58061,1,2,1:0:0:0:
327,278,58215,1,2,1:0:0:0:
371,67,58370,1,8,0:0:0:0:
188,296,58525,6,0,B|175:172|227:209|215:67,1,203.840002488281,6|0,1:0|1:0,0:0:0:0:
303,278,58989,1,10,0:0:0:0:
130,118,59143,2,0,P|57:98|13:98,1,101.920001244141,2|0,3:0|1:0,0:0:0:0:
152,303,59452,1,2,1:0:0:0:
255,97,59607,1,10,0:0:0:0:
73,250,59762,6,0,L|59:76,1,152.880001866211,6|0,1:0|0:0,0:0:0:0:
126,33,60071,2,0,P|216:54|320:53,1,152.880001866211,6|0,1:0|0:0,0:0:0:0:
360,112,60380,2,0,L|359:240,1,101.920001244141,6|0,1:0|0:0,0:0:0:0:
190,337,60690,1,10,0:0:0:0:
190,337,60767,1,8,0:0:0:0:
190,337,60844,2,0,L|181:268,1,50.9600006220703,8|8,0:0|0:0,0:0:0:0:
55,62,60999,6,0,L|11:306,1,203.840002488281,6|0,1:0|1:0,0:0:0:0:
191,100,61463,1,8,0:0:0:0:
237,334,61617,1,2,0:0:0:0:
237,334,61695,1,0,3:0:0:0:
237,334,61772,1,2,1:0:0:0:
109,134,61927,1,2,1:0:0:0:
307,293,62081,1,10,0:0:0:0:
364,37,62236,6,0,P|360:105|360:158,1,101.920001244141,6|0,1:0|0:0,0:0:0:0:
187,247,62545,1,0,1:0:0:0:
95,29,62700,1,10,0:0:0:0:
262,181,62855,1,2,0:0:0:0:
262,181,62932,1,0,3:0:0:0:
262,181,63009,1,0,1:0:0:0:
41,128,63164,1,2,1:0:0:0:
255,12,63318,1,10,0:0:0:0:
99,239,63473,6,0,P|203:227|278:216,1,152.880001866211,6|0,1:0|0:0,0:0:0:0:
308,223,63782,1,2,1:0:0:0:
121,87,63937,2,0,P|195:99|243:98,1,101.920001244141,10|0,0:0|0:0,0:0:0:0:
182,295,64246,1,0,1:0:0:0:
325,109,64401,1,0,1:0:0:0:
371,325,64556,1,8,0:0:0:0:
223,131,64710,6,0,P|231:243|229:354,1,203.840002488281,6|0,1:0|1:0,0:0:0:0:
465,299,65174,2,0,P|474:224|483:174,1,101.920001244141,8|0,0:0|0:0,0:0:0:0:
125,41,65483,1,10,0:0:0:0:
122,65,65560,1,8,0:0:0:0:
119,90,65637,1,8,0:0:0:0:
116,115,65714,1,8,0:0:0:0:
113,136,65793,2,0,L|121:233,1,50.9600006220703,8|8,0:0|0:0,0:0:0:0:
302,360,65947,6,0,L|325:102,1,212.940000812302,6|0,1:0|1:0,0:0:0:0:
171,321,66411,2,0,P|184:244|186:187,1,106.470000406151,10|0,0:0|0:0,0:0:0:0:
199,144,66643,1,0,3:0:0:0:
199,144,66721,2,0,L|317:124,1,106.470000406151,2|0,1:0|1:0,0:0:0:0:
428,203,67030,1,8,0:0:0:0:
233,24,67184,6,0,L|339:45,1,106.470000406151,2|0,1:0|0:0,0:0:0:0:
246,252,67494,1,0,1:0:0:0:
59,72,67648,2,0,P|67:136|67:217,1,106.470000406151,10|0,0:0|0:0,0:0:0:0:
155,251,67880,1,0,3:0:0:0:
155,251,67958,2,0,L|164:136,1,106.470000406151,2|0,1:0|1:0,0:0:0:0:
316,33,68267,1,8,0:0:0:0:
207,307,68422,6,0,L|197:191,1,106.470000406151,6|0,1:0|0:0,0:0:0:0:
362,336,68731,1,0,1:0:0:0:
255,117,68885,2,0,P|324:129|383:128,1,106.470000406151,10|0,0:0|0:0,0:0:0:0:
425,224,69117,1,0,3:0:0:0:
425,224,69195,2,0,L|313:237,1,106.470000406151,2|0,1:0|1:0,0:0:0:0:
349,27,69504,1,8,0:0:0:0:
202,214,69659,6,0,L|90:201,1,106.470000406151,6|0,1:0|0:0,0:0:0:0:
213,51,69968,1,0,1:0:0:0:
279,284,70123,1,10,0:0:0:0:
116,101,70277,1,0,0:0:0:0:
334,202,70432,1,10,0:0:0:0:
337,178,70509,1,8,0:0:0:0:
340,153,70586,1,10,0:0:0:0:
343,128,70663,1,8,0:0:0:0:
346,107,70742,2,0,L|336:19,1,53.2350002030754,10|8,0:0|0:0,0:0:0:0:
175,215,70896,6,0,P|111:235|35:233,1,106.470000406151,6|0,1:0|0:0,0:0:0:0:
234,40,71205,1,2,1:0:0:0:
351,251,71360,2,0,P|415:271|491:269,1,106.470000406151,10|0,0:0|0:0,0:0:0:0:
508,197,71592,1,0,3:0:0:0:
508,197,71669,2,0,L|499:65,1,106.470000406151,2|0,1:0|1:0,0:0:0:0:
254,188,71978,1,8,0:0:0:0:
428,17,72133,6,0,L|421:130,1,106.470000406151,6|0,1:0|0:0,0:0:0:0:
243,24,72442,1,2,1:0:0:0:
352,260,72597,2,0,P|284:248|230:247,1,106.470000406151,10|0,0:0|0:0,0:0:0:0:
148,169,72829,1,0,3:0:0:0:
148,169,72906,2,0,L|271:155,1,106.470000406151,2|0,1:0|1:0,0:0:0:0:
409,193,73215,1,8,0:0:0:0:
124,276,73370,6,0,L|235:288,1,101.920001244141,6|0,1:0|0:0,0:0:0:0:
211,68,73679,1,2,1:0:0:0:
337,275,73834,1,10,0:0:0:0:
441,46,73989,1,10,3:0:0:0:
441,46,74066,1,8,3:0:0:0:
441,46,74143,2,0,P|432:124|432:173,1,101.920001244141,2|0,1:0|1:0,0:0:0:0:
488,298,74452,1,10,0:0:0:0:
282,151,74607,6,0,P|291:229|290:278,1,101.920001244141,6|0,1:0|0:0,0:0:0:0:
457,120,74916,1,2,1:0:0:0:
353,345,75071,1,10,0:0:0:0:
193,134,75226,2,0,P|116:114|76:115,1,101.920001244141,6|0,1:0|0:0,0:0:0:0:
204,348,75535,1,10,0:0:0:0:
204,348,75612,1,8,0:0:0:0:
204,348,75690,2,0,L|212:286,1,50.9600006220703,10|8,0:0|0:0,0:0:0:0:
373,122,75844,6,0,P|365:213|365:270,1,101.920001244141,6|0,1:0|0:0,0:0:0:0:
221,55,76154,1,2,1:0:0:0:
63,212,76308,2,0,P|71:303|70:362,1,101.920001244141,10|0,0:0|0:0,0:0:0:0:
114,354,76540,1,0,3:0:0:0:
114,354,76617,2,0,L|228:366,1,101.920001244141,2|0,1:0|1:0,0:0:0:0:
144,162,76927,1,8,0:0:0:0:
306,304,77081,6,0,L|417:291,1,101.920001244141,6|0,1:0|0:0,0:0:0:0:
480,79,77391,1,2,1:0:0:0:
255,207,77545,2,0,P|266:118|266:65,1,101.920001244141,8|0,0:0|0:0,0:0:0:0:
349,37,77777,1,0,3:0:0:0:
349,37,77855,2,0,L|361:175,1,101.920001244141,2|0,1:0|1:0,0:0:0:0:
212,289,78164,1,8,0:0:0:0:
439,195,78318,6,0,L|428:331,1,101.920001244141,6|0,1:0|0:0,0:0:0:0:
302,127,78628,1,0,1:0:0:0:
186,315,78782,2,0,P|124:329|63:329,1,101.920001244141,10|0,0:0|0:0,0:0:0:0:
24,291,79014,1,0,3:0:0:0:
24,291,79092,2,0,L|10:158,1,101.920001244141,2|0,1:0|1:0,0:0:0:0:
112,23,79401,1,8,0:0:0:0:
88,315,79556,6,0,L|101:180,1,101.920001244141,6|0,1:0|0:0,0:0:0:0:
264,44,79865,1,0,1:0:0:0:
362,255,80019,1,10,0:0:0:0:
126,123,80174,1,0,0:0:0:0:
208,343,80329,1,10,0:0:0:0:
211,319,80406,1,8,0:0:0:0:
214,294,80483,1,8,0:0:0:0:
217,269,80560,1,8,0:0:0:0:
220,248,80639,2,0,L|210:158,1,50.9600006220703,8|8,0:0|0:0,0:0:0:0:
44,24,80793,6,0,L|14:271,1,203.840002488281,6|0,1:0|1:0,0:0:0:0:
184,57,81257,2,0,P|252:41|304:41,1,101.920001244141,10|0,0:0|0:0,0:0:0:0:
357,81,81489,1,0,3:0:0:0:
357,81,81566,2,0,L|373:221,1,101.920001244141,2|0,1:0|1:0,0:0:0:0:
303,346,81875,1,8,0:0:0:0:
474,181,82030,6,0,L|459:318,1,101.920001244141,2|0,1:0|0:0,0:0:0:0:
258,152,82339,1,0,1:0:0:0:
462,57,82494,1,8,0:0:0:0:
362,279,82648,1,0,0:0:0:0:
362,279,82726,1,0,3:0:0:0:
362,279,82803,1,2,1:0:0:0:
236,38,82958,1,2,1:0:0:0:
406,172,83112,1,8,0:0:0:0:
194,286,83267,6,0,P|127:269|72:266,1,101.920001244141,6|0,1:0|0:0,0:0:0:0:
258,78,83576,1,0,1:0:0:0:
285,316,83731,5,10,0:0:0:0:
181,123,83885,1,0,1:0:0:0:
180,328,84040,5,10,0:0:0:0:
289,127,84195,1,0,1:0:0:0:
314,352,84349,5,10,0:0:0:0:
139,174,84504,2,0,P|146:302|144:357,1,152.880001866211,4|0,1:0|0:0,0:0:0:0:
143,363,84813,1,2,1:0:0:0:
283,165,84968,1,10,0:0:0:0:
51,285,85123,2,0,P|58:147|57:117,1,152.880001866211,6|0,1:0|0:0,0:0:0:0:
70,80,85432,1,2,1:0:0:0:
188,258,85586,1,10,0:0:0:0:
304,78,85741,6,0,P|390:45|503:129,1,203.840002488281,6|2,1:0|1:0,0:0:0:0:
488,148,86128,1,0,1:0:0:0:
488,148,86205,2,0,P|477:208|474:267,1,101.920001244141,10|0,0:0|1:0,0:0:0:0:
278,110,86514,1,10,0:0:0:0:
389,348,86669,1,10,0:0:0:0:
481,113,86824,1,0,0:0:0:0:
284,269,86978,6,0,P|297:178|297:127,1,101.920001244141,6|0,1:0|0:0,0:0:0:0:
399,25,87288,1,8,0:0:0:0:
399,25,87365,1,8,0:0:0:0:
399,25,87442,2,0,L|410:122,1,50.9600006220703,8|8,0:0|0:0,0:0:0:0:
248,119,87597,2,0,P|166:69|84:66,1,152.880001866211,6|0,1:0|0:0,0:0:0:0:
37,99,87906,2,0,L|24:281,1,152.880001866211,6|0,1:0|0:0,0:0:0:0:
53,338,88215,6,0,B|290:315|155:122|399:111,1,425.879997400635,6|0,1:0|0:0,0:0:0:0:
