osu file format v14

[General]
AudioFilename: audio.mp3
AudioLeadIn: 0
PreviewTime: 45689
Countdown: 0
SampleSet: Soft
StackLeniency: 0.4
Mode: 0
LetterboxInBreaks: 0
WidescreenStoryboard: 1

[Editor]
Bookmarks: 6565,16462,26359,36411,45689,46153,65947,88215,89607
DistanceSpacing: 1
BeatDivisor: 4
GridSize: 32
TimelineZoom: 1

[Metadata]
Title:nameless story (TV Size)
TitleUnicode:nameless story (TV Size)
Artist:KISIDA KYODAN & THE AKEBOSI ROCKETS
ArtistUnicode:岸田教団&THE明星ロケッツ
Creator:PotatoDew
Version:Normal
Source:とある科学の超電磁砲T
Tags:anime japanese ending ed 1st misaka mikoto a certain scientific railgun t toaru kagaku no choudenjihou season 3 j-rock rock jrock kishida kyoudan and akeboshi
BeatmapID:2417034
BeatmapSetID:1158182

[Difficulty]
HPDrainRate:3.5
CircleSize:3
OverallDifficulty:4
ApproachRate:5.5
SliderMultiplier:0.9
SliderTickRate:1

[Events]
//Background and Video events
0,0,"background.jpg",0,0
//Break Periods
2,4603,5368
//Storyboard Layer 0 (Background)
//Storyboard Layer 1 (Fail)
//Storyboard Layer 2 (Pass)
//Storyboard Layer 3 (Foreground)
//Storyboard Layer 4 (Overlay)
//Storyboard Sound Samples

[TimingPoints]
538,309.278350515464,4,2,1,10,1,0
1001,-100,4,2,1,17,0,0
1465,-100,4,2,1,30,0,0
1929,-100,4,2,1,45,0,0
2393,-100,4,2,1,60,0,0
2702,-100,4,2,1,70,0,0
3012,-100,4,2,1,72,0,0
4713,-100,4,2,12,60,0,0
4867,-100,4,2,14,60,0,0
5022,-100,4,2,13,60,0,0
5177,-100,4,2,12,60,0,0
5331,-100,4,2,14,60,0,0
5486,-100,4,2,13,60,0,0
5641,-100,4,2,16,80,0,0
5795,-100,4,2,15,80,0,0
5950,-100,4,2,14,80,0,0
6105,-100,4,2,32,70,0,0
6182,-100,4,2,1,70,0,0
6259,-100,4,2,31,70,0,0
6336,-100,4,2,1,70,0,0
6414,-100,4,2,30,70,0,0
6491,-100,4,2,1,70,0,0
6568,-100,4,2,1,75,0,0
16465,-100,4,2,1,50,0,0
24970,-100,4,2,1,55,0,0
26053,-100,4,2,1,60,0,0
26208,-100,4,2,41,60,0,0
26285,-100,4,2,1,60,0,0
26362,-100,4,2,46,60,0,0
26440,-100,4,2,1,60,0,0
36414,-100,4,2,1,55,0,0
43836,-100,4,2,1,62,0,0
44764,-100,4,2,1,68,0,0
45692,-100,4,2,22,85,0,0
46001,-100,4,2,24,85,0,0
46156,-100,4,2,51,85,0,1
46233,-100,4,2,51,85,0,1
46388,-100,4,1,2,5,0,1
46465,-100,4,2,1,78,0,1
47393,-100,4,2,52,78,0,1
47625,-100,4,1,2,5,0,1
47702,-100,4,2,1,78,0,1
48630,-100,4,2,53,78,0,1
48862,-100,4,1,2,5,0,1
48940,-100,4,2,1,78,0,1
49481,-100,4,1,2,5,0,1
49558,-100,4,2,1,78,0,1
49867,-100,4,2,54,78,0,1
50099,-100,4,1,2,5,0,1
50177,-100,4,2,1,78,0,1
50795,-100,4,2,23,78,0,1
50873,-100,4,2,1,78,0,1
50950,-100,4,2,24,78,0,1
51027,-100,4,2,1,78,0,1
51105,-100,4,2,55,78,0,1
51182,-100,4,2,1,78,0,1
52342,-100,4,2,56,78,0,1
52419,-100,4,2,1,78,0,1
53424,-100,4,2,22,78,0,1
53579,-100,4,2,57,78,0,1
53656,-100,4,2,1,78,0,1
54816,-100,4,2,58,78,0,1
54893,-100,4,2,1,78,0,1
55589,-100,4,2,22,78,0,1
55666,-100,4,2,1,78,0,1
55898,-100,4,2,24,78,0,1
55976,-100,4,2,1,78,0,1
56053,-100,4,2,51,78,0,1
56285,-100,4,1,2,5,0,1
56362,-100,4,2,1,78,0,1
57290,-100,4,2,52,78,0,1
57522,-100,4,1,2,5,0,1
57599,-100,4,2,1,78,0,1
58527,-100,4,2,59,78,0,1
58759,-100,4,1,2,5,0,1
58836,-100,4,2,1,78,0,1
59761,-100,4,2,70,78,0,1
59996,-100,4,1,2,5,0,1
60074,-100,4,2,71,78,0,1
60306,-100,4,1,2,5,0,1
60383,-100,4,2,70,78,0,1
60615,-100,4,1,2,5,0,1
60692,-100,4,2,72,78,0,1
60769,-100,4,2,1,78,0,1
60998,-100,4,2,60,78,0,1
61079,-100,4,2,1,78,0,1
62239,-100,4,2,56,78,0,1
62316,-100,4,2,1,78,0,1
63476,-100,4,2,65,78,0,1
63785,-100,4,2,66,78,0,1
64017,-100,4,2,1,78,0,1
65486,-100,4,2,1,72,0,0
65950,-100,4,2,1,80,0,1
66259,-100,4,2,1,80,0,0
70434,-100,4,2,1,72,0,0
70898,-100,4,2,1,80,0,1
71208,-100,4,2,1,80,0,0
75538,-100,4,2,1,72,0,0
75847,-100,4,2,1,80,0,1
76156,-100,4,2,1,80,0,0
80331,-100,4,2,1,72,0,0
80795,-100,4,2,1,80,0,1
81105,-100,4,2,1,80,0,0
83269,-100,4,2,1,82,0,1
87290,-100,4,2,1,82,0,0
87599,-100,4,2,1,82,0,1
87677,-100,4,2,1,82,0,0
87831,-100,4,1,2,5,0,0
87909,-100,4,2,1,82,0,1
87986,-100,4,2,1,82,0,0
88141,-100,4,1,2,5,0,0
88218,-100,4,2,1,82,0,1
88295,-100,4,2,1,82,0,0
89610,-100,4,1,2,5,0,0

[Colours]
Combo1 : 128,255,0
Combo2 : 233,194,63
Combo3 : 0,204,0
Combo4 : 255,211,60

[HitObjects]
13,93,3012,6,0,L|161:85,1,135,4|10,0:0|0:0,0:0:0:0:
208,160,3785,1,0,1:0:0:0:
208,160,3940,2,0,L|309:166,1,90,12|8,0:0|0:0,0:0:0:0:
342,168,4403,1,2,0:0:0:0:
33,360,6568,6,0,P|24:308|36:263,1,90,4|0,3:2|3:0,0:0:0:0:
57,235,7032,1,8,0:0:0:0:
105,159,7342,2,0,P|116:112|103:65,1,90,2|8,3:2|0:0,0:0:0:0:
92,29,7806,2,0,P|144:15|190:27,1,90,2|0,3:2|3:0,0:0:0:0:
217,44,8269,1,8,0:0:0:0:
286,101,8579,2,0,P|343:113|383:106,1,90,2|8,3:2|0:0,0:0:0:0:
417,96,9043,6,0,P|435:153|429:200,1,90,4|0,3:2|3:0,0:0:0:0:
417,224,9507,1,8,0:0:0:0:
360,294,9816,2,0,P|306:306|258:290,1,90,2|8,3:2|0:0,0:0:0:0:
235,273,10280,2,0,B|227:228|227:228|243:170,1,90,2|0,3:2|0:0,0:0:0:0:
245,144,10744,1,8,0:0:0:0:
245,144,10898,2,0,B|200:125|200:125|143:136,1,90,0|8,0:0|1:2,0:0:0:0:
89,189,11517,6,0,P|75:231|86:287,1,90,4|0,3:2|3:0,0:0:0:0:
111,309,11981,1,8,0:0:0:0:
187,356,12290,2,0,P|234:344|288:354,1,90,2|8,3:2|0:0,0:0:0:0:
318,360,12754,2,0,P|333:298|321:259,1,90,2|0,3:2|3:0,0:0:0:0:
305,233,13218,1,8,0:0:0:0:
252,159,13527,2,0,P|242:111|255:64,1,90,2|8,3:2|0:0,0:0:0:0:
270,31,13991,6,0,P|213:17|171:25,1,90,4|0,3:2|3:0,0:0:0:0:
140,36,14455,1,8,0:0:0:0:
80,103,14764,2,0,P|64:158|72:201,1,90,2|8,3:2|0:0,0:0:0:0:
95,225,15228,2,0,B|139:234|139:234|195:222,1,90,4|0,3:2|3:3,0:0:0:0:
222,203,15692,1,8,0:0:0:0:
294,255,16001,2,0,P|356:269|389:262,1,90,0|8,1:0|0:0,0:0:0:0:
411,231,16465,6,0,P|425:172|391:100,1,135,4|2,3:2|3:0,0:0:0:0:
323,53,17239,2,0,P|261:39|228:46,1,90,2|2,3:0|3:0,0:0:0:0:
213,82,17702,2,0,P|163:121|88:99,1,135,2|2,2:3|3:0,0:0:0:0:
23,53,18476,2,0,L|13:152,1,90,2|10,3:0|3:2,0:0:0:0:
40,179,18940,6,0,B|55:221|55:221|34:317,1,135,2|2,3:2|3:0,0:0:0:0:
3,340,19558,1,0,0:0:0:0:
141,354,20022,1,2,3:0:0:0:
141,354,20177,2,0,B|183:339|183:339|279:360,1,135,0|2,0:0|3:0,0:0:0:0:
314,370,20795,1,0,0:0:0:0:
232,268,21259,1,2,3:0:0:0:
232,268,21414,6,0,P|256:197|228:131,1,135,4|2,3:2|3:0,0:0:0:0:
179,73,22187,2,0,P|226:53|270:58,1,90,2|2,3:0|3:0,0:0:0:0:
301,81,22651,2,0,P|358:101|430:72,1,135,2|2,2:3|3:0,0:0:0:0:
498,23,23424,2,0,P|514:78|506:113,1,90,2|2,3:0|3:0,0:0:0:0:
474,150,23888,6,0,P|447:219|481:279,1,135,2|2,3:2|3:2,0:0:0:0:
504,301,24507,1,0,0:0:0:0:
375,330,24970,1,2,3:2:0:0:
375,330,25125,2,0,B|304:301|300:350|235:328,1,135,0|2,0:0|0:0,0:0:0:0:
160,293,25898,1,2,3:2:0:0:
95,355,26208,1,10,0:2:0:0:
95,355,26362,6,0,P|74:292|104:226,1,135,6|8,3:2|0:0,0:0:0:0:
60,149,27135,2,0,L|8:144,2,45,2|0|8,3:2|3:0|0:0,0:0:0:0:
102,135,27599,2,0,P|161:113|224:146,1,135,2|8,3:2|0:0,0:0:0:0:
303,103,28373,2,0,L|308:58,2,45,2|0|8,3:2|3:1|0:0,0:0:0:0:
337,131,28836,6,0,B|361:198|311:195|344:266,1,135,2|8,3:2|0:0,0:0:0:0:
337,307,29455,1,0,1:0:0:0:
215,262,29919,1,8,0:0:0:0:
215,262,30074,2,0,P|158:237|92:269,1,135,2|8,3:2|0:0,0:0:0:0:
58,291,30692,1,0,1:0:0:0:
0,221,31001,2,0,L|10:162,1,45,0|8,3:2|0:0,0:0:0:0:
17,132,31311,6,0,B|64:120|64:120|117:128,1,90,4|0,3:2|3:0,0:0:0:0:
143,149,31775,1,8,0:0:0:0:
202,81,32084,1,2,3:2:0:0:
283,118,32393,1,8,0:0:0:0:
283,118,32548,2,0,P|298:157|291:209,1,90,2|0,3:2|3:0,0:0:0:0:
266,240,33012,1,8,0:0:0:0:
187,283,33321,2,0,L|131:275,2,45,2|0|8,3:2|3:0|0:0,0:0:0:0:
216,316,33785,6,0,P|289:326|346:285,1,135,4|8,3:2|0:0,0:0:0:0:
357,253,34403,1,0,0:0:0:0:
395,171,34713,2,0,L|399:114,1,45,0|8,3:0|0:0,0:0:0:0:
395,81,35022,2,0,B|343:74|343:74|299:81,1,90,4|0,3:2|3:0,0:0:0:0:
274,48,35486,1,8,0:0:0:0:
186,66,35795,1,8,0:0:0:0:
104,27,36105,1,0,1:0:0:0:
27,73,36414,6,0,B|-4:122|31:167|42:161|64:202|38:248,1,180,4|8,3:2|0:0,0:0:0:0:
79,324,37342,1,2,0:0:0:0:
156,277,37651,1,4,0:0:0:0:
228,330,37960,2,0,L|320:324,2,90,2|8|8,0:0|0:0|0:0,0:0:0:0:
155,383,38888,1,4,3:2:0:0:
132,204,39507,5,8,0:0:0:0:
201,146,39816,2,0,P|266:110|375:154,1,180,8|8,0:0|0:0,0:0:0:0:
423,205,40744,1,8,0:0:0:0:
365,273,41053,1,0,1:0:0:0:
415,347,41362,6,0,L|508:356,2,90,4|2|2,0:0|0:0|0:0,0:0:0:0:
326,361,42290,1,2,0:0:0:0:
240,333,42599,2,0,L|147:342,1,90,2|2,0:0|0:0,0:0:0:0:
89,274,43218,2,0,L|-4:265,1,90,2|2,0:0|0:0,0:0:0:0:
35,182,43836,6,0,P|47:145|33:89,1,90,12|0,0:0|3:0,0:0:0:0:
22,53,44300,1,8,1:2:0:0:
106,12,44610,1,8,1:2:0:0:
106,12,44764,1,0,1:0:0:0:
106,12,44919,2,0,L|209:23,1,90,12|8,0:2|0:0,0:0:0:0:
229,50,45383,1,8,0:0:0:0:
285,119,45692,2,0,P|305:91|312:27,1,90,2|2,0:0|0:0,0:0:0:0:
352,13,46156,6,0,L|452:24,1,90,6|0,0:0|3:0,0:0:0:0:
482,42,46620,1,10,0:0:0:0:
418,105,46929,1,2,3:2:0:0:
418,105,47084,1,0,3:0:0:0:
474,174,47393,2,0,L|482:265,1,90,6|0,0:0|3:0,0:0:0:0:
462,304,47857,1,10,0:0:0:0:
396,242,48166,1,2,3:2:0:0:
396,242,48321,1,0,3:0:0:0:
345,316,48630,6,0,P|302:325|245:305,1,90,6|0,0:0|3:0,0:0:0:0:
221,287,49094,1,8,0:0:0:0:
221,287,49249,1,2,3:2:0:0:
141,316,49558,1,0,3:0:0:0:
141,316,49713,1,8,0:0:0:0:
141,316,49867,2,0,L|128:212,1,90,6|0,0:0|3:0,0:0:0:0:
165,198,50331,2,0,L|169:148,1,45,10|0,0:0|0:0,0:0:0:0:
168,72,50795,1,10,0:2:0:0:
168,72,50950,1,10,0:2:0:0:
168,72,51105,6,0,P|222:41|295:62,1,135,6|10,0:0|0:0,0:0:0:0:
371,94,51878,2,0,L|422:97,2,45,2|0|10,3:2|3:0|0:0,0:0:0:0:
344,130,52342,2,0,P|320:183|355:251,1,135,6|10,0:0|0:0,0:0:0:0:
389,272,52960,1,0,0:0:0:0:
335,345,53269,1,0,3:0:0:0:
335,345,53424,1,8,0:0:0:0:
335,345,53579,6,0,L|190:333,1,135,6|10,0:0|0:0,0:0:0:0:
166,304,54197,1,0,0:0:0:0:
232,243,54507,1,0,3:0:0:0:
232,243,54661,1,10,0:0:0:0:
232,243,54816,2,0,L|243:139,1,90,6|0,0:0|3:0,0:0:0:0:
274,122,55280,1,10,0:0:0:0:
213,55,55589,2,0,P|156:69|120:57,1,90,10|10,0:2|0:2,0:0:0:0:
94,91,56053,6,0,L|82:197,1,90,6|0,0:0|3:0,0:0:0:0:
94,224,56517,1,10,0:0:0:0:
174,181,56826,1,2,3:2:0:0:
174,181,56981,1,0,3:0:0:0:
201,266,57290,2,0,L|300:275,1,90,6|0,0:0|3:0,0:0:0:0:
331,292,57754,1,10,0:0:0:0:
284,370,58063,1,2,3:2:0:0:
284,370,58218,1,0,3:0:0:0:
373,371,58527,6,0,B|414:359|414:359|474:373,1,90,6|0,0:0|3:0,0:0:0:0:
502,350,58991,1,10,0:0:0:0:
502,350,59146,1,0,0:0:0:0:
442,282,59455,1,0,3:0:0:0:
442,282,59610,1,10,0:0:0:0:
442,282,59764,2,0,L|453:187,1,90,6|6,0:0|0:0,0:0:0:0:
369,157,60383,2,0,L|358:62,1,90,6|10,0:0|0:2,0:0:0:0:
278,27,61001,6,0,P|213:7|149:46,1,135,6|10,0:0|0:0,0:0:0:0:
85,92,61775,2,0,L|31:87,2,45,2|0|10,3:2|3:0|0:0,0:0:0:0:
119,121,62239,2,0,P|146:179|104:243,1,135,6|8,0:0|0:0,0:0:0:0:
86,272,62857,1,2,0:0:0:0:
128,363,63166,1,0,3:0:0:0:
128,363,63321,1,8,0:0:0:0:
128,363,63476,6,0,L|233:372,1,90,6|2,0:0|0:0,0:0:0:0:
256,346,63940,1,10,0:0:0:0:
199,276,64249,1,2,3:2:0:0:
263,213,64558,1,10,0:0:0:0:
263,213,64713,2,0,L|253:106,1,90,2|0,0:0|3:0,0:0:0:0:
227,87,65177,1,10,0:0:0:0:
303,39,65486,2,0,B|353:31|353:31|408:41,1,90,8|8,1:2|1:2,0:0:0:0:
408,79,65950,6,0,L|418:174,1,90,4|0,0:0|3:0,0:0:0:0:
439,208,66414,1,10,0:0:0:0:
393,285,66723,1,2,0:0:0:0:
351,366,67032,1,10,0:0:0:0:
351,366,67187,2,0,L|247:375,1,90,2|0,0:0|3:0,0:0:0:0:
225,345,67651,1,10,0:0:0:0:
140,313,67960,1,2,0:0:0:0:
55,282,68269,1,10,0:0:0:0:
55,282,68424,6,0,L|63:185,1,90,4|0,0:0|3:0,0:0:0:0:
84,153,68888,1,10,0:0:0:0:
136,79,69197,1,2,0:0:0:0:
186,4,69507,1,10,0:0:0:0:
186,4,69661,2,0,L|281:12,1,90,2|0,0:0|3:0,0:0:0:0:
311,38,70125,1,10,0:0:0:0:
255,108,70434,6,0,L|246:218,1,90,8|8,1:2|1:2,0:0:0:0:
268,237,70898,2,0,L|277:347,1,90,4|0,0:0|3:0,0:0:0:0:
268,371,71362,1,10,0:0:0:0:
355,347,71672,1,2,0:0:0:0:
442,324,71981,1,10,0:0:0:0:
442,324,72135,2,0,L|448:221,1,90,2|0,0:0|3:0,0:0:0:0:
451,189,72599,1,10,0:0:0:0:
406,110,72909,1,2,0:0:0:0:
360,32,73218,1,10,0:0:0:0:
360,32,73373,6,0,L|260:38,1,90,4|0,0:0|3:0,0:0:0:0:
232,62,73836,1,10,0:0:0:0:
145,87,74146,1,2,1:2:0:0:
61,113,74455,1,10,0:0:0:0:
61,113,74610,2,0,P|43:161|50:216,1,90,4|0,0:0|3:0,0:0:0:0:
72,241,75074,1,10,0:0:0:0:
72,241,75228,2,0,P|120:259|175:252,1,90,4|8,0:0|1:2,0:0:0:0:
196,234,75692,1,8,1:2:0:0:
196,234,75847,6,0,L|194:124,1,90,4|0,0:0|3:0,0:0:0:0:
159,111,76311,1,10,0:0:0:0:
226,51,76620,1,2,0:0:0:0:
298,3,76929,1,10,0:0:0:0:
298,3,77084,2,0,L|395:10,1,90,2|0,0:0|3:0,0:0:0:0:
416,44,77548,1,10,0:0:0:0:
438,131,77857,1,2,0:0:0:0:
460,218,78166,1,10,0:0:0:0:
460,218,78321,6,0,L|355:228,1,90,4|0,0:0|3:0,0:0:0:0:
332,251,78785,1,10,0:0:0:0:
252,292,79094,1,2,0:0:0:0:
175,336,79403,1,10,0:0:0:0:
175,336,79558,2,0,L|164:239,1,90,2|0,0:0|3:0,0:0:0:0:
188,208,80022,1,8,0:0:0:0:
246,140,80331,2,0,P|260:90|248:41,1,90,8|8,1:2|1:2,0:0:0:0:
211,37,80795,6,0,L|116:33,1,90,4|0,0:0|3:0,0:0:0:0:
78,17,81259,1,10,0:0:0:0:
49,102,81568,1,2,0:0:0:0:
15,185,81878,1,10,0:0:0:0:
15,185,82032,2,0,L|25:284,1,90,2|0,0:0|3:0,0:0:0:0:
47,313,82496,1,10,0:0:0:0:
126,269,82806,2,0,P|165:259|217:279,1,90,2|10,3:2|0:0,0:0:0:0:
246,301,83269,6,0,P|264:243|252:204,1,90,4|0,0:0|3:0,0:0:0:0:
230,179,83733,1,10,0:0:0:0:
185,100,84043,1,10,0:0:0:0:
237,28,84352,1,10,0:0:0:0:
237,28,84507,2,0,P|283:22|332:47,1,90,4|0,0:0|3:0,0:0:0:0:
361,70,84970,1,10,0:0:0:0:
361,70,85125,2,0,P|405:76|450:65,1,90,4|0,0:0|3:0,0:0:0:0:
481,149,85744,6,0,L|489:252,1,90,4|0,0:0|3:0,0:0:0:0:
512,276,86208,1,10,0:0:0:0:
423,289,86517,1,10,0:0:0:0:
337,303,86826,1,2,0:0:0:0:
337,303,86981,2,0,L|244:296,1,90,4|8,0:0|1:2,0:0:0:0:
218,269,87445,1,8,1:2:0:0:
218,269,87599,1,6,0:0:0:0:
141,316,87909,1,6,0:0:0:0:
58,280,88218,5,6,0:0:0:0:
256,192,88373,12,0,89610,0:0:0:0:
