osu file format v14

[General]
AudioFilename: audio.mp3
AudioLeadIn: 0
PreviewTime: 45689
Countdown: 0
SampleSet: Soft
StackLeniency: 0.4
Mode: 0
LetterboxInBreaks: 0
WidescreenStoryboard: 1

[Editor]
Bookmarks: 6565,16462,26359,36411,45689,46153,65947,88215,89607
DistanceSpacing: 1.1
BeatDivisor: 4
GridSize: 32
TimelineZoom: 1.7

[Metadata]
Title:nameless story (TV Size)
TitleUnicode:nameless story (TV Size)
Artist:KISIDA KYODAN & THE AKEBOSI ROCKETS
ArtistUnicode:岸田教団&THE明星ロケッツ
Creator:PotatoDew
Version:Insane
Source:とある科学の超電磁砲T
Tags:anime japanese ending ed 1st misaka mikoto a certain scientific railgun t toaru kagaku no choudenjihou season 3 j-rock rock jrock kishida kyoudan and akeboshi
BeatmapID:2417033
BeatmapSetID:1158182

[Difficulty]
HPDrainRate:5
CircleSize:4
OverallDifficulty:8
ApproachRate:8.8
SliderMultiplier:1.3
SliderTickRate:1

[Events]
//Background and Video events
0,0,"background.jpg",0,0
//Break Periods
//Storyboard Layer 0 (Background)
//Storyboard Layer 1 (Fail)
//Storyboard Layer 2 (Pass)
//Storyboard Layer 3 (Foreground)
//Storyboard Layer 4 (Overlay)
//Storyboard Sound Samples

[TimingPoints]
538,309.278350515464,4,2,1,10,1,0
538,-200,4,2,1,10,0,0
1001,-166.666666666667,4,2,1,17,0,0
1465,-142.857142857143,4,2,1,30,0,0
1929,-125,4,2,1,45,0,0
2393,-111.111111111111,4,2,1,60,0,0
2702,-111.111111111111,4,2,1,70,0,0
3012,-142.857142857143,4,2,1,72,0,0
4713,-142.857142857143,4,2,12,60,0,0
4867,-142.857142857143,4,2,14,60,0,0
5022,-142.857142857143,4,2,13,60,0,0
5177,-142.857142857143,4,2,12,60,0,0
5331,-142.857142857143,4,2,14,60,0,0
5486,-142.857142857143,4,2,13,60,0,0
5641,-100,4,2,16,80,0,0
5795,-100,4,2,15,80,0,0
5950,-100,4,2,14,80,0,0
6105,-100,4,2,32,70,0,0
6182,-100,4,2,1,70,0,0
6259,-100,4,2,31,70,0,0
6336,-100,4,2,1,70,0,0
6414,-100,4,2,30,70,0,0
6491,-100,4,2,1,70,0,0
6568,-100,4,2,1,75,0,0
16462,-166.666666666667,4,2,1,75,0,0
16465,-166.666666666667,4,2,1,50,0,0
24970,-166.666666666667,4,2,1,55,0,0
25277,-111.111111111111,4,2,1,55,0,0
26053,-111.111111111111,4,2,1,60,0,0
26208,-111.111111111111,4,2,41,60,0,0
26285,-111.111111111111,4,2,1,60,0,0
26362,-111.111111111111,4,2,46,60,0,0
26440,-111.111111111111,4,2,1,60,0,0
36411,-142.857142857143,4,2,1,60,0,0
36414,-142.857142857143,4,2,1,55,0,0
41359,-111.111111111111,4,2,1,55,0,0
43833,-95.2380952380952,4,2,1,55,0,0
43836,-95.2380952380952,4,2,1,62,0,0
44764,-95.2380952380952,4,2,1,68,0,0
45692,-95.2380952380952,4,2,22,85,0,0
46001,-95.2380952380952,4,2,24,85,0,0
46156,-86.9565217391304,4,2,51,85,0,1
46233,-86.9565217391304,4,2,51,85,0,1
46388,-86.9565217391304,4,1,2,5,0,1
46465,-86.9565217391304,4,2,1,78,0,1
47393,-86.9565217391304,4,2,52,78,0,1
47625,-86.9565217391304,4,1,2,5,0,1
47702,-86.9565217391304,4,2,1,78,0,1
48630,-86.9565217391304,4,2,53,78,0,1
48862,-86.9565217391304,4,1,2,5,0,1
48940,-86.9565217391304,4,2,1,78,0,1
49481,-86.9565217391304,4,1,2,5,0,1
49558,-86.9565217391304,4,2,1,78,0,1
49867,-86.9565217391304,4,2,54,78,0,1
50099,-86.9565217391304,4,1,2,5,0,1
50177,-86.9565217391304,4,2,1,78,0,1
50795,-86.9565217391304,4,2,23,78,0,1
50873,-86.9565217391304,4,2,1,78,0,1
50950,-86.9565217391304,4,2,24,78,0,1
51027,-86.9565217391304,4,2,1,78,0,1
51105,-86.9565217391304,4,2,55,78,0,1
51182,-86.9565217391304,4,2,1,78,0,1
52342,-86.9565217391304,4,2,56,78,0,1
52419,-86.9565217391304,4,2,1,78,0,1
53424,-86.9565217391304,4,2,22,78,0,1
53579,-86.9565217391304,4,2,57,78,0,1
53656,-86.9565217391304,4,2,1,78,0,1
54816,-86.9565217391304,4,2,58,78,0,1
54893,-86.9565217391304,4,2,1,78,0,1
55589,-86.9565217391304,4,2,22,78,0,1
55666,-86.9565217391304,4,2,1,78,0,1
55898,-86.9565217391304,4,2,24,78,0,1
55976,-86.9565217391304,4,2,1,78,0,1
56053,-86.9565217391304,4,2,51,78,0,1
56285,-86.9565217391304,4,1,2,5,0,1
56362,-86.9565217391304,4,2,1,78,0,1
57290,-86.9565217391304,4,2,52,78,0,1
57522,-86.9565217391304,4,1,2,5,0,1
57599,-86.9565217391304,4,2,1,78,0,1
58527,-86.9565217391304,4,2,59,78,0,1
58759,-86.9565217391304,4,1,2,5,0,1
58836,-86.9565217391304,4,2,1,78,0,1
59761,-86.9565217391304,4,2,70,78,0,1
59996,-86.9565217391304,4,1,2,5,0,1
60074,-86.9565217391304,4,2,71,78,0,1
60306,-86.9565217391304,4,1,2,5,0,1
60383,-86.9565217391304,4,2,70,78,0,1
60615,-86.9565217391304,4,1,2,5,0,1
60692,-86.9565217391304,4,2,72,78,0,1
60769,-86.9565217391304,4,2,1,78,0,1
60998,-86.9565217391304,4,2,60,78,0,1
61079,-86.9565217391304,4,2,1,78,0,1
62239,-86.9565217391304,4,2,56,78,0,1
62316,-86.9565217391304,4,2,1,78,0,1
63476,-86.9565217391304,4,2,65,78,0,1
63785,-86.9565217391304,4,2,66,78,0,1
64017,-86.9565217391304,4,2,1,78,0,1
65486,-100,4,2,1,72,0,0
65950,-83.3333333333333,4,2,1,80,0,1
66259,-83.3333333333333,4,2,1,80,0,0
70434,-83.3333333333333,4,2,1,72,0,0
70898,-83.3333333333333,4,2,1,80,0,1
71208,-83.3333333333333,4,2,1,80,0,0
75538,-83.3333333333333,4,2,1,72,0,0
75847,-83.3333333333333,4,2,1,80,0,1
76156,-83.3333333333333,4,2,1,80,0,0
80331,-83.3333333333333,4,2,1,72,0,0
80795,-83.3333333333333,4,2,1,80,0,1
81105,-83.3333333333333,4,2,1,80,0,0
83269,-83.3333333333333,4,2,1,82,0,1
87290,-83.3333333333333,4,2,1,82,0,0
87599,-83.3333333333333,4,2,1,82,0,1
87677,-83.3333333333333,4,2,1,82,0,0
87831,-83.3333333333333,4,1,2,5,0,0
87909,-83.3333333333333,4,2,1,82,0,1
87986,-83.3333333333333,4,2,1,82,0,0
88141,-83.3333333333333,4,1,2,5,0,0
88218,-166.666666666667,4,2,1,82,0,1
88295,-166.666666666667,4,2,1,5,0,0
89610,-166.666666666667,4,1,2,5,0,0

[Colours]
Combo1 : 128,255,0
Combo2 : 233,194,63
Combo3 : 0,204,0
Combo4 : 255,211,60

[HitObjects]
43,210,847,5,0,0:0:0:0:
107,266,1001,2,0,L|108:311,2,38.9999988098145,0|0|0,0:0|0:0|0:0,0:0:0:0:
166,189,1465,2,0,L|169:137,2,45.4999986114502,0|0|0,0:0|0:0|0:0,0:0:0:0:
237,281,1929,2,0,L|241:343,2,52,0|0|0,0:0|0:0|0:0,0:0:0:0:
307,156,2393,2,0,L|313:96,1,58.4999982147217,0|0,0:0|0:0,0:0:0:0:
372,25,2702,5,8,1:2:0:0:
391,56,2780,1,0,1:0:0:0:
396,91,2857,1,0,1:0:0:0:
383,125,2934,1,0,1:0:0:0:
363,156,3012,6,0,P|344:189|363:249,1,90.9999972229005,4|0,0:0|0:0,0:0:0:0:
503,320,3476,1,10,0:0:0:0:
510,327,3785,5,0,1:0:0:0:
510,327,3862,1,0,1:0:0:0:
510,327,3940,2,0,L|416:330,1,90.9999972229005,12|8,0:0|0:0,0:0:0:0:
265,367,4403,1,2,0:0:0:0:
265,367,4713,6,0,L|202:364,2,45.4999986114502,2|2|2,0:0|0:0|0:0,0:0:0:0:
145,292,5177,2,0,L|82:289,2,45.4999986114502,2|2|2,0:0|0:0|0:0,0:0:0:0:
26,222,5641,1,2,0:0:0:0:
0,144,5795,1,2,0:0:0:0:
61,89,5950,1,2,0:0:0:0:
121,175,6105,5,10,0:0:0:0:
157,189,6182,1,8,1:2:0:0:
195,191,6259,1,10,0:0:0:0:
232,180,6336,1,8,1:2:0:0:
253,146,6414,2,0,L|251:93,1,32.5,10|8,0:0|1:2,0:0:0:0:
309,302,6568,6,0,B|373:281|365:328|435:310,1,130,4|0,3:2|3:0,0:0:0:0:
497,244,7032,1,8,0:0:0:0:
372,182,7187,1,0,1:0:0:0:
372,182,7264,1,0,1:0:0:0:
372,182,7342,2,0,L|362:106,1,65,2|0,3:2|3:0,0:0:0:0:
414,38,7651,1,8,0:0:0:0:
278,117,7806,6,0,P|240:137|155:108,1,130,2|0,3:2|3:0,0:0:0:0:
113,22,8269,1,8,0:0:0:0:
24,106,8424,1,0,1:0:0:0:
24,106,8501,1,0,1:0:0:0:
24,106,8579,2,0,L|37:191,1,65,2|0,3:2|3:0,0:0:0:0:
7,257,8888,1,8,0:0:0:0:
104,367,9043,6,0,L|115:229,1,130,4|0,3:2|3:0,0:0:0:0:
174,167,9507,1,8,0:0:0:0:
255,272,9661,1,0,1:0:0:0:
255,272,9739,1,0,1:0:0:0:
255,272,9816,2,0,L|264:342,1,65,2|0,3:2|3:0,0:0:0:0:
351,376,10125,1,8,0:0:0:0:
460,255,10280,6,0,B|420:228|420:228|333:245,1,130,2|0,3:2|0:0,0:0:0:0:
250,182,10744,1,8,0:0:0:0:
395,96,10898,1,0,0:0:0:0:
280,34,11053,1,8,1:2:0:0:
243,19,11130,1,8,1:2:0:0:
203,15,11208,1,8,1:2:0:0:
165,25,11285,1,8,1:2:0:0:
135,50,11362,2,0,L|138:89,1,32.5,8|8,1:2|1:2,0:0:0:0:
181,226,11517,6,0,B|144:217|114:228|123:245|90:263|42:242,1,130,4|0,3:2|3:0,0:0:0:0:
0,176,11981,1,8,0:0:0:0:
0,320,12135,1,0,1:0:0:0:
0,320,12213,1,0,1:0:0:0:
0,320,12290,2,0,L|76:331,1,65,2|0,3:2|3:0,0:0:0:0:
146,378,12599,1,8,0:0:0:0:
242,269,12754,6,0,P|254:224|195:144,1,130,2|0,3:2|3:0,0:0:0:0:
117,113,13218,1,8,0:0:0:0:
240,27,13373,1,0,1:0:0:0:
240,27,13450,1,0,1:0:0:0:
240,27,13527,2,0,L|322:20,1,65,2|0,3:2|3:3,0:0:0:0:
375,83,13836,1,8,0:0:0:0:
512,0,13991,6,0,L|503:143,1,130,4|0,3:2|3:0,0:0:0:0:
435,200,14455,1,8,0:0:0:0:
503,327,14610,1,0,1:0:0:0:
503,327,14687,1,0,1:0:0:0:
503,327,14764,2,0,L|421:334,1,65,2|0,3:2|3:0,0:0:0:0:
354,287,15074,1,8,0:0:0:0:
234,375,15228,6,0,B|201:342|201:342|208:246,1,130,4|0,3:2|3:3,0:0:0:0:
131,115,15692,1,8,0:0:0:0:
83,242,15847,1,0,0:0:0:0:
241,153,16001,2,0,L|247:115,1,32.5,0|0,1:0|1:0,0:0:0:0:
315,22,16156,1,8,0:0:0:0:
321,53,16233,1,8,0:0:0:0:
327,85,16311,1,8,0:0:0:0:
333,116,16388,1,8,0:0:0:0:
338,147,16465,6,0,L|332:281,1,116.999996429443,4|2,3:2|3:0,0:0:0:0:
144,360,17239,5,2,3:0:0:0:
125,284,17393,1,0,0:0:0:0:
160,213,17548,1,2,3:0:0:0:
101,130,17702,2,0,P|85:90|117:22,1,116.999996429443,2|2,2:3|3:0,0:0:0:0:
251,22,18476,5,2,3:0:0:0:
323,51,18630,1,0,0:0:0:0:
406,0,18785,1,10,3:2:0:0:
493,64,18940,2,0,P|516:102|492:181,1,116.999996429443,2|2,3:2|3:0,0:0:0:0:
402,224,19558,2,0,P|385:278|411:330,1,116.999996429443,0|2,0:0|3:0,0:0:0:0:
290,267,20177,6,0,P|252:244|173:268,1,116.999996429443,0|2,0:0|3:0,0:0:0:0:
129,351,20795,2,0,P|83:361|42:348,1,77.999997619629,0|8,0:0|0:0,0:0:0:0:
1,275,21259,1,2,3:0:0:0:
70,152,21414,6,0,L|82:27,1,116.999996429443,4|2,3:2|3:0,0:0:0:0:
284,11,22187,5,2,3:0:0:0:
260,85,22342,1,0,0:0:0:0:
302,149,22496,1,2,3:0:0:0:
222,212,22651,2,0,P|205:252|225:326,1,116.999996429443,2|2,2:3|3:0,0:0:0:0:
448,375,23424,5,2,3:0:0:0:
499,291,23579,1,8,0:0:0:0:
455,227,23733,1,2,3:0:0:0:
486,130,23888,2,0,P|505:77|478:14,1,116.999996429443,2|2,3:2|3:2,0:0:0:0:
426,76,24507,1,0,0:0:0:0:
326,4,24661,1,2,0:0:0:0:
155,129,24970,5,2,3:2:0:0:
237,68,25125,1,0,0:0:0:0:
345,164,25280,6,0,L|359:244,1,58.4999982147217,10|0,0:0|3:0,0:0:0:0:
322,297,25589,1,2,0:0:0:0:
211,227,25744,1,8,0:0:0:0:
156,337,25898,2,0,P|120:349|85:343,1,58.4999982147217,2|8,3:2|1:2,0:0:0:0:
59,321,26130,1,8,1:2:0:0:
54,288,26208,1,10,0:2:0:0:
49,256,26285,1,0,1:2:0:0:
45,224,26362,6,0,B|57:191|48:163|42:167|19:146|34:103,1,116.999996429443,6|0,3:2|3:3,0:0:0:0:
68,34,26826,1,8,0:0:0:0:
151,119,26981,1,0,1:0:0:0:
151,119,27058,1,0,1:0:0:0:
151,119,27135,2,0,L|230:122,1,58.4999982147217,2|0,3:2|3:0,0:0:0:0:
272,62,27445,1,8,0:0:0:0:
324,188,27599,6,0,P|360:205|445:173,1,116.999996429443,2|0,3:2|3:0,0:0:0:0:
483,117,28063,1,8,0:0:0:0:
508,237,28218,1,0,1:0:0:0:
508,237,28295,1,0,1:0:0:0:
508,237,28373,2,0,L|506:302,1,58.4999982147217,2|0,3:2|3:1,0:0:0:0:
432,374,28682,1,8,0:0:0:0:
316,284,28836,6,0,P|249:268|197:296,1,116.999996429443,2|0,3:2|3:2,0:0:0:0:
159,362,29300,1,8,0:0:0:0:
91,253,29455,1,0,1:0:0:0:
91,253,29532,1,0,1:0:0:0:
91,253,29610,2,0,P|75:186|103:134,1,116.999996429443,2|8,0:0|0:0,0:0:0:0:
81,60,30074,1,2,3:2:0:0:
186,21,30228,6,0,P|230:12|300:64,1,116.999996429443,0|8,0:0|0:0,0:0:0:0:
247,119,30692,1,0,1:0:0:0:
247,119,30769,1,0,1:0:0:0:
247,119,30847,1,2,3:2:0:0:
171,195,31001,2,0,L|166:272,1,58.4999982147217,0|8,3:2|0:0,0:0:0:0:
272,381,31311,6,0,L|256:249,1,116.999996429443,4|0,3:2|3:0,0:0:0:0:
319,185,31775,1,8,0:0:0:0:
366,303,31929,1,0,1:0:0:0:
366,303,32007,1,0,1:0:0:0:
366,303,32084,2,0,L|440:298,1,58.4999982147217,2|0,3:2|3:3,0:0:0:0:
475,232,32393,1,8,0:0:0:0:
379,133,32548,6,0,P|323:106|257:133,1,116.999996429443,2|0,3:2|3:0,0:0:0:0:
218,186,33012,2,0,L|212:252,1,58.4999982147217,8|0,0:0|0:0,0:0:0:0:
165,334,33321,1,2,3:2:0:0:
88,364,33476,1,0,3:0:0:0:
18,320,33630,1,8,0:0:0:0:
99,224,33785,6,0,B|132:181|132:181|119:92,1,116.999996429443,4|0,3:2|3:0,0:0:0:0:
103,41,34249,1,8,0:0:0:0:
207,103,34403,2,0,P|236:111|286:99,1,58.4999982147217,0|0,0:0|3:0,0:0:0:0:
336,87,34713,1,0,3:0:0:0:
360,15,34867,1,8,0:0:0:0:
460,144,35022,6,0,B|475:202|475:202|456:271,1,116.999996429443,4|0,3:2|3:0,0:0:0:0:
407,342,35486,1,8,0:0:0:0:
320,236,35641,1,0,3:0:0:0:
320,236,35718,1,0,3:0:0:0:
320,236,35795,2,0,L|271:232,1,29.2499991073609,8|8,0:0|0:0,0:0:0:0:
224,308,35950,1,0,3:0:0:0:
209,306,36027,1,0,3:0:0:0:
193,303,36105,2,0,L|157:305,3,29.2499991073609,0|0|0|0,1:0|1:0|1:0|1:0,0:0:0:0:
96,257,36414,6,0,B|116:225|95:171|86:180|42:136|86:73,1,181.999994445801,4|8,3:2|0:0,0:0:0:0:
205,6,37342,1,2,0:0:0:0:
309,178,37651,5,4,0:0:0:0:
326,93,37806,1,8,0:0:0:0:
340,8,37960,2,0,P|384:7|433:23,1,90.9999972229005,2|8,0:0|0:0,0:0:0:0:
509,183,38579,1,8,0:0:0:0:
353,362,38888,6,0,L|331:175,1,181.999994445801,4|8,3:2|0:0,0:0:0:0:
225,9,39816,1,8,0:0:0:0:
111,71,39970,6,0,P|86:138|113:208,1,136.499995834351,4|8,3:2|0:0,0:0:0:0:
131,235,40512,1,0,0:0:0:0:
149,276,40589,1,0,1:0:0:0:
144,321,40666,1,0,1:0:0:0:
122,361,40744,6,0,L|93:363,3,22.7499993057251,8|8|0|0,0:0|0:0|3:0|3:0,0:0:0:0:
199,378,41053,1,0,1:0:0:0:
214,375,41130,1,0,1:0:0:0:
229,372,41208,1,0,1:0:0:0:
244,369,41285,1,0,1:0:0:0:
259,367,41362,5,4,0:0:0:0:
312,290,41672,1,2,0:0:0:0:
399,322,41981,1,2,0:0:0:0:
452,245,42291,1,2,0:0:0:0:
293,75,42599,5,2,0:0:0:0:
216,128,42909,1,2,0:0:0:0:
248,215,43218,1,2,0:0:0:0:
171,268,43528,1,2,0:0:0:0:
50,73,43836,5,12,0:0:0:0:
119,200,43991,1,0,3:0:0:0:
194,77,44146,1,0,3:0:0:0:
25,195,44300,5,8,1:2:0:0:
123,29,44455,1,0,1:0:0:0:
216,197,44610,5,8,1:2:0:0:
330,13,44764,1,0,1:0:0:0:
330,13,44842,1,0,1:0:0:0:
330,13,44919,2,0,B|398:0|398:0|472:26,1,136.499995834351,12|8,0:2|0:0,0:0:0:0:
411,172,45383,1,8,0:0:0:0:
512,87,45538,1,8,0:0:0:0:
499,254,45692,5,2,0:0:0:0:
494,280,46001,1,2,0:0:0:0:
332,238,46156,6,0,B|353:196|331:162|321:170|295:131|326:78,1,149.500002851486,6|0,0:0|3:0,0:0:0:0:
242,24,46620,1,10,0:0:0:0:
127,95,46775,1,0,1:0:0:0:
127,95,46852,1,0,1:0:0:0:
127,95,46929,1,2,3:2:0:0:
253,209,47084,1,0,3:0:0:0:
214,121,47239,1,10,0:0:0:0:
58,165,47393,6,0,P|28:236|67:308,1,149.500002851486,6|0,0:0|3:0,0:0:0:0:
156,230,47857,1,10,0:0:0:0:
205,372,48012,1,0,1:0:0:0:
205,372,48089,1,0,1:0:0:0:
205,372,48166,1,2,3:2:0:0:
355,299,48321,1,0,3:0:0:0:
252,261,48476,1,10,0:0:0:0:
396,384,48630,6,0,L|406:219,1,149.500002851486,6|0,0:0|3:0,0:0:0:0:
335,153,49094,1,8,0:0:0:0:
432,57,49249,2,0,P|375:39|269:60,1,149.500002851486,2|0,3:2|3:0,0:0:0:0:
237,132,49713,1,8,0:0:0:0:
46,46,49867,6,0,P|91:21|163:89,1,149.500002851486,6|0,0:0|3:0,0:0:0:0:
127,244,50331,1,10,0:0:0:0:
66,141,50486,1,0,0:0:0:0:
48,317,50641,5,10,1:2:0:0:
88,320,50718,1,8,1:2:0:0:
128,324,50795,1,10,0:2:0:0:
169,327,50873,1,8,1:2:0:0:
209,330,50950,2,0,L|261:326,1,37.3750007128716,10|8,0:2|1:2,0:0:0:0:
376,227,51105,6,0,B|334:206|300:228|308:238|269:264|216:233,1,149.500002851486,6|0,0:0|3:0,0:0:0:0:
171,161,51568,1,10,0:0:0:0:
269,57,51723,1,0,1:0:0:0:
269,57,51800,1,0,1:0:0:0:
269,57,51878,1,2,3:2:0:0:
347,93,52032,1,0,3:0:0:0:
402,22,52187,1,10,0:0:0:0:
463,160,52342,6,0,P|486:236|469:326,1,149.500002851486,6|0,0:0|3:0,0:0:0:0:
310,370,52806,1,10,0:0:0:0:
345,247,52961,2,0,P|347:205|338:169,1,74.7500014257431,0|2,0:0|3:2,0:0:0:0:
175,236,53269,1,0,3:0:0:0:
253,299,53424,1,8,0:0:0:0:
144,161,53579,6,0,L|136:341,1,149.500002851486,6|0,0:0|3:0,0:0:0:0:
81,382,54043,1,10,0:0:0:0:
15,267,54197,1,0,0:0:0:0:
15,267,54507,1,0,3:0:0:0:
65,186,54661,1,10,0:0:0:0:
0,63,54816,6,0,L|180:72,1,149.500002851486,6|0,0:0|3:0,0:0:0:0:
243,22,55280,1,10,0:0:0:0:
304,107,55434,1,0,0:0:0:0:
412,12,55589,1,10,0:2:0:0:
472,144,55744,5,8,1:2:0:0:
478,184,55821,1,8,1:2:0:0:
484,224,55898,2,0,L|478:271,1,37.3750007128716,10|8,0:2|1:2,0:0:0:0:
302,332,56053,6,0,B|323:290|301:256|291:264|265:225|296:172,1,149.500002851486,6|0,0:0|3:0,0:0:0:0:
368,165,56517,1,10,0:0:0:0:
241,116,56672,1,0,1:0:0:0:
241,116,56749,1,0,1:0:0:0:
241,116,56826,1,2,3:2:0:0:
215,276,56981,1,0,3:0:0:0:
158,184,57135,1,10,0:0:0:0:
128,327,57290,6,0,P|77:350|14:287,1,149.500002851486,6|0,0:0|3:0,0:0:0:0:
64,205,57754,1,10,0:0:0:0:
0,83,57909,1,0,1:0:0:0:
0,83,57986,1,0,1:0:0:0:
0,83,58063,1,2,3:2:0:0:
176,71,58218,1,0,3:0:0:0:
89,124,58373,1,10,0:0:0:0:
233,6,58527,6,0,L|218:191,1,149.500002851486,6|0,0:0|3:0,0:0:0:0:
272,302,58991,1,10,0:0:0:0:
323,220,59146,2,0,P|331:175|326:140,1,74.7500014257431,0|2,0:0|3:2,0:0:0:0:
402,280,59455,1,0,3:0:0:0:
465,165,59610,1,10,0:0:0:0:
511,347,59764,5,6,0:0:0:0:
251,266,60074,5,6,0:0:0:0:
72,371,60383,5,6,0:0:0:0:
84,111,60692,5,10,0:2:0:0:
69,153,60769,1,8,1:2:0:0:
57,196,60847,2,0,P|54:222|58:249,1,37.3750007128716,8|8,1:2|1:2,0:0:0:0:
213,266,61001,6,0,B|234:224|212:190|202:198|176:159|207:106,1,149.500002851486,6|0,0:0|3:0,0:0:0:0:
265,57,61465,1,10,0:0:0:0:
135,7,61620,1,0,1:0:0:0:
135,7,61697,1,0,1:0:0:0:
135,7,61775,1,2,3:2:0:0:
46,64,61929,1,0,3:0:0:0:
116,125,62084,1,10,0:0:0:0:
17,197,62239,6,0,P|0:277|30:350,1,149.500002851486,6|0,0:0|3:0,0:0:0:0:
106,372,62702,1,8,0:0:0:0:
180,256,62857,2,0,P|260:239|326:286,1,149.500002851486,2|0,0:0|3:0,0:0:0:0:
369,346,63320,1,8,0:0:0:0:
497,179,63476,6,0,L|327:158,1,149.500002851486,6|2,0:0|0:0,0:0:0:0:
281,72,63940,1,10,0:0:0:0:
170,162,64094,1,0,0:0:0:0:
170,162,64172,1,0,0:0:0:0:
170,162,64249,1,2,3:2:0:0:
106,26,64403,1,0,3:0:0:0:
194,68,64558,1,10,0:0:0:0:
44,136,64713,6,0,P|17:178|48:281,1,149.500002851486,2|0,0:0|3:0,0:0:0:0:
198,253,65177,2,0,P|160:240|108:245,1,74.7500014257431,10|0,0:0|0:0,0:0:0:0:
310,384,65486,5,8,1:2:0:0:
312,345,65563,1,8,1:2:0:0:
314,305,65641,1,8,1:2:0:0:
316,266,65718,1,8,1:2:0:0:
318,227,65795,2,0,P|318:200|314:174,1,32.5,8|8,1:2|1:2,0:0:0:0:
234,21,65950,6,0,L|224:205,1,155.999995239258,4|0,0:0|3:0,0:0:0:0:
126,50,66414,2,0,L|132:140,1,77.999997619629,10|0,0:0|0:0,0:0:0:0:
32,87,66723,2,0,L|19:179,1,77.999997619629,2|0,0:0|1:0,0:0:0:0:
94,231,67032,1,10,0:0:0:0:
8,350,67187,6,0,P|89:351|181:339,1,155.999995239258,2|0,0:0|3:0,0:0:0:0:
276,255,67651,2,0,L|367:262,1,77.999997619629,10|0,0:0|1:0,0:0:0:0:
409,216,67883,1,0,1:0:0:0:
425,199,67960,2,0,L|516:192,1,77.999997619629,2|0,0:0|1:0,0:0:0:0:
460,293,68269,1,10,0:0:0:0:
329,177,68424,6,0,L|343:6,1,155.999995239258,4|0,0:0|3:0,0:0:0:0:
243,127,68888,2,0,L|232:40,1,77.999997619629,10|0,0:0|0:0,0:0:0:0:
129,97,69197,2,0,L|141:15,1,77.999997619629,2|0,0:0|1:0,0:0:0:0:
26,50,69507,1,10,0:0:0:0:
110,205,69661,6,0,P|187:204|267:213,1,155.999995239258,2|0,0:0|3:0,0:0:0:0:
337,283,70125,2,0,L|414:277,1,77.999997619629,10|0,0:0|0:0,0:0:0:0:
244,358,70434,1,8,1:2:0:0:
208,354,70512,1,8,1:2:0:0:
173,350,70589,1,8,1:2:0:0:
138,346,70666,1,8,1:2:0:0:
102,342,70744,2,0,L|58:357,1,38.9999988098145,8|8,1:2|1:2,0:0:0:0:
23,193,70898,6,0,L|7:17,1,155.999995239258,4|0,0:0|3:0,0:0:0:0:
120,136,71362,2,0,L|125:58,1,77.999997619629,10|0,0:0|0:0,0:0:0:0:
228,107,71672,2,0,L|220:29,1,77.999997619629,2|0,0:0|1:0,0:0:0:0:
336,54,71981,1,10,0:0:0:0:
391,193,72135,6,0,P|314:187|231:191,1,155.999995239258,2|0,0:0|3:0,0:0:0:0:
123,264,72599,2,0,L|32:259,1,77.999997619629,10|0,0:0|1:0,0:0:0:0:
63,333,72831,1,0,1:0:0:0:
86,351,72909,2,0,L|177:356,1,77.999997619629,2|0,0:0|1:0,0:0:0:0:
238,289,73218,1,10,0:0:0:0:
393,368,73373,6,0,L|403:199,1,155.999995239258,4|0,0:0|3:0,0:0:0:0:
458,137,73836,2,0,L|466:51,1,77.999997619629,10|0,0:0|3:0,0:0:0:0:
388,18,74146,1,2,1:2:0:0:
312,57,74300,1,0,1:0:0:0:
232,24,74455,1,10,0:0:0:0:
276,157,74610,6,0,P|290:230|276:320,1,155.999995239258,4|0,0:0|3:0,0:0:0:0:
206,373,75074,1,10,0:0:0:0:
85,274,75228,6,0,P|71:201|85:111,1,155.999995239258,4|8,0:0|1:2,0:0:0:0:
101,91,75615,1,8,1:2:0:0:
129,58,75692,2,0,L|129:12,1,38.9999988098145,8|8,1:2|1:2,0:0:0:0:
253,135,75847,6,0,L|413:145,1,155.999995239258,4|0,0:0|3:0,0:0:0:0:
293,236,76311,2,0,L|391:227,1,77.999997619629,10|0,0:0|0:0,0:0:0:0:
337,326,76620,2,0,L|414:333,1,77.999997619629,2|0,0:0|1:0,0:0:0:0:
512,379,76929,1,10,0:0:0:0:
509,231,77084,6,0,P|497:140|508:57,1,155.999995239258,2|0,0:0|3:0,0:0:0:0:
359,16,77548,2,0,L|369:122,1,77.999997619629,10|0,0:0|1:0,0:0:0:0:
299,118,77780,1,0,1:0:0:0:
271,107,77857,2,0,L|275:30,1,77.999997619629,2|0,0:0|1:0,0:0:0:0:
170,47,78166,1,10,0:0:0:0:
279,193,78321,6,0,L|94:201,1,155.999995239258,4|0,0:0|3:0,0:0:0:0:
207,290,78785,2,0,L|100:281,1,77.999997619629,10|0,0:0|0:0,0:0:0:0:
144,367,79094,2,0,L|66:373,1,77.999997619629,2|0,0:0|1:0,0:0:0:0:
13,294,79403,1,10,0:0:0:0:
54,162,79558,6,0,P|46:78|63:-4,1,155.999995239258,2|0,0:0|3:0,0:0:0:0:
150,45,80022,2,0,L|236:53,1,77.999997619629,8|0,0:0|0:0,0:0:0:0:
370,7,80331,1,8,1:2:0:0:
365,50,80409,1,8,1:2:0:0:
360,92,80486,1,8,1:2:0:0:
355,134,80563,1,8,1:2:0:0:
351,177,80641,2,0,L|359:240,1,38.9999988098145,8|8,1:2|1:2,0:0:0:0:
275,356,80795,6,0,L|100:350,1,155.999995239258,4|0,0:0|3:0,0:0:0:0:
232,258,81259,2,0,L|133:263,1,77.999997619629,10|0,0:0|0:0,0:0:0:0:
174,172,81568,2,0,L|75:167,1,77.999997619629,2|0,0:0|1:0,0:0:0:0:
78,72,81878,1,10,0:0:0:0:
261,7,82032,6,0,P|246:88|262:177,1,155.999995239258,2|0,0:0|3:0,0:0:0:0:
317,229,82496,2,0,L|325:314,1,77.999997619629,10|0,0:0|0:0,0:0:0:0:
501,363,82806,1,2,3:2:0:0:
414,274,82960,1,0,3:0:0:0:
389,377,83115,1,10,0:0:0:0:
507,225,83269,6,0,L|513:64,1,155.999995239258,4|0,0:0|3:0,0:0:0:0:
348,12,83733,2,0,L|360:96,1,77.999997619629,10|0,0:0|3:0,0:0:0:0:
207,175,84043,1,10,0:0:0:0:
257,16,84197,1,0,3:0:0:0:
305,146,84352,1,10,0:0:0:0:
131,12,84507,6,0,L|121:183,1,155.999995239258,4|0,0:0|3:0,0:0:0:0:
47,223,84970,1,10,0:0:0:0:
251,287,85125,6,0,L|80:297,1,155.999995239258,4|0,0:0|3:0,0:0:0:0:
40,371,85588,1,10,0:0:0:0:
292,380,85744,6,0,L|298:201,1,155.999995239258,4|0,0:0|3:0,0:0:0:0:
305,200,86130,1,0,3:0:0:0:
305,200,86208,1,10,0:0:0:0:
485,142,86362,1,2,3:0:0:0:
373,295,86517,1,10,0:0:0:0:
374,106,86672,1,8,0:0:0:0:
485,259,86826,1,2,0:0:0:0:
287,88,86981,6,0,L|108:82,1,155.999995239258,4|8,0:0|1:2,0:0:0:0:
96,109,87367,1,8,1:2:0:0:
91,148,87445,1,8,1:2:0:0:
86,186,87522,1,8,1:2:0:0:
81,224,87599,5,6,0:0:0:0:
368,373,87909,5,6,0:0:0:0:
185,176,88218,6,0,B|135:202|108:274|153:353|217:363|217:363|231:332|227:280|191:259,1,350.99998928833,6|0,0:0|0:0,0:0:0:0:
