osu file format v14

[General]
AudioFilename: audio.mp3
AudioLeadIn: 0
PreviewTime: 45680
Countdown: 0
SampleSet: Drum
StackLeniency: 0.4
Mode: 0
LetterboxInBreaks: 0
WidescreenStoryboard: 1

[Editor]
DistanceSpacing: 1.8
BeatDivisor: 4
GridSize: 16
TimelineZoom: 1.8

[Metadata]
Title:nameless story (TV Size)
TitleUnicode:nameless story (TV Size)
Artist:KISIDA KYODAN & THE AKEBOSI ROCKETS
ArtistUnicode:岸田教団&THE明星ロケッツ
Creator:Nelliel
Version:RETRIBUTION
Source:とある科学の超電磁砲T
Tags:kishida kyoudan and akeboshi Japanese Anime JP jrock J-Rock Rock A Certain Scientific Railgun T Toaru Kagaku no Choudenjihou 3 grindle ed ending
BeatmapID:2654729
BeatmapSetID:1096599

[Difficulty]
HPDrainRate:5.7
CircleSize:4
OverallDifficulty:8.7
ApproachRate:9.3
SliderMultiplier:1.8
SliderTickRate:1

[Events]
//Background and Video events
0,0,"bg.jpg",0,0
//Break Periods
//Storyboard Layer 0 (Background)
//Storyboard Layer 1 (Fail)
//Storyboard Layer 2 (Pass)
//Storyboard Layer 3 (Foreground)
//Storyboard Layer 4 (Overlay)
//Storyboard Sound Samples

[TimingPoints]
526,309.278350515464,4,2,1,20,1,0
989,-100,4,2,1,30,0,0
1453,-100,4,2,1,40,0,0
1917,-100,4,2,1,50,0,0
2381,-100,4,2,1,60,0,0
2690,-133.333333333333,4,2,1,70,0,0
4701,-133.333333333333,4,2,1,35,0,0
5629,-133.333333333333,4,2,1,50,0,0
6093,-117.647058823529,4,2,1,65,0,0
6247,-100,4,2,1,65,0,0
6556,-100,4,3,1,75,0,0
16453,-133.333333333333,4,2,1,60,0,0
26350,-117.647058823529,4,3,1,70,0,0
36402,-133.333333333333,4,3,1,70,0,0
41350,-133.333333333333,4,2,1,65,0,0
43824,-100,4,2,1,70,0,0
46144,-83.3333333333333,4,3,1,80,0,1
65938,-90.9090909090909,4,3,1,80,0,0
83257,-90.9090909090909,4,3,1,90,0,1
88206,-83.3333333333333,4,3,1,80,0,0
88283,-100,4,3,1,50,0,0
89752,-100,4,2,1,5,0,0

[Colours]
Combo1 : 255,255,128
Combo2 : 255,66,66
Combo3 : 0,65,130
Combo4 : 255,183,219
Combo5 : 0,128,0

[HitObjects]
256,192,526,12,8,2690,1:2:0:0:
266,26,2845,5,8,0:3:0:0:
266,26,2922,1,8,0:3:0:0:
266,26,3000,2,0,P|205:17|134:1,1,135.000005149842,6|0,1:2|0:0,0:0:0:0:
24,59,3464,1,6,1:2:0:0:
190,177,3773,1,0,1:0:0:0:
190,177,3850,1,0,1:0:0:0:
190,177,3928,2,0,P|159:181|124:189,1,67.5000025749208,14|0,0:0|0:0,0:0:0:0:
7,160,4237,5,8,0:0:0:0:
132,291,4391,1,2,1:2:0:0:
132,291,6093,5,10,0:0:0:0:
169,291,6170,1,8,0:0:0:0:
203,273,6247,1,10,0:0:0:0:
223,241,6324,1,8,0:0:0:0:
242,208,6402,1,10,0:0:0:0:
273,186,6479,1,8,0:0:0:0:
310,182,6556,6,0,L|293:368,1,180,6|0,1:2|1:0,0:0:0:0:
432,242,7020,2,0,P|463:199|453:147,1,90,10|0,0:2|0:0,0:0:0:0:
442,133,7252,1,2,0:2:0:0:
442,133,7330,1,2,1:2:0:0:
265,184,7484,1,0,1:0:0:0:
461,104,7639,1,10,0:2:0:0:
284,53,7794,6,0,B|158:29|158:29|107:65,1,180,2|0,1:2|1:0,0:0:0:0:
30,204,8257,2,0,L|148:187,1,90,10|0,0:2|0:0,0:0:0:0:
153,187,8489,1,2,0:2:0:0:
153,187,8567,1,2,1:2:0:0:
108,351,8721,1,0,1:0:0:0:
229,145,8876,1,10,0:2:0:0:
292,336,9031,6,0,P|345:275|440:313,1,180,6|0,1:2|1:0,0:0:0:0:
512,168,9495,2,0,P|468:164|422:155,1,90,10|0,0:2|0:0,0:0:0:0:
397,133,9727,1,2,0:2:0:0:
397,133,9804,1,2,1:2:0:0:
507,39,9958,1,0,1:0:0:0:
463,235,10113,1,10,0:2:0:0:
317,103,10268,6,0,B|270:84|220:100|223:127|218:167|148:184,1,180,2|0,1:2|1:0,0:0:0:0:
33,47,10732,1,10,0:2:0:0:
217,4,10886,1,2,0:2:0:0:
59,142,11041,1,0,1:0:0:0:
63,179,11118,1,8,0:2:0:0:
68,216,11195,1,8,0:2:0:0:
73,253,11272,1,8,0:2:0:0:
78,290,11350,1,8,0:2:0:0:
83,327,11427,1,8,0:2:0:0:
87,365,11505,6,0,L|276:331,1,180,6|0,1:2|1:0,0:0:0:0:
404,173,11969,2,0,P|372:143|319:141,1,90,10|0,0:2|0:0,0:0:0:0:
297,161,12201,1,2,0:2:0:0:
297,161,12278,1,2,1:2:0:0:
389,340,12433,1,0,1:0:0:0:
467,135,12587,1,10,0:2:0:0:
375,314,12742,6,0,L|197:281,1,180,2|0,1:2|1:0,0:0:0:0:
52,136,13206,2,0,L|68:224,1,90,10|0,0:2|0:0,0:0:0:0:
74,262,13438,1,2,0:2:0:0:
74,262,13515,1,2,1:2:0:0:
173,53,13670,1,0,1:0:0:0:
324,244,13824,1,10,0:2:0:0:
123,118,13979,6,0,B|249:94|249:94|291:134,1,180,6|0,1:2|1:0,0:0:0:0:
432,272,14443,2,0,L|448:183,1,90,10|0,0:2|0:0,0:0:0:0:
446,147,14675,1,2,0:2:0:0:
446,147,14752,1,2,1:2:0:0:
284,259,14907,1,2,1:2:0:0:
493,362,15062,1,10,0:2:0:0:
311,187,15216,6,0,P|241:195|217:296,1,180,6|0,1:2|1:0,0:0:0:0:
109,384,15680,2,0,P|61:378|8:369,1,90,8|2,0:2|0:2,0:0:0:0:
16,328,15912,1,2,0:2:0:0:
16,328,15989,2,0,P|38:324|60:321,1,45,8|2,0:0|0:2,0:0:0:0:
114,205,16144,2,0,P|117:227|120:249,1,45,8|8,0:2|0:2,0:0:0:0:
9,184,16299,1,8,0:2:0:0:
9,184,16376,1,8,0:2:0:0:
9,184,16453,6,0,P|17:112|29:40,1,135.000005149842,6|0,1:2|0:0,0:0:0:0:
186,132,16917,2,0,P|152:126|119:122,1,67.5000025749208,0|0,1:0|0:0,0:0:0:0:
282,99,17227,1,2,1:2:0:0:
220,244,17381,1,2,0:0:0:0:
126,118,17536,1,2,1:2:0:0:
292,196,17690,2,0,P|367:183|443:174,1,135.000005149842,2|0,0:0|0:0,0:0:0:0:
488,62,18154,2,0,P|454:45|421:52,1,67.5000025749208,2|0,1:2|0:0,0:0:0:0:
319,113,18464,1,2,1:2:0:0:
448,247,18618,1,2,0:0:0:0:
358,110,18773,1,8,0:0:0:0:
507,200,18928,6,0,L|490:340,1,135.000005149842,6|0,1:2|0:0,0:0:0:0:
299,278,19391,1,2,1:2:0:0:
299,278,19546,2,0,P|329:237|414:250,1,135.000005149842,2|0,0:0|0:0,0:0:0:0:
325,362,20010,1,2,1:2:0:0:
325,362,20165,2,0,B|231:347|231:347|196:378,1,135.000005149842,2|2,0:0|0:0,0:0:0:0:
77,270,20629,1,2,1:2:0:0:
77,270,20783,2,0,L|165:252,1,67.5000025749208,2|0,0:0|1:0,0:0:0:0:
207,117,21093,1,8,0:0:0:0:
50,53,21247,1,2,0:0:0:0:
185,194,21402,6,0,L|319:177,1,135.000005149842,6|0,1:2|0:0,0:0:0:0:
364,53,21866,2,0,L|296:44,1,67.5000025749208,0|0,1:0|0:0,0:0:0:0:
155,116,22175,1,2,1:2:0:0:
280,228,22330,1,2,0:0:0:0:
188,113,22484,1,2,1:2:0:0:
311,302,22639,2,0,L|329:160,1,135.000005149842,2|0,0:0|0:0,0:0:0:0:
228,293,23103,2,0,L|236:359,1,67.5000025749208,2|0,1:2|0:0,0:0:0:0:
387,267,23412,1,2,1:2:0:0:
234,193,23567,1,8,0:0:0:0:
381,105,23721,1,2,0:0:0:0:
195,259,23876,6,0,P|159:213|190:131,1,135.000005149842,6|0,1:2|0:0,0:0:0:0:
324,37,24340,1,2,1:2:0:0:
324,37,24495,2,0,B|306:180,1,135.000005149842,2|0,0:0|0:0,0:0:0:0:
224,15,24958,2,0,B|233:86,1,67.5000025749208,2|2,1:2|0:0,0:0:0:0:
430,48,25268,5,8,0:0:0:0:
367,242,25422,1,2,1:2:0:0:
231,91,25577,1,2,1:2:0:0:
449,206,25732,1,8,0:0:0:0:
249,248,25886,1,2,1:2:0:0:
312,55,26041,1,8,0:0:0:0:
317,99,26118,1,8,0:0:0:0:
322,144,26195,1,10,0:0:0:0:
327,189,26273,1,8,0:0:0:0:
332,233,26350,6,0,L|348:385,1,153.000002918243,6|0,1:2|1:0,0:0:0:0:
479,273,26814,2,0,P|495:237|487:197,1,76.5000014591217,8|0,0:2|0:0,0:0:0:0:
461,176,27046,1,2,0:2:0:0:
461,176,27123,1,2,1:2:0:0:
411,332,27278,1,2,1:2:0:0:
253,205,27433,1,10,0:2:0:0:
409,255,27587,6,0,B|356:255|340:288|349:300|326:337|273:329,1,153.000002918243,2|0,1:2|1:0,0:0:0:0:
142,260,28051,2,0,P|150:217|156:174,1,76.5000014591217,8|0,0:2|0:0,0:0:0:0:
146,155,28283,1,2,0:2:0:0:
146,155,28361,1,2,1:2:0:0:
20,270,28515,1,2,1:2:0:0:
232,204,28670,1,10,0:2:0:0:
83,57,28824,6,0,L|94:233,1,153.000002918243,2|0,1:2|1:0,0:0:0:0:
313,97,29288,1,10,0:2:0:0:
313,97,29443,2,0,B|214:58|214:58|171:89,1,153.000002918243,2|0,0:2|1:0,0:0:0:0:
274,221,29907,1,10,0:2:0:0:
274,221,30062,6,0,L|428:179,1,153.000002918243,2|0,1:2|1:0,0:0:0:0:
473,51,30526,1,10,0:2:0:0:
330,125,30680,1,2,0:2:0:0:
330,125,30757,1,2,0:2:0:0:
330,125,30835,1,0,1:0:0:0:
477,247,30989,1,2,1:2:0:0:
405,99,31144,1,8,0:2:0:0:
314,288,31299,6,0,B|261:288|245:255|254:243|231:206|178:214,1,153.000002918243,6|2,1:2|1:2,0:0:0:0:
74,363,31763,2,0,P|121:358|164:350,1,76.5000014591217,10|0,0:2|0:0,0:0:0:0:
175,335,31995,1,2,0:2:0:0:
175,335,32072,1,2,1:2:0:0:
54,173,32227,1,0,1:0:0:0:
213,259,32381,1,8,0:2:0:0:
2,228,32536,6,0,P|-23:180|25:102,1,153.000002918243,2|2,1:2|1:2,0:0:0:0:
244,192,33000,2,0,P|206:185|168:182,1,76.5000014591217,10|0,0:2|0:0,0:0:0:0:
141,200,33232,1,2,0:2:0:0:
141,200,33309,1,0,1:0:0:0:
218,53,33464,1,0,1:0:0:0:
331,216,33618,1,10,0:2:0:0:
401,56,33773,6,0,L|419:222,1,153.000002918243,6|0,1:2|1:0,0:0:0:0:
496,77,34237,1,10,0:2:0:0:
313,158,34391,1,2,0:2:0:0:
313,158,34469,1,2,0:2:0:0:
313,158,34546,1,0,1:0:0:0:
462,282,34701,1,2,1:2:0:0:
337,141,34855,1,8,0:2:0:0:
281,318,35010,6,0,B|210:308|210:308|189:318|189:318|113:310,1,153.000002918243,6|2,1:2|1:2,0:0:0:0:
15,215,35474,2,0,L|108:200,1,76.5000014591217,10|8,0:2|0:2,0:0:0:0:
118,175,35706,1,8,0:2:0:0:
118,175,35783,2,0,L|80:168,1,38.2500007295609,10|8,0:2|0:2,0:0:0:0:
200,116,35938,2,0,L|177:84,1,38.2500007295609,4|4,0:0|0:0,0:0:0:0:
294,143,36093,2,0,L|300:105,1,38.2500007295609,8|8,0:0|0:0,0:0:0:0:
341,228,36247,2,0,L|372:205,1,38.2500007295609,4|4,0:0|0:0,0:0:0:0:
314,321,36402,6,0,L|453:343,1,135.000005149842,6|0,1:2|0:0,0:0:0:0:
347,195,36866,1,0,1:0:0:0:
230,302,37020,2,0,L|160:312,1,67.5000025749208,10|0,0:2|0:0,0:0:0:0:
59,205,37330,2,0,L|125:194,1,67.5000025749208,2|0,0:2|0:0,0:0:0:0:
266,128,37639,5,4,1:2:0:0:
220,288,37794,1,8,0:2:0:0:
375,192,37948,2,0,P|370:225|363:258,1,67.5000025749208,2|0,0:2|1:0,0:0:0:0:
352,292,38180,1,0,1:0:0:0:
352,292,38257,1,8,0:2:0:0:
209,196,38412,1,0,1:0:0:0:
445,260,38567,1,10,0:2:0:0:
281,353,38721,1,0,0:0:0:0:
464,167,38876,6,0,P|399:168|359:95,1,135.000005149842,4|0,1:2|0:0,0:0:0:0:
406,22,39340,1,0,1:0:0:0:
406,22,39417,1,0,1:0:0:0:
406,22,39495,2,0,P|447:18|486:12,1,67.5000025749208,10|0,0:2|1:0,0:0:0:0:
321,131,39804,1,10,0:2:0:0:
234,14,39958,6,0,P|165:3|96:0,1,135.000005149842,4|0,1:2|1:0,0:0:0:0:
134,213,40422,1,10,0:2:0:0:
159,191,40499,1,2,0:2:0:0:
172,160,40576,1,8,0:2:0:0:
167,127,40653,1,8,0:2:0:0:
147,101,40732,2,0,L|104:108,1,33.7500012874604,10|8,0:2|0:2,0:0:0:0:
16,227,40886,2,0,L|59:233,1,33.7500012874604,4|4,0:0|0:0,0:0:0:0:
249,185,41041,2,0,L|242:228,1,33.7500012874604,8|8,0:0|0:0,0:0:0:0:
123,316,41195,2,0,L|116:272,1,33.7500012874604,4|4,0:0|0:0,0:0:0:0:
309,274,41350,6,0,L|296:354,1,67.5000025749208,6|0,1:2|0:0,0:0:0:0:
423,192,41660,2,0,L|356:181,1,67.5000025749208,0|0,1:0|0:0,0:0:0:0:
215,68,41969,2,0,P|244:51|285:52,1,67.5000025749208,0|0,1:0|0:0,0:0:0:0:
493,104,42278,2,0,L|426:114,1,67.5000025749208,2|0,1:2|0:0,0:0:0:0:
288,242,42587,6,0,P|254:240|225:223,1,67.5000025749208,2|0,1:2|0:0,0:0:0:0:
412,235,42897,2,0,P|408:270|401:301,1,67.5000025749208,0|0,1:0|0:0,0:0:0:0:
243,384,43206,2,0,P|236:350|232:317,1,67.5000025749208,2|0,1:2|0:0,0:0:0:0:
358,132,43515,2,0,P|354:167|347:198,1,67.5000025749208,0|0,1:0|0:0,0:0:0:0:
156,100,43824,5,14,0:0:0:0:
351,10,43979,1,0,1:0:0:0:
332,224,44134,1,0,1:0:0:0:
217,0,44288,1,8,0:0:0:0:
392,123,44443,1,0,1:0:0:0:
197,214,44598,1,10,0:0:0:0:
384,319,44752,1,2,1:2:0:0:
384,319,44830,1,0,1:0:0:0:
384,319,44907,1,14,0:0:0:0:
384,319,45216,5,10,1:2:0:0:
244,108,45371,1,10,1:2:0:0:
199,384,45526,1,10,0:0:0:0:
299,243,45680,2,0,P|343:203|331:263,1,135
284,266,45989,2,0,P|257:263|229:257,1,45
103,133,46144,6,0,P|156:126|267:107,1,161.999995056153,6|0,1:2|0:0,0:0:0:0:
290,85,46453,1,2,1:2:0:0:
111,9,46608,1,10,0:2:0:0:
320,215,46763,1,2,0:2:0:0:
320,215,46840,1,2,0:2:0:0:
320,215,46917,2,0,P|329:158|341:101,1,107.999996704102,2|2,1:2|1:2,0:0:0:0:
173,200,47227,1,8,0:2:0:0:
360,312,47381,6,0,P|303:321|246:333,1,107.999996704102,2|0,1:2|0:0,0:0:0:0:
84,205,47690,1,2,1:2:0:0:
226,355,47845,1,10,0:2:0:0:
350,205,48000,1,2,0:2:0:0:
350,205,48077,1,2,0:2:0:0:
350,205,48154,1,2,1:2:0:0:
167,292,48309,1,2,1:2:0:0:
293,123,48464,1,8,0:2:0:0:
386,331,48618,6,0,B|426:308|453:297|453:297|427:226|406:142,1,215.999993408203,6|2,1:2|1:2,0:0:0:0:
413,15,49082,1,10,0:2:0:0:
291,196,49237,1,2,0:2:0:0:
291,196,49314,1,2,0:2:0:0:
291,196,49391,2,0,P|228:185|167:171,1,107.999996704102,0|2,1:0|1:2,0:0:0:0:
70,29,49701,1,10,0:2:0:0:
330,77,49855,6,0,P|247:90|164:108,1,161.999995056153,2|0,1:2|0:0,0:0:0:0:
138,98,50165,1,0,1:0:0:0:
300,293,50319,2,0,P|313:234|279:186,1,107.999996704102,10|2,0:2|0:2,0:0:0:0:
92,316,50629,1,8,0:2:0:0:
92,316,50706,1,8,0:2:0:0:
92,316,50783,2,0,L|35:308,1,53.9999983520508,10|8,0:2|0:2,0:0:0:0:
145,194,50938,1,10,0:2:0:0:
145,194,51015,1,8,0:2:0:0:
145,194,51092,6,0,L|335:167,1,161.999995056153,6|0,1:2|0:0,0:0:0:0:
343,164,51402,1,0,1:0:0:0:
208,0,51556,2,0,L|224:115,1,107.999996704102,8|2,0:2|0:2,0:0:0:0:
230,150,51788,1,2,0:2:0:0:
230,150,51866,1,2,1:2:0:0:
378,29,52020,1,2,1:2:0:0:
144,115,52175,1,8,0:2:0:0:
327,237,52330,6,0,B|478:221|478:221|512:275,1,215.999993408203,2|2,1:2|1:2,0:0:0:0:
377,137,52794,1,10,0:2:0:0:
274,328,52948,1,2,0:2:0:0:
274,328,53026,1,2,0:2:0:0:
274,328,53103,1,0,1:0:0:0:
414,145,53257,1,2,1:2:0:0:
195,222,53412,1,10,0:2:0:0:
380,384,53567,6,0,L|397:150,1,215.999993408203,6|0,1:2|1:0,0:0:0:0:
192,70,54031,1,10,0:2:0:0:
306,270,54185,1,4,0:0:0:0:
375,8,54340,1,0,1:0:0:0:
261,208,54494,1,2,1:2:0:0:
417,3,54649,1,10,0:2:0:0:
148,172,54804,6,0,P|46:172|11:59,1,215.999993408203,6|0,1:2|1:0,0:0:0:0:
279,47,55268,2,0,L|247:235,1,161.999995056153,8|0,0:2|0:0,0:0:0:0:
241,248,55577,1,10,0:2:0:0:
500,224,55732,1,8,0:2:0:0:
493,171,55809,1,8,0:2:0:0:
459,130,55886,1,10,0:2:0:0:
408,115,55963,1,8,0:2:0:0:
357,130,56041,6,0,L|395:358,1,215.999993408203,6|2,1:2|1:2,0:0:0:0:
499,159,56505,1,10,0:2:0:0:
299,292,56660,1,2,0:2:0:0:
299,292,56737,1,2,0:2:0:0:
299,292,56814,2,0,P|270:253|280:185,1,107.999996704102,2|2,1:2|1:2,0:0:0:0:
467,275,57123,1,8,0:2:0:0:
316,384,57278,6,0,L|151:359,1,161.999995056153,2|0,1:2|0:0,0:0:0:0:
123,354,57587,1,2,1:2:0:0:
219,167,57742,1,10,0:2:0:0:
20,267,57897,1,2,0:2:0:0:
20,267,57974,1,2,0:2:0:0:
20,267,58051,1,2,1:2:0:0:
255,343,58206,1,2,1:2:0:0:
113,139,58361,1,8,0:2:0:0:
362,216,58515,6,0,B|377:155|395:93|395:93|360:83|312:62,1,215.999993408203,6|0,1:2|1:0,0:0:0:0:
186,147,58979,1,10,0:2:0:0:
386,5,59134,1,2,0:2:0:0:
209,150,59288,1,0,1:0:0:0:
427,274,59443,1,2,1:2:0:0:
235,76,59598,1,10,0:2:0:0:
299,327,59752,5,2,1:3:0:0:
336,260,60062,1,2,1:3:0:0:
299,193,60371,1,2,1:3:0:0:
336,126,60680,1,10,0:2:0:0:
385,105,60757,1,8,0:2:0:0:
436,119,60834,1,8,0:2:0:0:
468,161,60911,1,8,0:2:0:0:
468,214,60989,6,0,B|405:201|368:256|386:273|370:333|274:324,1,215.999993408203,6|0,1:2|1:0,0:0:0:0:
105,171,61453,2,0,P|165:162|241:145,1,107.999996704102,8|2,0:2|0:2,0:0:0:0:
246,132,61685,1,2,0:2:0:0:
246,132,61763,1,2,1:2:0:0:
63,48,61917,1,2,1:2:0:0:
168,255,62072,1,10,0:2:0:0:
355,91,62227,6,0,P|243:68|130:51,1,215.999993408203,2|0,1:2|1:0,0:0:0:0:
363,7,62690,1,10,0:2:0:0:
238,189,62845,1,2,0:2:0:0:
238,189,62922,1,2,0:2:0:0:
238,189,63000,1,0,1:0:0:0:
462,130,63154,1,2,1:2:0:0:
262,0,63309,1,10,0:2:0:0:
381,232,63464,6,0,B|464:246|519:207|519:207|502:162|459:159,1,215.999993408203,6|2,1:2|1:2,0:0:0:0:
280,102,63928,1,10,0:2:0:0:
394,320,64082,1,0,0:0:0:0:
489,91,64237,1,0,1:0:0:0:
271,205,64391,1,0,1:0:0:0:
489,113,64546,1,8,0:2:0:0:
285,292,64701,6,0,L|101:255,1,161.999995056153,6|0,1:2|0:0,0:0:0:0:
92,254,65010,1,0,1:0:0:0:
265,195,65165,2,0,P|320:119|284:56,1,161.999995056153,8|0,0:2|0:0,0:0:0:0:
250,56,65474,1,10,1:2:0:0:
208,69,65551,1,8,0:2:0:0:
180,104,65628,1,8,0:2:0:0:
158,143,65706,1,8,0:2:0:0:
123,170,65783,1,8,0:2:0:0:
78,174,65860,1,8,0:2:0:0:
57,162,65938,6,0,B|25:131|-3:113|-3:113|37:66|82:-10,1,198.000006042481,6|0,1:2|1:0,0:0:0:0:
331,118,66402,2,0,L|211:134,1,99.0000030212403,10|0,0:2|0:0,0:0:0:0:
202,118,66634,1,2,0:2:0:0:
202,118,66711,1,2,1:2:0:0:
276,290,66866,1,0,1:0:0:0:
335,213,67020,1,8,0:2:0:0:
141,192,67175,6,0,L|163:359,1,148.50000453186,2|0,1:2|0:0,0:0:0:0:
166,373,67484,1,0,1:0:0:0:
25,210,67639,1,10,0:2:0:0:
249,330,67794,1,0,0:0:0:0:
249,330,67871,1,2,0:2:0:0:
249,330,67948,1,2,1:2:0:0:
122,179,68103,1,0,1:0:0:0:
96,272,68257,1,8,0:2:0:0:
245,130,68412,6,0,B|98:98|98:98|50:142,1,198.000006042481,6|0,1:2|1:0,0:0:0:0:
315,201,68876,2,0,P|347:166|335:100,1,99.0000030212403,10|0,0:2|0:0,0:0:0:0:
322,88,69108,1,2,0:2:0:0:
322,88,69185,1,2,1:2:0:0:
460,233,69340,1,0,1:0:0:0:
486,151,69495,1,8,0:2:0:0:
284,312,69649,6,0,L|397:328,1,99.0000030212403,2|0,1:2|0:0,0:0:0:0:
251,156,69958,1,0,1:0:0:0:
146,334,70113,2,0,L|132:235,1,99.0000030212403,8|2,0:2|0:2,0:0:0:0:
109,90,70422,1,10,0:2:0:0:
156,77,70499,1,8,0:2:0:0:
204,86,70576,1,8,0:2:0:0:
239,120,70653,1,8,0:2:0:0:
265,162,70731,1,10,0:2:0:0:
304,192,70808,1,8,0:2:0:0:
352,199,70886,6,0,L|385:-37,1,198.000006042481,6|2,1:2|1:2,0:0:0:0:
190,263,71350,2,0,L|173:144,1,99.0000030212403,10|0,0:2|0:0,0:0:0:0:
167,123,71582,1,2,0:2:0:0:
167,123,71660,1,2,1:2:0:0:
313,271,71814,1,0,1:0:0:0:
277,342,71969,1,8,0:2:0:0:
36,306,72123,6,0,L|241:276,1,198.000006042481,2|0,1:2|1:0,0:0:0:0:
349,186,72587,2,0,P|304:158|250:171,1,99.0000030212403,10|2,0:2|0:2,0:0:0:0:
234,195,72819,1,2,0:2:0:0:
234,195,72897,1,2,1:2:0:0:
395,329,73051,1,0,1:0:0:0:
427,253,73206,1,8,0:2:0:0:
304,369,73361,6,0,L|108:340,1,198.000006042481,6|2,1:2|1:2,0:0:0:0:
62,146,73824,1,10,0:2:0:0:
188,278,73979,1,4,0:0:0:0:
258,105,74134,1,2,1:2:0:0:
117,224,74289,1,0,1:0:0:0:
49,47,74443,1,10,0:2:0:0:
194,183,74598,6,0,L|389:154,1,198.000006042481,6|2,1:2|1:2,0:0:0:0:
206,28,75062,1,10,0:2:0:0:
426,69,75216,2,0,B|466:95|502:111|502:111|481:153|448:228,1,198.000006042481,6|10,1:2|0:2,0:0:0:0:
429,238,75603,1,8,0:2:0:0:
429,238,75680,2,0,L|441:297,1,49.5000015106202,10|8,0:2|0:2,0:0:0:0:
318,366,75835,6,0,P|285:302|169:325,1,198.000006042481,6|2,1:2|1:2,0:0:0:0:
14,193,76299,2,0,L|122:174,1,99.0000030212403,14|0,0:2|0:0,0:0:0:0:
146,170,76531,1,2,0:2:0:0:
146,170,76608,1,2,1:2:0:0:
31,2,76763,1,0,1:0:0:0:
0,77,76917,1,8,0:2:0:0:
197,0,77072,6,0,B|275:-7|279:50|271:58|306:109|374:91,1,198.000006042481,2|0,1:2|1:0,0:0:0:0:
479,11,77536,1,10,0:2:0:0:
360,186,77690,1,0,0:0:0:0:
360,186,77768,1,2,0:2:0:0:
360,186,77845,1,2,1:2:0:0:
474,32,78000,1,0,1:0:0:0:
504,111,78154,1,8,0:2:0:0:
344,0,78309,6,0,L|321:207,1,198.000006042481,6|0,1:2|1:0,0:0:0:0:
211,310,78773,2,0,L|200:211,1,99.0000030212403,10|0,0:2|0:0,0:0:0:0:
195,178,79005,1,2,0:2:0:0:
195,178,79082,1,2,1:2:0:0:
354,291,79237,1,0,1:0:0:0:
325,366,79391,1,8,0:2:0:0:
109,285,79546,6,0,B|72:259|46:245|46:245|71:190|97:120,1,198.000006042481,2|0,1:2|1:0,0:0:0:0:
373,213,80010,2,0,L|208:231,1,148.50000453186,8|0,0:2|0:0,0:0:0:0:
192,192,80320,1,10,1:2:0:0:
181,145,80397,1,8,0:2:0:0:
193,97,80474,1,8,0:2:0:0:
225,60,80552,1,8,0:2:0:0:
271,43,80629,1,10,0:2:0:0:
320,49,80706,1,8,0:2:0:0:
360,77,80783,6,0,B|416:108|490:107|490:107|484:56|456:49,1,198.000006042481,6|0,1:2|1:0,0:0:0:0:
186,0,81247,2,0,L|198:115,1,99.0000030212403,10|0,0:2|0:0,0:0:0:0:
205,137,81479,1,2,0:2:0:0:
205,137,81556,1,2,1:2:0:0:
42,29,81711,1,0,1:0:0:0:
10,103,81866,1,8,0:2:0:0:
127,242,82020,6,0,B|193:255|215:197|200:182|239:140|297:151,1,198.000006042481,2|0,1:2|1:0,0:0:0:0:
430,243,82484,1,8,0:2:0:0:
306,74,82638,1,2,0:2:0:0:
306,74,82716,1,2,0:2:0:0:
306,74,82793,1,2,1:2:0:0:
414,260,82948,1,0,1:0:0:0:
490,54,83103,1,8,0:2:0:0:
294,188,83257,6,0,L|323:394,1,198.000006042481,6|0,1:2|1:0,0:0:0:0:
430,143,83721,1,8,0:2:0:0:
242,347,83876,1,0,1:0:0:0:
243,75,84031,1,8,0:2:0:0:
431,279,84186,1,0,1:0:0:0:
506,30,84340,1,8,0:2:0:0:
314,235,84495,6,0,B|230:220|230:220|200:230|200:230|93:214,1,198.000006042481,6|2,1:2|1:2,0:0:0:0:
0,58,84958,1,8,0:2:0:0:
271,149,85113,2,0,P|319:99|246:-3,1,198.000006042481,6|2,1:2|1:2,0:0:0:0:
109,174,85577,1,8,0:2:0:0:
349,258,85732,6,0,L|233:276,1,99.0000030212403,6|0,1:2|0:0,0:0:0:0:
393,137,86041,1,0,1:0:0:0:
393,137,86118,1,0,1:0:0:0:
393,137,86196,1,14,0:2:0:0:
226,353,86350,1,0,1:0:0:0:
124,101,86505,1,10,0:2:0:0:
301,315,86660,6,0,L|476:287,1,148.50000453186,10|0,0:2|0:0,0:0:0:0:
483,271,86969,2,0,P|421:213|443:157,1,148.50000453186,6|0,1:2|0:0,0:0:0:0:
471,137,87278,1,8,0:2:0:0:
422,130,87355,1,8,0:2:0:0:
387,97,87432,1,8,0:2:0:0:
363,53,87509,1,8,0:2:0:0:
323,25,87587,5,2,1:3:0:0:
78,132,87897,1,2,1:3:0:0:
455,355,88206,5,6,1:2:0:0:
256,192,88283,12,0,89752,0:0:0:0:
