osu file format v14

[General]
AudioFilename: audio.mp3
AudioLeadIn: 0
PreviewTime: 45680
Countdown: 0
SampleSet: Soft
StackLeniency: 0.4
Mode: 0
LetterboxInBreaks: 0
WidescreenStoryboard: 1

[Editor]
DistanceSpacing: 1.5
BeatDivisor: 4
GridSize: 32
TimelineZoom: 1.8

[Metadata]
Title:nameless story (TV Size)
TitleUnicode:nameless story (TV Size)
Artist:KISIDA KYODAN & THE AKEBOSI ROCKETS
ArtistUnicode:岸田教団&THE明星ロケッツ
Creator:Nelliel
Version:HARD
Source:とある科学の超電磁砲T
Tags:kishida kyoudan and akeboshi Japanese Anime JP jrock J-Rock Rock A Certain Scientific Railgun T Toaru Kagaku no Choudenjihou 3 grindle ed ending
BeatmapID:2294139
BeatmapSetID:1096599

[Difficulty]
HPDrainRate:4
CircleSize:3.2
OverallDifficulty:6
ApproachRate:8
SliderMultiplier:1.3
SliderTickRate:1

[Events]
//Background and Video events
0,0,"bg.jpg",0,0
//Break Periods
//Storyboard Layer 0 (Background)
//Storyboard Layer 1 (Fail)
//Storyboard Layer 2 (Pass)
//Storyboard Layer 3 (Foreground)
//Storyboard Layer 4 (Overlay)
//Storyboard Sound Samples

[TimingPoints]
526,309.278350515464,4,2,1,20,1,0
989,-100,4,2,1,30,0,0
1453,-100,4,2,1,40,0,0
1917,-100,4,2,1,50,0,0
2381,-100,4,2,1,60,0,0
2690,-100,4,2,1,70,0,0
4701,-100,4,2,1,35,0,0
5629,-100,4,2,1,50,0,0
6093,-100,4,2,1,65,0,0
6556,-100,4,3,1,75,0,0
16453,-125,4,2,1,60,0,0
26350,-125,4,3,1,70,0,0
41350,-125,4,2,1,65,0,0
43824,-125,4,2,1,70,0,0
46144,-100,4,3,1,80,0,1
65938,-100,4,3,1,80,0,0
73361,-125,4,3,1,80,0,0
75835,-100,4,3,1,80,0,0
83257,-100,4,3,1,90,0,1
88206,-100,4,3,1,80,0,0
88283,-100,4,3,1,50,0,0
89752,-100,4,2,1,5,0,0

[Colours]
Combo1 : 255,255,128
Combo2 : 255,66,66
Combo3 : 0,65,130
Combo4 : 255,183,219
Combo5 : 0,128,0

[HitObjects]
256,192,525,12,8,2689,1:2:0:0:
95,128,3000,6,0,P|114:200|140:326,1,195,6|6,1:2|1:2,0:0:0:0:
278,318,3773,1,0,1:0:0:0:
278,318,3850,1,0,1:0:0:0:
278,318,3928,2,0,P|291:269|309:183,1,130,14|8,0:0|0:0,0:0:0:0:
303,94,4391,1,2,1:2:0:0:
406,207,4701,5,2,0:0:0:0:
406,207,4855,2,0,P|448:191|475:185,1,65,2|2,0:0|0:0,0:0:0:0:
404,107,5165,1,2,0:0:0:0:
404,107,5319,2,0,P|362:91|335:85,1,65,2|2,0:0|0:0,0:0:0:0:
262,151,5629,1,2,0:0:0:0:
262,151,5783,2,0,P|220:167|193:173,1,65,2|2,0:0|0:0,0:0:0:0:
131,119,6093,1,10,0:0:0:0:
131,119,6170,1,8,0:0:0:0:
131,119,6247,2,0,L|79:110,3,32.5,10|8|10|8,0:0|0:0|0:0|0:0,0:0:0:0:
91,162,6556,6,0,P|77:222|68:304,1,130,6|0,1:2|1:0,0:0:0:0:
143,341,7020,2,0,P|173:328|204:319,1,65,10|0,0:2|0:0,0:0:0:0:
285,363,7330,2,0,P|315:375|346:384,1,65,2|0,1:2|1:0,0:0:0:0:
411,320,7639,1,10,0:2:0:0:
346,255,7794,6,0,P|323:214|321:118,1,130,2|0,1:2|1:0,0:0:0:0:
388,76,8257,2,0,P|336:37|266:55,1,130,10|2,0:2|1:2,0:0:0:0:
220,120,8721,1,0,1:0:0:0:
136,82,8876,1,10,0:2:0:0:
69,144,9031,6,0,P|84:200|97:281,1,130,6|0,1:2|1:0,0:0:0:0:
156,339,9495,2,0,P|194:309|279:333,1,130,10|2,0:2|1:2,0:0:0:0:
340,379,9958,1,0,1:0:0:0:
357,289,10113,1,10,0:2:0:0:
434,240,10268,2,0,P|398:204|318:207,1,130,2|0,1:2|1:0,0:0:0:0:
231,220,10732,2,0,L|238:144,1,65,10|2,0:2|0:2,0:0:0:0:
183,94,11041,1,0,1:0:0:0:
183,94,11118,1,8,0:2:0:0:
183,94,11196,2,0,L|132:98,3,32.5,8|8|8|8,0:2|0:2|0:2|0:2,0:0:0:0:
108,78,11505,6,0,P|144:136|142:210,1,130,6|0,1:2|1:0,0:0:0:0:
93,270,11969,2,0,L|177:286,1,65,10|0,0:2|0:0,0:0:0:0:
230,228,12278,1,2,1:2:0:0:
283,302,12433,2,0,L|346:289,1,65,0|10,1:0|0:2,0:0:0:0:
423,337,12742,2,0,P|426:272|460:218,1,130,2|0,1:2|1:0,0:0:0:0:
496,134,13206,2,0,P|449:86|377:96,1,130,10|2,0:2|1:2,0:0:0:0:
304,120,13670,1,0,1:0:0:0:
238,57,13824,1,10,0:2:0:0:
146,61,13979,6,0,B|150:127|105:106|120:199,1,130,6|0,1:2|1:0,0:0:0:0:
147,271,14443,2,0,P|196:227|260:227,1,130,10|2,0:2|1:2,0:0:0:0:
329,282,14907,1,2,1:2:0:0:
408,236,15062,1,10,0:2:0:0:
399,145,15216,6,0,L|380:10,1,130,6|0,1:2|1:0,0:0:0:0:
471,29,15680,2,0,L|484:112,1,65,8|2,0:2|0:2,0:0:0:0:
494,192,15989,1,8,0:0:0:0:
494,192,16067,1,2,0:2:0:0:
494,192,16144,2,0,L|501:247,3,32.5,8|8|8|8,0:2|0:2|0:2|0:2,0:0:0:0:
474,252,16453,6,0,P|430:232|361:218,1,104,6|0,1:2|0:0,0:0:0:0:
297,256,16917,1,0,1:0:0:0:
138,236,17227,1,2,1:2:0:0:
138,236,17381,2,0,P|113:227|88:220,1,52,2|2,0:0|1:2,0:0:0:0:
18,250,17690,2,0,P|50:211|47:150,1,104,2|0,0:0|0:0,0:0:0:0:
20,87,18154,1,2,1:2:0:0:
171,49,18464,2,0,P|196:41|220:33,1,52,2|2,1:2|0:0,0:0:0:0:
301,25,18773,1,8,0:0:0:0:
301,25,18928,6,0,P|272:68|284:136,1,104,6|0,1:2|0:0,0:0:0:0:
327,182,19391,1,2,1:2:0:0:
327,182,19546,2,0,P|377:171|429:166,1,104,2|0,0:0|0:0,0:0:0:0:
444,245,20010,1,2,1:2:0:0:
444,245,20165,2,0,P|393:250|338:261,1,104,2|2,0:0|0:0,0:0:0:0:
269,281,20629,1,2,1:2:0:0:
269,281,20783,2,0,P|279:316|283:338,1,52,2|0,0:0|1:0,0:0:0:0:
212,361,21093,1,8,0:0:0:0:
212,361,21247,1,2,0:0:0:0:
135,343,21402,6,0,P|125:291|119:240,1,104,6|0,1:2|0:0,0:0:0:0:
136,163,21866,1,0,1:0:0:0:
218,30,22175,2,0,P|245:35|274:45,1,52,2|2,1:2|0:0,0:0:0:0:
325,103,22484,1,2,1:2:0:0:
325,103,22639,6,0,P|375:83|431:71,1,104,2|0,0:0|0:0,0:0:0:0:
494,106,23103,1,2,1:2:0:0:
405,236,23412,1,2,1:2:0:0:
405,236,23567,2,0,L|393:299,1,52,8|2,0:0|0:0,0:0:0:0:
335,337,23876,6,0,P|298:311|225:309,1,104,6|0,1:2|0:0,0:0:0:0:
177,348,24340,1,2,1:2:0:0:
177,348,24495,2,0,P|169:286|157:229,1,104,2|0,0:0|0:0,0:0:0:0:
122,177,24958,1,2,1:2:0:0:
116,38,25268,6,0,L|171:48,1,52,8|2,0:0|1:2,0:0:0:0:
232,100,25577,1,2,1:2:0:0:
232,100,25732,1,8,0:0:0:0:
288,45,25886,1,2,1:2:0:0:
348,94,26041,2,0,L|386:98,3,26,8|8|10|8,0:0|0:0|0:0|0:0,0:0:0:0:
406,74,26350,6,0,P|396:126|376:195,1,104,6|0,1:2|1:0,0:0:0:0:
333,242,26814,2,0,P|337:269|345:303,1,52,8|0,0:2|0:0,0:0:0:0:
287,355,27123,2,0,P|263:345|227:335,2,52,2|2|10,1:2|1:2|0:2,0:0:0:0:
361,316,27587,6,0,P|408:304|478:289,1,104,2|0,1:2|1:0,0:0:0:0:
490,213,28051,1,8,0:2:0:0:
425,59,28361,2,0,L|373:50,1,52,2|2,1:2|1:2,0:0:0:0:
301,20,28670,1,10,0:2:0:0:
301,20,28824,6,0,L|195:33,1,104,2|0,1:2|1:0,0:0:0:0:
143,96,29288,1,10,0:2:0:0:
143,96,29443,2,0,P|178:138|172:197,1,104,2|0,0:2|1:0,0:0:0:0:
136,259,29907,1,10,0:2:0:0:
136,259,30062,6,0,L|239:274,1,104,2|0,1:2|1:0,0:0:0:0:
310,231,30526,1,10,0:2:0:0:
310,231,30680,2,0,L|362:222,1,52,2|0,0:2|1:0,0:0:0:0:
415,158,30989,1,2,1:2:0:0:
367,89,31144,1,8,0:2:0:0:
289,120,31299,6,0,P|234:136|171:147,1,104,6|2,1:2|1:2,0:0:0:0:
110,115,31763,2,0,P|143:160|134:215,1,104,10|2,0:2|1:2,0:0:0:0:
101,279,32227,1,0,1:0:0:0:
175,325,32381,1,8,0:2:0:0:
175,325,32536,6,0,B|235:331|213:366|287:371,1,104,2|2,1:2|1:2,0:0:0:0:
345,339,33000,2,0,L|336:276,1,52,10|0,0:2|0:0,0:0:0:0:
401,233,33309,1,0,1:0:0:0:
401,233,33464,2,0,L|414:176,1,52,0|10,1:0|0:2,0:0:0:0:
400,99,33773,6,0,P|345:91|302:123,1,104,6|0,1:2|1:0,0:0:0:0:
243,170,34237,1,10,0:2:0:0:
243,170,34391,2,0,P|188:178|145:146,1,104,2|2,0:2|1:2,0:0:0:0:
117,75,34855,1,8,0:2:0:0:
45,117,35010,6,0,P|58:185|63:241,1,104,6|2,1:2|1:2,0:0:0:0:
29,296,35474,1,10,0:2:0:0:
112,340,35629,1,8,0:2:0:0:
112,340,35706,1,8,0:2:0:0:
112,340,35783,2,0,L|152:349,3,26,10|8|4|4,0:2|0:2|0:0|0:0,0:0:0:0:
165,313,36093,2,0,L|190:307,3,26,8|8|4|4,0:0|0:0|0:0|0:0,0:0:0:0:
225,330,36402,6,0,L|328:355,1,104,6|0,1:2|0:0,0:0:0:0:
391,302,36866,1,0,1:0:0:0:
391,302,37020,2,0,L|380:233,1,52,10|0,0:2|0:0,0:0:0:0:
426,178,37330,2,0,L|436:119,1,52,2|0,0:2|0:0,0:0:0:0:
391,55,37639,1,4,1:2:0:0:
391,55,37794,2,0,P|366:81|288:97,1,104,8|0,0:2|1:0,0:0:0:0:
244,49,38257,2,0,P|206:29|179:28,1,52,8|0,0:2|1:0,0:0:0:0:
127,62,38567,2,0,L|136:116,1,52,10|0,0:2|0:0,0:0:0:0:
86,174,38876,6,0,L|76:289,1,104,4|0,1:2|0:0,0:0:0:0:
140,332,39340,1,0,1:0:0:0:
140,332,39495,2,0,P|171:315|211:319,1,52,10|0,0:2|1:0,0:0:0:0:
247,263,39804,1,10,0:2:0:0:
247,263,39958,2,0,P|272:267|327:328,1,104,4|0,1:2|1:0,0:0:0:0:
403,317,40422,1,10,0:2:0:0:
440,248,40577,1,8,0:2:0:0:
440,248,40654,1,8,0:2:0:0:
440,248,40732,2,0,L|433:208,3,26,10|8|4|4,0:2|0:2|0:0|0:0,0:0:0:0:
456,189,41041,2,0,L|463:149,3,26,8|8|4|4,0:0|0:0|0:0|0:0,0:0:0:0:
436,132,41350,6,0,B|382:125|396:95|337:80,1,104,6|0,1:2|1:0,0:0:0:0:
207,154,41969,2,0,P|173:171|103:185,1,104,0|2,1:0|1:2,0:0:0:0:
27,51,42587,2,0,P|78:60|125:81,1,104,2|0,1:2|1:0,0:0:0:0:
206,215,43206,2,0,P|187:258|166:326,1,104,2|0,1:2|1:0,0:0:0:0:
318,356,43824,6,0,L|310:300,1,52,14|0,0:0|1:0,0:0:0:0:
345,233,44134,1,0,1:0:0:0:
421,248,44288,2,0,L|429:192,1,52,8|0,0:0|1:0,0:0:0:0:
390,127,44598,1,10,0:0:0:0:
426,58,44752,1,2,1:2:0:0:
426,58,44830,1,0,1:0:0:0:
426,58,44907,2,0,P|397:37|321:37,1,104,14|10,0:0|1:2,0:0:0:0:
294,102,45371,1,10,1:2:0:0:
302,179,45526,1,10,0:0:0:0:
158,84,46144,6,0,B|223:77|192:121|286:124,1,130,6|2,1:2|1:2,0:0:0:0:
349,68,46608,2,0,P|361:100|362:138,1,65,10|2,0:2|0:2,0:0:0:0:
345,175,46840,1,2,0:2:0:0:
345,175,46917,1,2,1:2:0:0:
288,246,47072,1,2,1:2:0:0:
197,233,47227,1,8,0:2:0:0:
197,233,47381,6,0,P|143:207|71:202,1,130,2|2,1:2|1:2,0:0:0:0:
45,288,47845,2,0,P|74:301|106:303,1,65,10|2,0:2|0:2,0:0:0:0:
154,297,48077,1,2,0:2:0:0:
154,297,48154,1,2,1:2:0:0:
231,343,48309,1,2,1:2:0:0:
313,304,48464,1,8,0:2:0:0:
313,304,48618,6,0,P|305:246|301:167,1,130,6|2,1:2|1:2,0:0:0:0:
343,94,49082,1,10,0:2:0:0:
426,129,49237,2,0,P|422:193|414:258,1,130,2|2,0:2|1:2,0:0:0:0:
375,340,49701,1,10,0:2:0:0:
309,276,49855,6,0,P|266:258|233:252,1,65,2|0,1:2|0:0,0:0:0:0:
171,303,50165,1,0,1:0:0:0:
171,303,50319,2,0,P|128:321|95:327,1,65,10|2,0:2|0:2,0:0:0:0:
47,258,50629,1,8,0:2:0:0:
76,171,50783,2,0,L|71:130,3,32.5,10|8|10|8,0:2|0:2|0:2|0:2,0:0:0:0:
65,92,51093,6,0,P|117:107|199:118,1,130,6|0,1:2|1:0,0:0:0:0:
253,51,51556,1,8,0:2:0:0:
316,116,51711,2,0,P|342:108|383:103,1,65,2|2,0:2|1:2,0:0:0:0:
454,151,52020,1,2,1:2:0:0:
432,239,52175,1,8,0:2:0:0:
410,327,52330,6,0,P|337:307|281:287,1,130,2|2,1:2|1:2,0:0:0:0:
203,250,52794,1,10,0:2:0:0:
160,330,52948,2,0,P|98:351|35:368,1,130,2|2,0:2|1:2,0:0:0:0:
9,280,53412,1,10,0:2:0:0:
67,210,53567,6,0,P|56:145|51:81,1,130,6|0,1:2|1:0,0:0:0:0:
119,21,54031,1,10,0:2:0:0:
196,68,54185,2,0,P|232:84|267:86,1,65,4|0,0:0|1:0,0:0:0:0:
338,45,54495,1,2,1:2:0:0:
406,105,54649,1,10,0:2:0:0:
406,105,54804,6,0,P|382:173|366:241,1,130,6|0,1:2|1:0,0:0:0:0:
369,320,55268,1,8,0:2:0:0:
221,233,55577,1,10,0:2:0:0:
221,233,55654,1,2,0:2:0:0:
221,233,55732,2,0,L|175:241,3,32.5,8|8|10|8,0:2|0:2|0:2|0:2,0:0:0:0:
227,263,56041,6,0,L|81:296,1,130,6|2,1:2|1:2,0:0:0:0:
25,344,56505,2,0,L|5:269,1,65,10|2,0:2|0:2,0:0:0:0:
11,239,56737,1,2,0:2:0:0:
11,239,56814,1,2,1:2:0:0:
53,158,56969,1,2,1:2:0:0:
147,163,57123,1,8,0:2:0:0:
147,163,57278,6,0,P|180:174|216:176,1,65,2|0,1:2|0:0,0:0:0:0:
284,124,57587,1,2,1:2:0:0:
352,184,57742,2,0,P|384:181|414:170,1,65,10|2,0:2|0:2,0:0:0:0:
452,143,57974,1,2,0:2:0:0:
452,143,58051,1,2,1:2:0:0:
497,221,58206,1,2,1:2:0:0:
476,312,58361,1,8,0:2:0:0:
476,312,58515,6,0,P|406:305|340:283,1,130,6|0,1:2|1:0,0:0:0:0:
268,246,58979,1,10,0:2:0:0:
208,314,59134,2,0,P|146:333|81:338,1,130,2|2,0:2|1:2,0:0:0:0:
35,259,59598,1,10,0:2:0:0:
54,169,59752,5,2,1:3:0:0:
182,39,60062,1,2,1:3:0:0:
322,154,60371,1,2,1:3:0:0:
203,292,60680,2,0,L|209:336,3,32.5,10|8|8|8,0:2|0:2|0:2|0:2,0:0:0:0:
249,342,60989,6,0,P|285:325|387:315,1,130,6|0,1:2|1:0,0:0:0:0:
459,283,61453,2,0,P|449:244|444:212,1,65,8|2,0:2|0:2,0:0:0:0:
472,184,61685,1,2,0:2:0:0:
472,184,61763,1,2,1:2:0:0:
459,94,61917,1,2,1:2:0:0:
377,130,62072,1,10,0:2:0:0:
377,130,62227,6,0,P|325:148|236:152,1,130,2|0,1:2|1:0,0:0:0:0:
162,132,62690,1,10,0:2:0:0:
192,46,62845,2,0,P|140:28|51:24,1,130,2|2,0:2|1:2,0:0:0:0:
9,94,63309,1,10,0:2:0:0:
9,94,63464,6,0,L|22:166,1,65,6|0,1:2|0:0,0:0:0:0:
39,247,63773,1,2,1:2:0:0:
130,250,63928,2,0,L|117:322,1,65,10|0,0:2|0:0,0:0:0:0:
191,368,64237,1,0,1:0:0:0:
270,324,64391,1,0,1:0:0:0:
281,233,64546,1,8,0:2:0:0:
281,233,64701,6,0,P|263:168|255:98,1,130,6|0,1:2|1:0,0:0:0:0:
281,18,65165,1,8,0:2:0:0:
427,126,65474,1,10,1:2:0:0:
427,126,65551,1,8,0:2:0:0:
427,126,65629,2,0,P|423:153|415:180,3,32.5,8|8|8|8,0:2|0:2|0:2|0:2,0:0:0:0:
376,166,65938,6,0,P|391:225|399:296,1,130,6|0,1:2|1:0,0:0:0:0:
322,343,66402,1,10,0:2:0:0:
179,230,66711,2,0,P|148:235|112:250,1,65,2|0,1:2|1:0,0:0:0:0:
29,250,67020,1,8,0:2:0:0:
29,250,67175,6,0,P|41:216|46:116,1,130,2|0,1:2|1:0,0:0:0:0:
46,31,67639,2,0,P|79:46|114:47,1,65,10|0,0:2|0:0,0:0:0:0:
189,5,67948,1,2,1:2:0:0:
189,5,68103,1,0,1:0:0:0:
279,14,68257,1,8,0:2:0:0:
306,101,68412,6,0,P|287:162|287:227,1,130,6|0,1:2|1:0,0:0:0:0:
322,312,68876,1,10,0:2:0:0:
408,284,69031,2,0,P|408:251|418:220,1,65,0|2,0:0|1:2,0:0:0:0:
479,154,69340,1,0,1:0:0:0:
479,154,69495,1,8,0:2:0:0:
445,69,69649,6,0,P|392:33|329:44,1,130,2|0,1:2|1:0,0:0:0:0:
266,110,70113,1,8,0:2:0:0:
178,85,70268,1,2,0:2:0:0:
115,150,70422,1,10,0:2:0:0:
115,150,70500,1,8,0:2:0:0:
115,150,70577,2,0,L|123:197,3,32.5,8|8|10|8,0:2|0:2|0:2|0:2,0:0:0:0:
79,203,70886,6,0,L|69:337,1,130,6|2,1:2|1:2,0:0:0:0:
152,368,71350,2,0,P|182:350|226:354,1,65,10|0,0:2|0:0,0:0:0:0:
256,374,71582,1,2,0:2:0:0:
256,374,71660,1,2,1:2:0:0:
321,311,71814,1,0,1:0:0:0:
271,234,71969,1,8,0:2:0:0:
323,159,72123,6,0,B|338:20,1,130,2|0,1:2|1:0,0:0:0:0:
425,8,72587,1,10,0:2:0:0:
486,89,72742,1,2,0:2:0:0:
486,89,72819,1,2,0:2:0:0:
486,89,72897,2,0,L|476:169,1,65,2|0,1:2|1:0,0:0:0:0:
444,240,73206,1,8,0:2:0:0:
444,240,73361,6,0,P|410:227|333:214,1,104,6|2,1:2|1:2,0:0:0:0:
279,274,73824,2,0,P|237:284|214:286,1,52,10|4,0:2|0:0,0:0:0:0:
155,336,74134,2,0,P|113:326|90:324,1,52,2|0,1:2|1:0,0:0:0:0:
43,260,74443,1,10,0:2:0:0:
104,196,74598,2,0,P|110:145|113:92,1,104,6|2,1:2|1:2,0:0:0:0:
184,39,75062,1,10,0:2:0:0:
259,84,75216,2,0,L|253:135,1,52,6|0,1:2|0:0,0:0:0:0:
316,198,75526,2,0,L|312:239,3,26,10|8|10|8,0:2|0:2|0:2|0:2,0:0:0:0:
363,247,75835,6,0,L|375:110,1,130,6|2,1:2|1:2,0:0:0:0:
386,20,76299,1,14,0:2:0:0:
201,83,76608,2,0,P|153:99|129:100,1,65,2|0,1:2|1:0,0:0:0:0:
62,39,76917,1,8,0:2:0:0:
15,124,77072,6,0,P|30:195|35:265,1,130,2|0,1:2|1:0,0:0:0:0:
23,352,77536,1,10,0:2:0:0:
23,352,77690,1,0,0:0:0:0:
112,312,77845,2,0,P|153:300|182:300,1,65,2|0,1:2|1:0,0:0:0:0:
263,341,78154,1,8,0:2:0:0:
329,269,78309,6,0,P|361:271|420:350,1,130,6|0,1:2|1:0,0:0:0:0:
502,289,78773,2,0,P|492:246|491:213,1,65,10|0,0:2|0:0,0:0:0:0:
501,128,79082,2,0,P|511:97|512:64,1,65,2|0,1:2|1:0,0:0:0:0:
446,13,79391,1,8,0:2:0:0:
361,61,79546,2,0,P|347:103|339:197,1,130,2|0,1:2|1:0,0:0:0:0:
378,277,80010,1,8,0:2:0:0:
216,200,80319,1,10,1:2:0:0:
216,200,80397,1,8,0:2:0:0:
216,200,80474,2,0,L|161:212,3,32.5,8|8|10|8,0:2|0:2|0:2|0:2,0:0:0:0:
159,164,80783,6,0,P|91:150|46:193,1,130,6|0,1:2|1:0,0:0:0:0:
6,267,81247,2,0,P|23:312|27:339,1,65,10|0,0:2|0:0,0:0:0:0:
15,376,81479,1,2,0:2:0:0:
15,376,81556,1,2,1:2:0:0:
106,377,81711,1,0,1:0:0:0:
164,308,81866,1,8,0:2:0:0:
164,308,82020,6,0,P|221:317|296:337,1,130,2|0,1:2|1:0,0:0:0:0:
358,264,82484,2,0,P|326:255|294:250,1,65,8|2,0:2|0:2,0:0:0:0:
270,213,82716,1,2,0:2:0:0:
270,213,82794,1,2,1:2:0:0:
313,126,82948,1,0,1:0:0:0:
258,51,83103,1,8,0:2:0:0:
258,51,83257,6,0,P|200:72|124:80,1,130,6|0,1:2|1:0,0:0:0:0:
40,64,83721,1,8,0:2:0:0:
40,64,83876,1,0,1:0:0:0:
79,153,84031,2,0,P|90:193|93:225,1,65,8|0,0:2|1:0,0:0:0:0:
82,313,84340,1,8,0:2:0:0:
176,288,84495,6,0,P|183:249|207:158,1,130,6|2,1:2|1:2,0:0:0:0:
274,92,84958,1,8,0:2:0:0:
297,186,85113,2,0,P|345:214|417:171,1,130,6|2,1:2|1:2,0:0:0:0:
466,106,85577,1,8,0:2:0:0:
506,194,85732,6,0,L|484:332,1,130,6|0,1:2|1:0,0:0:0:0:
449,354,86118,1,0,1:0:0:0:
449,354,86196,2,0,P|417:337|384:330,1,65,14|0,0:2|1:0,0:0:0:0:
300,343,86505,1,10,0:2:0:0:
211,364,86660,1,10,0:2:0:0:
147,298,86814,1,0,0:0:0:0:
147,298,86969,6,0,L|162:188,1,97.5,6|0,1:2|0:0,0:0:0:0:
191,166,87278,2,0,L|186:133,3,32.5,8|8|8|8,0:2|0:2|0:2|0:2,0:0:0:0:
226,106,87587,2,0,L|290:114,1,65,2|0,1:3|0:0,0:0:0:0:
368,174,87897,2,0,L|356:253,1,65,2|0,1:3|0:0,0:0:0:0:
343,334,88206,5,6,1:2:0:0:
256,192,88283,12,0,89752,0:0:0:0:
