osu file format v14

[General]
AudioFilename: audio.mp3
AudioLeadIn: 0
PreviewTime: 62637
Countdown: 0
SampleSet: Soft
StackLeniency: 0.7
Mode: 0
LetterboxInBreaks: 0
WidescreenStoryboard: 1

[Editor]
DistanceSpacing: 1
BeatDivisor: 6
GridSize: 32
TimelineZoom: 1.9

[Metadata]
Title:Yume wa Jikuu o Koete
TitleUnicode:夢は時空を越えて
Artist:KISIDA KYODAN & THE AKEBOSI ROCKETS
ArtistUnicode:岸田教団&THE明星ロケッツ
Creator:SMOKELIND
Version:iljaaz's Phantasm
Source:東方夢時空 ~ Pantasmagria of Dim.Dream
Tags:Japanese JP Video Game J-Rock JRock Rock Ichigo TH ZUN Touhou 東方Project 3 Reitaisai 4 C85 Comiket 85 A Dream Transcending Across Space-time Fantasy Incident Yumemi Okazaki 岡崎 夢美 幻想事変 KISHIDA KYOUDAN AND AKEBOSHI Kowari iljaaz Reform Kujinn Xenon- Xehn Xen
BeatmapID:2099817
BeatmapSetID:1002336

[Difficulty]
HPDrainRate:5.4
CircleSize:3.8
OverallDifficulty:8.4
ApproachRate:9.2
SliderMultiplier:1.84
SliderTickRate:1

[Events]
//Background and Video events
0,0,"Nya.jpg",0,0
//Break Periods
//Storyboard Layer 0 (Background)
//Storyboard Layer 1 (Fail)
//Storyboard Layer 2 (Pass)
//Storyboard Layer 3 (Foreground)
//Storyboard Layer 4 (Overlay)
//Storyboard Sound Samples

[TimingPoints]
46,337.078651685393,4,2,7,77,1,0
6682,337.078651685393,4,2,7,77,1,0
6682,-80.6451612903226,4,2,7,77,0,0
18816,-80.6451612903226,4,2,7,87,0,0
29603,-119.047619047619,4,2,7,57,0,0
51176,-119.047619047619,4,2,7,67,0,0
61962,-119.047619047619,4,2,7,77,0,0
63311,-74.6268656716418,4,2,7,97,0,0
84884,-74.6268656716418,4,2,7,87,0,0
105108,344.827586206897,4,2,7,87,1,0
105108,-74.6268656716418,4,2,7,87,0,0
106487,-1000,4,2,7,77,0,0
106659,-1000,4,2,7,7,0,0

[Colours]
Combo1 : 188,121,255
Combo2 : 255,121,188
Combo3 : 255,121,121
Combo4 : 121,121,255

[HitObjects]
425,334,6682,6,0,L|418:279,1,38.0266651580404,8|8,0:0|0:0,0:0:0:0:
336,179,6850,1,0,1:0:0:0:
300,267,7019,6,0,L|355:260,1,38.0266651580404,8|8,0:0|0:0,0:0:0:0:
440,160,7187,1,0,1:0:0:0:
512,233,7356,6,0,L|457:226,1,38.0266651580404,8|8,0:0|0:0,0:0:0:0:
255,148,7524,1,0,1:0:0:0:
319,93,7693,1,8,3:0:0:0:
21,236,8030,6,0,B|75:262|134:259|134:259|151:290|116:329,1,171.119993211182,4|0,1:0|0:0,0:0:0:0:
112,310,8367,2,0,P|108:254|150:206,1,114.079995474121,8|0,0:0|3:0,0:0:0:0:
158,185,8620,1,0,3:0:0:0:
158,185,8704,1,0,1:0:0:0:
106,122,8873,1,0,1:0:0:0:
252,264,9041,2,0,B|314:248|314:248|352:273|352:273|432:247,1,171.119993211182,10|0,0:0|0:0,0:0:0:0:
410,253,9378,5,2,1:0:0:0:
449,187,9547,1,0,0:0:0:0:
450,346,9715,5,8,0:0:0:0:
322,289,9884,1,0,1:0:0:0:
301,371,10052,5,2,0:0:0:0:
494,254,10221,1,2,1:0:0:0:
310,79,10389,2,0,P|297:134|272:197,1,114.079995474121,10|0,0:0|0:0,0:0:0:0:
12,296,10726,6,0,P|35:223|169:220,1,228.159990948243,2|8,1:0|0:0,0:0:0:0:
213,283,11232,1,0,3:0:0:0:
221,303,11316,1,0,3:0:0:0:
224,322,11401,1,0,1:0:0:0:
91,239,11569,1,0,1:0:0:0:
300,368,11738,2,0,P|306:311|319:255,1,114.079995474121,10|0,0:0|0:0,0:0:0:0:
494,213,12075,5,2,1:0:0:0:
405,257,12243,1,0,1:0:0:0:
254,138,12412,5,10,0:0:0:0:
330,177,12580,1,0,3:0:0:0:
330,177,12665,1,0,3:0:0:0:
330,177,12749,1,0,1:0:0:0:
444,103,12917,5,0,1:0:0:0:
227,219,13086,2,0,P|175:204|102:193,1,114.079995474121,10|0,0:0|0:0,0:0:0:0:
0,22,13423,6,0,B|129:-6|92:96|256:67,1,228.159990948243,6|10,1:0|0:0,0:0:0:0:
290,50,13929,1,0,3:0:0:0:
293,36,14013,1,0,3:0:0:0:
293,14,14097,1,2,1:0:0:0:
355,127,14266,1,2,1:0:0:0:
131,21,14434,2,0,P|140:77|141:134,1,114.079995474121,10|0,0:0|0:0,0:0:0:0:
403,297,14771,6,0,P|334:212|226:228,1,228.159990948243,2|10,1:0|0:0,0:0:0:0:
137,366,15277,1,2,1:0:0:0:
0,285,15446,2,0,P|46:253|102:247,1,114.079995474121,2|2,0:0|1:0,0:0:0:0:
300,384,15783,2,0,B|275:334|275:334|290:278,1,114.079995474121,10|0,0:0|0:0,0:0:0:0:
499,118,16120,6,0,L|264:163,1,228.159990948243,2|8,1:0|0:0,0:0:0:0:
313,78,16625,1,0,3:0:0:0:
313,78,16710,1,0,3:0:0:0:
313,78,16794,1,2,1:0:0:0:
419,158,16962,1,0,1:0:0:0:
512,33,17131,2,0,P|460:9|404:14,1,114.079995474121,10|0,0:0|0:0,0:0:0:0:
262,167,17468,5,2,1:0:0:0:
288,209,17552,1,8,3:0:0:0:
261,251,17637,1,0,3:0:0:0:
294,282,17721,1,8,0:0:0:0:
276,326,17805,5,8,0:0:0:0:
256,289,17889,1,0,3:0:0:0:
290,249,17974,1,8,0:0:0:0:
249,212,18058,1,8,0:0:0:0:
271,136,18142,5,4,1:0:0:0:
270,115,18479,5,0,0:0:0:0:
503,333,18816,6,0,P|459:297|403:295,1,114.079995474121,14|0,0:0|0:0,0:0:0:0:
249,212,19153,2,0,P|267:266|283:346,1,114.079995474121,10|0,0:0|1:0,0:0:0:0:
367,201,19490,1,10,0:0:0:0:
179,286,19659,1,2,1:0:0:0:
364,384,19828,1,8,0:0:0:0:
206,109,19996,6,0,P|148:98|84:78,1,114.079995474121,2|8,1:0|0:0,0:0:0:0:
134,177,20333,1,2,1:0:0:0:
280,73,20502,5,10,0:0:0:0:
57,150,20670,1,2,1:0:0:0:
248,214,20839,5,10,0:0:0:0:
166,26,21007,1,2,1:0:0:0:
248,214,21176,2,0,P|232:270|220:349,1,114.079995474121,10|2,0:0|1:0,0:0:0:0:
0,262,21513,6,0,P|50:191|172:242,1,228.159990948243,14|10,0:0|0:0,0:0:0:0:
254,338,22019,1,0,1:0:0:0:
141,380,22187,5,10,0:0:0:0:
327,244,22356,2,0,P|380:260|448:268,1,114.079995474121,2|8,1:0|0:0,0:0:0:0:
482,331,22693,1,2,1:0:0:0:
283,143,22861,6,0,P|251:190|248:246,1,114.079995474121,8|2,0:0|1:0,0:0:0:0:
415,377,23198,1,10,0:0:0:0:
372,170,23367,1,2,1:0:0:0:
372,170,23451,1,0,1:0:0:0:
372,170,23535,1,10,0:0:0:0:
464,245,23704,5,2,1:0:0:0:
281,361,23873,2,0,P|230:343|152:329,1,114.079995474121,10|2,0:0|1:0,0:0:0:0:
1,157,24210,6,0,B|60:141|60:141|106:167|106:167|201:139,1,171.119993211182,14|0,0:0|0:0,0:0:0:0:
160,150,24547,2,0,B|182:99|182:99|162:44,1,114.079995474121,10|0,0:0|1:0,0:0:0:0:
100,1,24884,1,10,0:0:0:0:
195,247,25052,2,0,P|149:230|80:217,1,114.079995474121,2|8,1:0|0:0,0:0:0:0:
26,268,25389,1,2,1:0:0:0:
288,53,25558,6,0,B|263:107|263:107|275:160,1,114.079995474121,8|2,0:0|1:0,0:0:0:0:
386,311,25895,1,10,0:0:0:0:
462,288,26064,1,2,1:0:0:0:
503,382,26232,5,10,0:0:0:0:
295,261,26401,1,2,1:0:0:0:
482,133,26569,2,0,P|466:191|455:267,1,114.079995474121,10|2,0:0|1:0,0:0:0:0:
179,183,26906,6,0,P|203:268|219:369,1,171.119993211182,14|0,0:0|0:0,0:0:0:0:
216,349,27243,1,10,0:0:0:0:
134,320,27412,1,0,1:0:0:0:
40,384,27580,5,10,0:0:0:0:
295,261,27749,2,0,P|304:205|322:131,1,114.079995474121,2|8,1:0|0:0,0:0:0:0:
263,89,28086,1,2,0:0:0:0:
402,0,28255,6,0,P|439:42|429:99,1,114.079995474121,10|2,0:0|0:0,0:0:0:0:
230,198,28592,1,10,0:0:0:0:
154,171,28760,1,8,0:0:0:0:
350,72,28929,5,10,0:0:0:0:
430,269,29097,1,10,0:0:0:0:
294,384,29266,1,10,0:0:0:0:
351,105,29603,6,0,B|311:174|311:174|340:278,2,154.559995283203,6|8|2,1:0|0:0|1:0,0:0:0:0:
430,90,30446,1,0,1:0:0:0:
491,259,30614,2,0,P|456:243|398:232,1,77.2799976416016,10|0,0:0|0:0,0:0:0:0:
223,92,30951,6,0,P|151:113|55:128,1,154.559995283203,2|10,1:0|0:0,0:0:0:0:
20,70,31457,1,0,0:0:0:0:
147,221,31625,2,0,P|151:182|164:130,1,77.2799976416016,2|0,1:0|1:0,0:0:0:0:
23,231,31962,2,0,P|31:268|35:307,1,77.2799976416016,10|0,0:0|0:0,0:0:0:0:
242,384,32299,6,0,P|181:339|108:356,2,154.559995283203,2|10|2,1:0|0:0|1:0,0:0:0:0:
204,311,33142,1,0,1:0:0:0:
343,226,33311,2,0,P|328:262|313:317,1,77.2799976416016,8|2,0:0|0:0,0:0:0:0:
144,239,33648,6,0,P|185:232|229:215,1,77.2799976416016,2|0,1:0|0:0,0:0:0:0:
433,115,33985,2,0,P|392:108|348:91,1,77.2799976416016,8|0,0:0|0:0,0:0:0:0:
233,0,34322,5,2,1:0:0:0:
203,69,34490,1,0,1:0:0:0:
317,212,34659,2,0,P|302:248|287:303,1,77.2799976416016,8|0,0:0|0:0,0:0:0:0:
45,158,34996,6,0,P|88:121|144:127,1,115.919996462402,6|0,1:0|0:0,0:0:0:0:
144,127,35333,2,0,P|132:167|124:218,1,77.2799976416016,10|0,0:0|0:0,0:0:0:0:
207,338,35670,5,2,1:0:0:0:
61,246,35839,1,0,1:0:0:0:
34,338,36007,2,0,P|71:325|135:319,1,77.2799976416016,8|0,0:0|0:0,0:0:0:0:
318,214,36344,6,0,B|393:230|373:269|463:297,1,154.559995283203,2|10,1:0|0:0,0:0:0:0:
510,245,36850,1,0,0:0:0:0:
371,361,37019,2,0,P|367:324|347:271,1,77.2799976416016,2|0,1:0|1:0,0:0:0:0:
447,89,37356,2,0,P|443:125|423:179,1,77.2799976416016,10|0,0:0|0:0,0:0:0:0:
203,142,37693,6,0,P|263:96|338:102,2,154.559995283203,2|8|0,1:0|0:0|1:0,0:0:0:0:
339,254,38535,1,0,1:0:0:0:
196,228,38704,2,0,P|204:266|212:315,1,77.2799976416016,8|0,0:0|0:0,0:0:0:0:
290,180,39041,5,0,1:0:0:0:
290,180,39210,1,0,0:0:0:0:
170,39,39378,2,0,P|130:33|76:16,1,77.2799976416016,8|0,0:0|3:0,0:0:0:0:
77,13,39631,1,0,3:0:0:0:
77,13,39715,1,0,1:0:0:0:
197,187,39884,1,8,0:0:0:0:
390,106,40052,2,0,P|430:97|479:81,1,77.2799976416016,8|0,0:0|0:0,0:0:0:0:
336,0,40389,6,0,P|269:34|258:107,1,154.559995283203,6|8,1:0|0:0,0:0:0:0:
304,173,40895,1,0,0:0:0:0:
220,304,41064,2,0,P|206:267|205:229,1,77.2799976416016,2|0,1:0|1:0,0:0:0:0:
386,135,41401,2,0,P|423:146|475:159,1,77.2799976416016,10|0,0:0|0:0,0:0:0:0:
300,331,41738,6,0,P|223:344|150:367,2,154.559995283203,2|10|2,1:0|0:0|1:0,0:0:0:0:
365,376,42580,1,0,1:0:0:0:
205,229,42749,2,0,P|206:267|220:304,1,77.2799976416016,10|0,0:0|0:0,0:0:0:0:
363,200,43086,6,0,L|273:181,1,77.2799976416016,2|0,1:0|0:0,0:0:0:0:
48,294,43423,2,0,L|138:275,1,77.2799976416016,10|0,0:0|0:0,0:0:0:0:
206,59,43760,5,2,1:0:0:0:
171,131,43929,1,0,1:0:0:0:
262,175,44097,5,8,0:0:0:0:
126,68,44266,1,0,0:0:0:0:
0,212,44434,6,0,B|58:228|58:228|77:255|77:255|159:288,1,154.559995283203,2|8,1:0|0:0,0:0:0:0:
203,246,44940,1,0,0:0:0:0:
17,319,45108,5,2,1:0:0:0:
142,200,45277,1,0,1:0:0:0:
291,377,45446,2,0,P|280:338|272:279,1,77.2799976416016,8|0,0:0|0:0,0:0:0:0:
374,133,45783,6,0,P|450:132|506:212,2,154.559995283203,2|10|2,1:0|0:0|1:0,0:0:0:0:
324,200,46625,1,0,1:0:0:0:
431,286,46794,2,0,P|421:248|416:210,1,77.2799976416016,8|0,0:0|0:0,0:0:0:0:
423,0,47131,6,0,P|350:26|273:33,1,154.559995283203,2|10,1:0|0:0,0:0:0:0:
221,90,47637,1,0,0:0:0:0:
81,45,47805,2,0,P|110:19|166:12,1,77.2799976416016,2|0,1:0|1:0,0:0:0:0:
269,156,48142,2,0,P|258:195|250:244,1,77.2799976416016,10|0,0:0|0:0,0:0:0:0:
32,326,48479,6,0,P|70:279|176:281,1,154.559995283203,2|8,1:0|0:0,0:0:0:0:
240,329,48985,1,0,0:0:0:0:
101,162,49153,2,0,P|89:199|74:240,1,77.2799976416016,0|0,1:0|1:0,0:0:0:0:
318,292,49490,2,0,P|330:329|345:370,1,77.2799976416016,8|0,0:0|0:0,0:0:0:0:
240,329,49828,5,0,1:0:0:0:
388,237,49996,1,0,1:0:0:0:
225,139,50165,2,0,L|328:166,1,77.2799976416016,8|0,0:0|0:0,0:0:0:0:
166,250,50502,5,8,0:0:0:0:
400,146,50670,1,0,3:0:0:0:
408,114,50755,1,0,3:0:0:0:
374,91,50839,1,8,3:0:0:0:
396,68,50923,1,8,3:0:0:0:
364,38,51007,1,8,3:0:0:0:
387,14,51092,1,8,3:0:0:0:
387,14,51176,6,0,P|326:57|251:46,1,154.559995283203,6|2,1:0|1:0,0:0:0:0:
186,14,51681,1,0,0:0:0:0:
99,141,51850,2,0,P|112:105|121:50,1,77.2799976416016,10|2,0:0|0:0,0:0:0:0:
267,187,52187,2,0,P|229:193|177:213,1,77.2799976416016,2|8,1:0|3:0,0:0:0:0:
173,233,52440,1,8,3:0:0:0:
173,233,52524,6,0,B|96:215|106:272|24:251,1,154.559995283203,10|2,3:0|1:0,0:0:0:0:
54,177,53030,1,0,0:0:0:0:
146,306,53198,5,10,0:0:0:0:
1,248,53367,1,2,0:0:0:0:
70,370,53535,5,2,1:0:0:0:
244,284,53704,1,8,0:0:0:0:
462,376,53873,6,0,B|422:309|422:309|453:217,2,154.559995283203,10|2|10,0:0|1:0|0:0,0:0:0:0:
512,316,54715,1,2,0:0:0:0:
352,245,54884,2,0,P|313:254|258:262,1,77.2799976416016,2|8,1:0|0:0,0:0:0:0:
389,94,55221,5,2,1:0:0:0:
416,162,55389,1,2,0:0:0:0:
255,116,55558,5,2,1:0:0:0:
278,42,55726,1,2,0:0:0:0:
425,118,55895,5,8,0:0:0:0:
239,197,56064,1,2,0:0:0:0:
239,197,56148,1,8,0:0:0:0:
239,197,56232,1,2,1:0:0:0:
347,242,56401,1,8,0:0:0:0:
171,64,56569,6,0,P|132:73|71:79,1,77.2799976416016,6|0,1:0|0:0,0:0:0:0:
137,242,56906,2,0,P|98:233|37:227,1,77.2799976416016,2|0,1:0|0:0,0:0:0:0:
239,197,57243,5,10,0:0:0:0:
179,148,57412,1,2,0:0:0:0:
214,338,57580,1,2,1:0:0:0:
214,338,57917,6,0,L|298:326,1,77.2799976416016,2|0,1:0|0:0,0:0:0:0:
365,146,58255,2,0,L|449:158,1,77.2799976416016,2|0,1:0|0:0,0:0:0:0:
382,263,58592,5,10,0:0:0:0:
290,222,58760,1,2,0:0:0:0:
302,316,58929,5,2,1:0:0:0:
430,177,59097,1,2,0:0:0:0:
246,66,59266,6,0,B|183:78|183:78|162:101|162:101|91:117,2,154.559995283203,6|0|8,1:0|1:0|0:0,0:0:0:0:
246,66,60277,1,0,1:0:0:0:
302,124,60446,1,0,0:0:0:0:
200,258,60614,6,0,L|107:239,1,51.5199984277344,2|0,1:0|0:0,0:0:0:0:
130,299,60839,2,0,L|188:286,1,51.5199984277344,2|0,0:0|1:0,0:0:0:0:
279,251,61064,1,2,0:0:0:0:
467,372,61288,5,10,0:0:0:0:
379,240,61457,1,0,1:0:0:0:
500,137,61625,5,14,0:0:0:0:
386,318,61794,1,2,0:0:0:0:
279,233,61962,5,6,0:0:0:0:
262,220,62299,1,4,0:0:0:0:
392,26,62637,5,8,3:0:0:0:
354,56,62721,1,8,3:0:0:0:
288,27,62805,1,8,3:0:0:0:
220,67,62889,1,8,3:0:0:0:
144,20,62974,5,8,0:0:0:0:
144,20,63311,6,0,P|131:77|105:146,1,123.279994168579,14|2,0:0|0:0,0:0:0:0:
262,274,63648,2,0,P|213:237|152:235,1,123.279994168579,10|0,0:0|1:0,0:0:0:0:
45,353,63985,5,8,0:0:0:0:
152,315,64153,1,0,1:0:0:0:
239,171,64322,5,10,0:0:0:0:
390,218,64490,1,0,1:0:0:0:
382,368,64659,5,10,0:0:0:0:
346,290,64828,1,2,1:0:0:0:
488,168,64996,5,10,0:0:0:0:
441,288,65165,1,0,1:0:0:0:
441,288,65249,1,0,1:0:0:0:
441,288,65333,5,10,0:0:0:0:
366,195,65502,1,2,1:0:0:0:
411,66,65670,5,10,0:0:0:0:
287,219,65839,1,2,1:0:0:0:
166,32,66007,6,0,P|226:22|282:78,1,123.279994168579,14|0,0:0|1:0,0:0:0:0:
117,211,66344,2,0,P|106:152|87:80,1,123.279994168579,8|2,0:0|1:0,0:0:0:0:
212,188,66681,5,10,0:0:0:0:
52,281,66850,1,0,1:0:0:0:
197,321,67019,5,8,0:0:0:0:
97,218,67187,1,0,1:0:0:0:
119,368,67356,5,8,0:0:0:0:
260,254,67524,1,0,1:0:0:0:
382,380,67693,5,8,0:0:0:0:
288,342,67861,1,0,1:0:0:0:
288,342,67946,1,0,3:2:0:0:
288,342,68030,5,10,0:0:0:0:
354,297,68198,1,2,1:0:0:0:
484,359,68367,6,0,P|469:301|457:221,1,123.279994168579,10|2,0:0|1:0,0:0:0:0:
247,245,68704,5,14,0:0:0:0:
284,82,68873,1,2,1:0:0:0:
494,150,69041,6,0,P|426:153|371:204,1,123.279994168579,10|0,0:0|1:0,0:0:0:0:
164,317,69378,2,0,P|225:333|294:363,1,123.279994168579,8|0,0:0|1:0,0:0:0:0:
179,137,69715,2,0,P|134:181|74:226,1,123.279994168579,10|0,0:0|1:0,0:0:0:0:
286,169,70052,5,10,0:0:0:0:
128,61,70221,1,2,1:0:0:0:
13,253,70389,2,0,P|24:319|30:383,1,123.279994168579,10|0,0:0|1:0,0:0:0:0:
28,154,70726,5,10,0:0:0:0:
155,297,70895,1,2,1:0:0:0:
214,235,71064,5,10,0:0:0:0:
0,321,71232,1,2,1:0:0:0:
280,318,71401,5,14,0:0:0:0:
217,205,71569,1,0,1:0:0:0:
158,313,71738,5,8,0:0:0:0:
323,243,71906,1,0,1:0:0:0:
237,182,72075,5,8,0:0:0:0:
194,384,72243,1,0,1:0:0:0:
352,322,72412,5,8,0:0:0:0:
135,224,72580,1,0,1:0:0:0:
343,229,72749,5,12,0:0:0:0:
83,340,72917,1,0,1:0:0:0:
158,151,73086,5,8,0:0:0:0:
210,260,73255,1,0,1:0:0:0:
57,184,73423,5,10,3:0:0:0:
199,85,73592,2,0,L|268:104,1,61.6399970842897,10|8,0:0|0:0,0:0:0:0:
334,267,73760,2,0,L|403:248,1,61.6399970842897,10|8,0:0|0:0,0:0:0:0:
462,102,73929,1,8,0:0:0:0:
481,111,74013,1,8,0:0:0:0:
499,123,74097,6,0,P|435:133|363:161,1,123.279994168579,14|2,0:0|0:0,0:0:0:0:
202,359,74434,2,0,P|231:285|253:104,1,246.559988337159,10|8,0:0|0:0,0:0:0:0:
197,64,74940,1,0,1:0:0:0:
338,0,75108,2,0,P|366:61|350:149,1,123.279994168579,10|0,0:0|1:0,0:0:0:0:
145,231,75446,5,10,0:0:0:0:
329,200,75614,1,2,1:0:0:0:
201,172,75783,5,10,0:0:0:0:
287,304,75951,1,0,1:0:0:0:
138,354,76120,5,10,0:0:0:0:
334,230,76288,1,2,1:0:0:0:
184,142,76457,5,10,0:0:0:0:
288,340,76625,1,2,1:0:0:0:
444,166,76794,6,0,B|326:148|351:273|193:253,1,246.559988337159,14|8,0:0|0:0,0:0:0:0:
160,209,77299,1,2,1:0:0:0:
419,257,77468,5,10,0:0:0:0:
285,134,77637,1,0,1:0:0:0:
264,360,77805,5,8,0:0:0:0:
491,305,77974,1,0,1:0:0:0:
374,165,78142,5,8,0:0:0:0:
343,324,78311,1,0,1:0:0:0:
495,224,78479,5,8,0:0:0:0:
351,188,78648,1,0,1:0:0:0:
117,384,78816,5,10,0:0:0:0:
261,348,78985,1,2,1:0:0:0:
230,190,79153,5,10,0:0:0:0:
210,265,79322,1,2,1:0:0:0:
44,322,79490,5,14,0:0:0:0:
3,133,79659,1,2,1:0:0:0:
153,210,79828,6,0,P|96:217|10:241,1,123.279994168579,10|0,0:0|1:0,0:0:0:0:
196,79,80165,2,0,P|255:94|316:102,1,123.279994168579,8|0,0:0|1:0,0:0:0:0:
152,221,80502,2,0,P|95:228|9:252,1,123.279994168579,10|0,0:0|1:0,0:0:0:0:
115,128,80839,5,10,0:0:0:0:
242,184,81007,1,2,1:0:0:0:
292,352,81176,5,10,0:0:0:0:
419,296,81344,1,0,1:0:0:0:
419,296,81429,1,0,1:0:0:0:
419,296,81513,5,10,0:0:0:0:
325,239,81681,1,2,1:0:0:0:
419,216,81850,5,10,0:0:0:0:
279,327,82019,1,2,1:0:0:0:
504,378,82187,6,0,B|486:324|486:324|508:236,1,123.279994168579,14|0,0:0|1:0,0:0:0:0:
351,33,82524,2,0,B|369:87|369:87|347:175,1,123.279994168579,8|0,0:0|1:0,0:0:0:0:
468,132,82861,5,8,0:0:0:0:
265,78,83030,1,0,1:0:0:0:
174,243,83198,5,8,0:0:0:0:
332,171,83367,1,0,1:0:0:0:
121,111,83535,5,8,0:0:0:0:
121,111,83873,5,8,0:0:0:0:
166,216,84041,1,8,0:0:0:0:
6,352,84210,5,10,0:0:0:0:
59,158,84378,1,10,0:0:0:0:
237,286,84547,5,10,0:0:0:0:
0,209,84715,1,10,0:0:0:0:
262,25,84884,6,0,B|230:81|230:81|250:140,1,123.279994168579,14|0,0:0|0:0,0:0:0:0:
395,355,85221,2,0,P|451:332|522:315,1,123.279994168579,10|0,0:0|1:0,0:0:0:0:
344,163,85558,5,10,0:0:0:0:
227,317,85726,1,2,1:0:0:0:
349,270,85895,5,8,0:0:0:0:
120,150,86064,2,0,B|68:164|68:164|59:174|59:174|2:187,1,123.279994168579,2|8,1:0|0:0,0:0:0:0:
129,226,86401,5,2,1:0:0:0:
12,107,86569,1,10,0:0:0:0:
98,299,86738,1,2,1:0:0:0:
98,299,86822,1,0,1:0:0:0:
98,299,86906,1,10,0:0:0:0:
247,149,87075,1,2,1:0:0:0:
292,253,87243,2,0,P|238:230|158:215,1,123.279994168579,10|2,0:0|1:0,0:0:0:0:
407,366,87580,6,0,B|418:291|418:291|443:264|443:264|454:192,1,184.919991252869,14|0,0:0|0:0,0:0:0:0:
454,192,87917,2,0,P|425:255|453:325,1,123.279994168579,10|0,0:0|1:0,0:0:0:0:
512,263,88255,1,10,0:0:0:0:
471,93,88423,2,0,L|350:136,1,123.279994168579,2|8,1:0|0:0,0:0:0:0:
337,208,88760,1,2,1:0:0:0:
148,56,88929,5,8,0:0:0:0:
218,98,89097,1,2,1:0:0:0:
79,220,89266,1,10,0:0:0:0:
197,294,89434,1,2,1:0:0:0:
90,355,89603,5,10,0:0:0:0:
228,204,89771,1,2,1:0:0:0:
39,81,89940,2,0,P|52:145|61:227,1,123.279994168579,10|2,0:0|1:0,0:0:0:0:
384,347,90277,6,0,P|315:289|227:303,1,184.919991252869,14|0,0:0|0:0,0:0:0:0:
234,323,90614,2,0,P|300:316|369:250,1,123.279994168579,10|0,0:0|1:0,0:0:0:0:
452,100,90951,1,10,0:0:0:0:
432,265,91120,2,0,P|408:209|393:131,1,123.279994168579,2|8,1:0|0:0,0:0:0:0:
466,26,91457,1,2,1:0:0:0:
265,154,91625,5,8,0:0:0:0:
326,95,91794,1,2,1:0:0:0:
199,22,91962,1,10,0:0:0:0:
120,164,92131,1,2,1:0:0:0:
302,264,92299,1,10,0:0:0:0:
190,110,92468,1,2,1:0:0:0:
50,264,92637,2,0,P|68:333|80:407,1,123.279994168579,10|2,0:0|1:0,0:0:0:0:
412,227,92974,6,0,P|394:296|382:370,1,123.279994168579,14|0,0:0|1:0,0:0:0:0:
193,185,93311,2,0,B|256:198|256:198|339:150,1,123.279994168579,10|0,0:0|1:0,0:0:0:0:
468,310,93648,1,10,0:0:0:0:
290,384,93816,2,0,P|260:331|274:272,1,123.279994168579,2|8,1:0|0:0,0:0:0:0:
427,142,94153,1,2,1:0:0:0:
222,24,94322,5,8,0:0:0:0:
193,103,94490,1,2,1:0:0:0:
390,221,94659,1,8,0:0:0:0:
318,73,94828,1,2,0:0:0:0:
118,196,94996,1,2,1:0:0:0:
267,250,95165,1,8,0:0:0:0:
267,250,95249,1,8,0:0:0:0:
267,250,95333,6,0,P|276:217|294:178,1,61.6399970842897,8|8,0:0|0:0,0:0:0:0:
91,334,95502,2,0,P|82:301|64:262,1,61.6399970842897,8|8,0:0|0:0,0:0:0:0:
255,344,95670,6,0,B|346:321|352:400|475:378,1,184.919991252869,14|0,0:0|0:0,0:0:0:0:
431,381,96007,2,0,B|410:322|410:322|443:264,1,123.279994168579,10|0,0:0|1:0,0:0:0:0:
346,97,96344,1,10,0:0:0:0:
406,189,96513,2,0,P|447:135|454:71,1,123.279994168579,2|8,1:0|0:0,0:0:0:0:
386,22,96850,1,2,1:0:0:0:
184,200,97019,5,8,0:0:0:0:
273,178,97187,1,2,1:0:0:0:
141,83,97356,1,10,0:0:0:0:
79,279,97524,1,2,1:0:0:0:
79,279,97608,1,0,1:0:0:0:
79,279,97693,1,10,0:0:0:0:
279,205,97861,1,2,1:0:0:0:
26,37,98030,2,0,P|39:95|44:176,1,123.279994168579,10|2,0:0|1:0,0:0:0:0:
248,58,98367,6,0,P|324:13|455:43,1,184.919991252869,14|0,0:0|0:0,0:0:0:0:
435,41,98704,2,0,P|420:103|411:187,1,123.279994168579,10|0,0:0|1:0,0:0:0:0:
477,362,99041,1,10,0:0:0:0:
512,261,99210,2,0,P|438:261|376:324,1,123.279994168579,2|8,1:0|0:0,0:0:0:0:
323,377,99547,1,2,1:0:0:0:
156,222,99715,5,8,0:0:0:0:
230,187,99884,1,2,1:0:0:0:
116,327,100052,1,10,0:0:0:0:
302,369,100221,1,2,1:0:0:0:
302,369,100305,1,0,1:0:0:0:
302,369,100389,1,10,0:0:0:0:
161,247,100558,1,2,1:0:0:0:
318,101,100726,2,0,P|330:157|352:231,1,123.279994168579,10|2,0:0|1:0,0:0:0:0:
45,98,101064,6,0,P|109:34|219:66,1,184.919991252869,14|0,0:0|0:0,0:0:0:0:
225,66,101401,2,0,P|289:79|381:35,1,123.279994168579,10|0,0:0|1:0,0:0:0:0:
442,3,101738,1,10,0:0:0:0:
493,126,101906,2,0,P|481:189|473:275,1,123.279994168579,2|8,1:0|0:0,0:0:0:0:
499,316,102243,1,2,1:0:0:0:
269,218,102412,5,8,0:0:0:0:
358,182,102580,1,2,1:0:0:0:
269,218,102749,1,10,0:0:0:0:
325,351,102917,1,2,1:0:0:0:
446,257,103086,1,10,0:0:0:0:
292,141,103255,1,2,1:0:0:0:
155,286,103423,2,0,L|11:322,1,123.279994168579,10|2,0:0|1:0,0:0:0:0:
222,356,103760,6,0,B|183:280|183:280|206:168,1,184.919991252869,14|0,0:0|0:0,0:0:0:0:
203,182,104097,2,0,B|220:123|220:123|196:41,1,123.279994168579,10|0,0:0|1:0,0:0:0:0:
49,40,104434,1,14,0:0:0:0:
11,152,104603,2,0,P|72:130|152:121,1,123.279994168579,2|8,1:0|0:0,0:0:0:0:
277,20,104940,1,2,1:0:0:0:
354,212,105108,6,0,P|343:164|332:75,1,123.279994168579,12|2,0:0|0:0,0:0:0:0:
354,212,105452,1,10,0:0:0:0:
299,270,105625,1,8,0:0:0:0:
140,137,105797,5,10,0:0:0:0:
277,20,105970,1,8,0:0:0:0:
456,179,106142,5,10,0:0:0:0:
256,374,106314,1,8,0:0:0:0:
21,2,106487,6,0,B|346:29|148:306|515:385,1,662.4,6|0,1:0|0:0,0:0:0:0:
