osu file format v14

[General]
AudioFilename: audio.mp3
AudioLeadIn: 0
PreviewTime: 62637
Countdown: 0
SampleSet: Soft
StackLeniency: 0.7
Mode: 0
LetterboxInBreaks: 0
WidescreenStoryboard: 0

[Editor]
Bookmarks: 6682,13423,18816,29603,40389,51176,60614,63311,74097,84884,95670,106487
DistanceSpacing: 1
BeatDivisor: 4
GridSize: 32
TimelineZoom: 1.4

[Metadata]
Title:Yume wa Jikuu o Koete
TitleUnicode:夢は時空を越えて
Artist:KISIDA KYODAN & THE AKEBOSI ROCKETS
ArtistUnicode:岸田教団&THE明星ロケッツ
Creator:SMOKELIND
Version:Xenon's Normal
Source:東方夢時空 ~ Pantasmagria of Dim.Dream
Tags:Japanese JP Video Game J-Rock JRock Rock Ichigo TH ZUN Touhou 東方Project 3 Reitaisai 4 C85 Comiket 85 A Dream Transcending Across Space-time Fantasy Incident Yumemi Okazaki 岡崎 夢美 幻想事変 KISHIDA KYOUDAN AND AKEBOSHI Kowari iljaaz Reform Kujinn Xenon- Xehn Xen
BeatmapID:2100553
BeatmapSetID:1002336

[Difficulty]
HPDrainRate:3
CircleSize:3.5
OverallDifficulty:4
ApproachRate:5
SliderMultiplier:0.999999999999999
SliderTickRate:1

[Events]
//Background and Video events
0,0,"Nya.jpg",0,0
//Break Periods
//Storyboard Layer 0 (Background)
//Storyboard Layer 1 (Fail)
//Storyboard Layer 2 (Pass)
//Storyboard Layer 3 (Foreground)
//Storyboard Layer 4 (Overlay)
//Storyboard Sound Samples

[TimingPoints]
46,337.078651685393,4,2,7,77,1,0
6682,337.078651685393,4,2,7,77,1,0
6682,-100,4,2,7,77,0,0
18816,-100,4,2,7,87,0,0
29603,-100,4,2,7,57,0,0
51176,-100,4,2,7,67,0,0
61962,-100,4,2,7,77,0,0
63311,-100,4,2,7,97,0,1
84884,-100,4,2,7,87,0,0
104940,-101.010101010101,4,2,7,87,0,0
105108,344.827586206897,4,2,7,87,1,0

[Colours]
Combo1 : 188,121,255
Combo2 : 255,121,188
Combo3 : 255,121,121
Combo4 : 121,121,255

[HitObjects]
89,310,6682,6,0,L|103:195,2,99.9999999999999,8|8|8,0:0|0:0|0:0,0:0:0:0:
156,383,7693,1,8,3:0:0:0:
254,359,8030,6,0,P|288:324|337:325,1,99.9999999999999,4|8,1:0|0:0,0:0:0:0:
434,353,8704,1,0,1:0:0:0:
490,270,9041,1,10,0:0:0:0:
428,191,9378,2,0,L|323:203,1,99.9999999999999,2|8,1:0|0:0,0:0:0:0:
291,180,9884,1,0,1:0:0:0:
291,180,10052,1,0,0:0:0:0:
230,259,10389,1,10,0:0:0:0:
158,188,10726,6,0,P|99:192|73:227,2,99.9999999999999,2|8|0,1:0|0:0|1:0,0:0:0:0:
201,161,11569,1,0,1:0:0:0:
201,161,11738,1,10,0:0:0:0:
273,92,12075,2,0,P|332:96|358:131,1,99.9999999999999,2|10,1:0|0:0,0:0:0:0:
422,199,12749,2,0,L|414:262,1,50,0|0,1:0|1:0,0:0:0:0:
410,298,13086,1,10,0:0:0:0:
322,345,13423,6,0,B|279:317|279:317|230:328,1,99.9999999999999,6|10,1:0|0:0,0:0:0:0:
159,259,14097,2,0,L|171:157,1,99.9999999999999,2|10,1:0|0:0,0:0:0:0:
264,123,14771,2,0,L|256:60,1,50,2|0,1:0|0:0,0:0:0:0:
252,24,15108,1,10,0:0:0:0:
162,68,15446,2,0,B|112:56|112:56|70:84,1,99.9999999999999,2|10,0:0|0:0,0:0:0:0:
31,175,16120,6,0,L|43:274,1,99.9999999999999,2|8,1:0|0:0,0:0:0:0:
121,335,16794,1,2,1:0:0:0:
205,280,17131,1,10,0:0:0:0:
286,338,17468,2,0,L|349:330,1,50,2|0,1:0|3:0,0:0:0:0:
363,290,17805,2,0,L|412:296,1,50,8|8,0:0|0:0,0:0:0:0:
442,336,18142,2,0,P|437:294|478:258,1,99.9999999999999,4|0,1:0|0:0,0:0:0:0:
507,162,18816,5,14,0:0:0:0:
439,88,19153,2,0,P|385:86|361:34,1,99.9999999999999,10|10,0:0|0:0,0:0:0:0:
321,21,19659,1,2,1:0:0:0:
242,82,19996,2,0,L|255:195,1,99.9999999999999,2|2,1:0|1:0,0:0:0:0:
289,216,20502,1,10,0:0:0:0:
196,253,20839,2,0,B|146:265|146:265|105:238,1,99.9999999999999,10|10,0:0|0:0,0:0:0:0:
166,158,21513,5,14,0:0:0:0:
136,63,21850,2,0,B|186:51|186:51|226:77,1,99.9999999999999,10|10,0:0|0:0,0:0:0:0:
253,120,22356,1,2,1:0:0:0:
249,219,22693,2,0,P|309:231|321:281,1,99.9999999999999,2|2,1:0|1:0,0:0:0:0:
352,301,23198,1,10,0:0:0:0:
436,247,23535,2,0,L|423:147,1,99.9999999999999,10|10,0:0|0:0,0:0:0:0:
337,96,24210,5,14,0:0:0:0:
281,179,24547,2,0,P|227:181|203:233,1,99.9999999999999,10|10,0:0|0:0,0:0:0:0:
163,246,25052,1,2,1:0:0:0:
65,223,25389,2,0,L|78:336,1,99.9999999999999,2|2,1:0|1:0,0:0:0:0:
112,356,25895,1,10,0:0:0:0:
209,332,26232,2,0,B|259:320|259:320|299:346,1,99.9999999999999,10|10,0:0|0:0,0:0:0:0:
393,313,26906,5,14,0:0:0:0:
344,225,27243,2,0,P|329:173|367:133,1,99.9999999999999,10|10,0:0|0:0,0:0:0:0:
370,91,27749,1,2,1:0:0:0:
289,31,28086,2,0,B|239:19|239:19|198:45,1,99.9999999999999,2|0,0:0|0:0,0:0:0:0:
176,91,28592,2,0,L|183:154,1,50,10|8,0:0|0:0,0:0:0:0:
220,173,28929,2,0,L|212:236,1,50,10|10,0:0|0:0,0:0:0:0:
176,255,29266,1,10,0:0:0:0:
247,324,29603,6,0,L|360:311,1,99.9999999999999,6|8,1:0|0:0,0:0:0:0:
421,247,30277,1,2,1:0:0:0:
354,172,30614,1,10,0:0:0:0:
422,99,30951,2,0,P|405:46|360:28,1,99.9999999999999,2|10,1:0|0:0,0:0:0:0:
291,93,31625,2,0,L|191:104,1,99.9999999999999,2|10,1:0|0:0,0:0:0:0:
137,188,32299,6,0,B|96:162|96:162|46:174,2,99.9999999999999,2|10|2,1:0|0:0|1:0,0:0:0:0:
152,239,33142,1,0,1:0:0:0:
152,239,33311,1,8,0:0:0:0:
243,278,33648,2,0,L|342:266,1,99.9999999999999,2|8,1:0|0:0,0:0:0:0:
361,364,34322,2,0,L|261:375,1,99.9999999999999,2|8,1:0|0:0,0:0:0:0:
165,347,34996,5,6,1:0:0:0:
70,382,35333,1,10,0:0:0:0:
0,311,35670,2,0,P|35:273|32:220,1,99.9999999999999,2|8,1:0|0:0,0:0:0:0:
82,139,36344,1,2,1:0:0:0:
162,197,36681,1,10,0:0:0:0:
228,121,37019,2,0,P|229:72|264:37,1,99.9999999999999,2|10,1:0|0:0,0:0:0:0:
357,75,37693,6,0,B|398:49|398:49|448:61,2,99.9999999999999,2|8|0,1:0|0:0|1:0,0:0:0:0:
342,126,38535,1,0,1:0:0:0:
342,126,38704,1,8,0:0:0:0:
400,206,39041,2,0,B|359:232|359:232|309:220,1,99.9999999999999,0|8,1:0|0:0,0:0:0:0:
267,243,39547,1,0,3:0:0:0:
267,243,39715,2,0,L|274:306,1,50,0|8,1:0|0:0,0:0:0:0:
248,336,40052,1,8,0:0:0:0:
168,274,40389,6,0,L|181:161,1,99.9999999999999,6|8,1:0|0:0,0:0:0:0:
254,108,41064,1,2,1:0:0:0:
332,169,41401,1,10,0:0:0:0:
413,109,41738,2,0,P|439:68|435:19,1,99.9999999999999,2|10,1:0|0:0,0:0:0:0:
336,0,42412,2,0,B|286:-12|286:-12|245:14,1,99.9999999999999,2|10,1:0|0:0,0:0:0:0:
186,95,43086,6,0,L|199:208,2,99.9999999999999,2|10|2,1:0|0:0|1:0,0:0:0:0:
140,64,43929,1,0,1:0:0:0:
140,64,44097,1,8,0:0:0:0:
227,17,44434,2,0,P|276:16|306:54,1,99.9999999999999,2|8,1:0|0:0,0:0:0:0:
393,104,45108,2,0,L|380:217,1,99.9999999999999,2|8,1:0|0:0,0:0:0:0:
442,282,45783,5,2,1:0:0:0:
342,292,46120,1,10,0:0:0:0:
285,209,46457,2,0,B|235:197|235:197|194:223,1,99.9999999999999,2|8,1:0|0:0,0:0:0:0:
176,321,47131,1,2,1:0:0:0:
100,255,47468,1,10,0:0:0:0:
118,155,47805,2,0,P|113:105|149:72,1,99.9999999999999,2|10,1:0|0:0,0:0:0:0:
240,41,48479,6,0,L|339:52,2,99.9999999999999,2|8|0,1:0|0:0|1:0,0:0:0:0:
207,11,49322,1,0,1:0:0:0:
207,11,49490,1,8,0:0:0:0:
131,75,49828,2,0,B|90:49|90:49|40:61,1,99.9999999999999,0|8,1:0|0:0,0:0:0:0:
71,155,50502,2,0,L|65:204,1,50,8|0,0:0|3:0,0:0:0:0:
29,239,50839,2,0,L|36:302,1,50,8|8,3:0|3:0,0:0:0:0:
70,322,51176,6,0,P|21:321|-15:353,2,99.9999999999999,6|2|10,1:0|1:0|0:0,0:0:0:0:
160,365,52187,1,2,1:0:0:0:
246,314,52524,2,0,L|235:215,2,99.9999999999999,10|2|10,3:0|1:0|0:0,0:0:0:0:
337,353,53535,2,0,L|342:303,1,50,2|8,1:0|0:0,0:0:0:0:
381,270,53873,6,0,P|430:271|466:239,2,99.9999999999999,10|2|10,0:0|1:0|0:0,0:0:0:0:
320,190,54884,2,0,L|325:140,1,50,2|8,1:0|0:0,0:0:0:0:
305,94,55221,2,0,B|255:82|255:82|214:108,1,99.9999999999999,2|2,1:0|1:0,0:0:0:0:
209,160,55726,1,2,0:0:0:0:
209,160,55895,2,0,B|168:186|168:186|118:174,1,99.9999999999999,8|2,0:0|1:0,0:0:0:0:
45,104,56569,6,0,P|18:145|18:194,2,99.9999999999999,6|2|10,1:0|1:0|0:0,0:0:0:0:
61,59,57412,1,2,0:0:0:0:
61,59,57580,1,2,1:0:0:0:
150,13,57917,2,0,L|249:24,1,99.9999999999999,2|2,1:0|1:0,0:0:0:0:
290,115,58592,2,0,L|339:109,1,50,10|2,0:0|0:0,0:0:0:0:
359,63,58929,2,0,L|408:68,1,50,2|2,1:0|0:0,0:0:0:0:
427,114,59266,6,0,P|460:151|461:200,1,99.9999999999999,6|0,1:0|1:0,0:0:0:0:
388,268,59940,2,0,B|338:280|338:280|297:254,1,99.9999999999999,8|0,0:0|1:0,0:0:0:0:
210,204,60614,6,0,P|173:208|146:231,2,66.6666666666666,2|2|0,1:0|0:0|0:0,0:0:0:0:
267,170,61288,2,0,L|256:71,1,99.9999999999999,10|14,0:0|0:0,0:0:0:0:
271,25,61794,1,2,0:0:0:0:
271,25,61962,1,6,0:0:0:0:
173,5,62299,1,4,0:0:0:0:
113,86,62637,2,0,B|72:60|72:60|22:72,1,99.9999999999999,8|8,3:0|0:0,0:0:0:0:
55,166,63311,6,0,L|47:229,1,50,14|2,0:0|0:0,0:0:0:0:
14,252,63648,2,0,P|63:248|99:281,1,99.9999999999999,10|8,0:0|0:0,0:0:0:0:
174,346,64322,1,10,0:0:0:0:
254,287,64659,2,0,L|247:237,1,50,10|2,0:0|1:0,0:0:0:0:
207,207,64996,2,0,L|217:107,1,99.9999999999999,10|10,0:0|0:0,0:0:0:0:
255,75,65502,1,2,1:0:0:0:
255,75,65670,1,10,0:0:0:0:
341,124,66007,6,0,P|389:115|436:158,1,99.9999999999999,14|8,0:0|0:0,0:0:0:0:
446,189,66513,1,2,1:0:0:0:
446,189,66681,2,0,L|435:288,1,99.9999999999999,10|8,0:0|0:0,0:0:0:0:
355,348,67356,2,0,B|305:360|305:360|264:334,1,99.9999999999999,8|8,0:0|0:0,0:0:0:0:
235,238,68030,2,0,L|241:188,1,50,10|2,0:0|1:0,0:0:0:0:
249,138,68367,1,10,0:0:0:0:
337,91,68704,6,0,L|329:27,1,50,14|2,0:0|1:0,0:0:0:0:
284,21,69041,2,0,P|237:6|195:29,1,99.9999999999999,10|8,0:0|0:0,0:0:0:0:
144,115,69715,1,10,0:0:0:0:
77,39,70052,2,0,L|13:46,1,50,14|2,0:0|1:0,0:0:0:0:
7,90,70389,2,0,P|48:134|45:172,1,99.9999999999999,10|10,0:0|0:0,0:0:0:0:
72,218,70895,1,2,1:0:0:0:
72,218,71064,1,10,0:0:0:0:
155,272,71401,6,0,B|196:246|196:246|246:258,1,99.9999999999999,14|8,0:0|0:0,0:0:0:0:
321,323,72075,1,8,0:0:0:0:
406,272,72412,1,8,0:0:0:0:
384,175,72749,2,0,P|410:134|404:85,1,99.9999999999999,14|8,0:0|0:0,0:0:0:0:
319,33,73423,2,0,L|255:40,1,50,10|2,3:0|1:0,0:0:0:0:
219,44,73760,1,10,0:0:0:0:
258,136,74097,6,0,L|250:199,1,50,14|2,0:0|0:0,0:0:0:0:
283,224,74434,2,0,B|233:212|233:212|192:238,1,99.9999999999999,10|8,0:0|0:0,0:0:0:0:
141,324,75108,1,10,0:0:0:0:
61,263,75446,2,0,L|54:213,1,50,10|2,0:0|1:0,0:0:0:0:
14,184,75783,2,0,L|24:84,1,99.9999999999999,10|10,0:0|0:0,0:0:0:0:
68,61,76288,1,2,1:0:0:0:
68,61,76457,1,10,0:0:0:0:
152,114,76794,6,0,P|192:86|239:95,1,99.9999999999999,14|8,0:0|0:0,0:0:0:0:
274,138,77299,1,2,1:0:0:0:
274,138,77468,2,0,L|263:237,1,99.9999999999999,10|8,0:0|0:0,0:0:0:0:
318,321,78142,2,0,B|368:333|368:333|409:307,1,99.9999999999999,8|8,0:0|0:0,0:0:0:0:
449,215,78816,2,0,L|442:165,1,50,10|2,0:0|1:0,0:0:0:0:
435,115,79153,1,10,0:0:0:0:
346,160,79490,6,0,L|296:153,1,50,14|2,0:0|1:0,0:0:0:0:
270,110,79828,2,0,B|220:98|220:98|179:124,1,99.9999999999999,10|8,0:0|0:0,0:0:0:0:
126,208,80502,1,10,0:0:0:0:
211,260,80839,2,0,L|217:309,1,50,10|2,0:0|1:0,0:0:0:0:
250,346,81176,2,0,P|294:305|332:308,1,99.9999999999999,10|10,0:0|0:0,0:0:0:0:
376,283,81681,1,2,1:0:0:0:
376,283,81850,1,10,0:0:0:0:
433,200,82187,6,0,B|392:174|392:174|342:186,1,99.9999999999999,14|8,0:0|0:0,0:0:0:0:
275,260,82861,1,8,0:0:0:0:
241,165,83198,1,8,0:0:0:0:
174,239,83535,2,0,P|125:233|83:259,1,99.9999999999999,8|8,0:0|0:0,0:0:0:0:
5,196,84210,2,0,L|12:132,1,50,10|10,0:0|0:0,0:0:0:0:
53,119,84547,2,0,L|45:55,1,50,10|10,0:0|0:0,0:0:0:0:
11,33,84884,5,14,0:0:0:0:
107,7,85221,2,0,B|157:-5|157:-5|198:22,1,99.9999999999999,10|10,0:0|0:0,0:0:0:0:
229,60,85726,1,2,1:0:0:0:
168,139,86064,2,0,L|155:252,1,99.9999999999999,2|2,1:0|1:0,0:0:0:0:
182,281,86569,1,10,0:0:0:0:
257,216,86906,2,0,B|307:204|307:204|348:231,1,99.9999999999999,10|10,0:0|0:0,0:0:0:0:
418,301,87580,5,14,0:0:0:0:
484,226,87917,2,0,L|472:126,1,99.9999999999999,10|10,0:0|0:0,0:0:0:0:
441,86,88423,1,2,1:0:0:0:
366,152,88760,2,0,P|306:164|294:214,1,99.9999999999999,2|2,1:0|1:0,0:0:0:0:
260,233,89266,1,10,0:0:0:0:
172,183,89603,2,0,L|159:83,1,99.9999999999999,10|10,0:0|0:0,0:0:0:0:
236,20,90277,5,14,0:0:0:0:
317,78,90614,2,0,P|371:80|395:132,1,99.9999999999999,10|10,0:0|0:0,0:0:0:0:
434,145,91120,1,2,1:0:0:0:
397,238,91457,2,0,L|284:251,1,99.9999999999999,2|2,1:0|1:0,0:0:0:0:
269,290,91962,1,10,0:0:0:0:
208,209,92299,2,0,B|158:197|158:197|118:223,1,99.9999999999999,10|10,0:0|0:0,0:0:0:0:
38,284,92974,5,14,0:0:0:0:
5,189,93311,2,0,P|-10:137|28:97,1,99.9999999999999,10|10,0:0|0:0,0:0:0:0:
33,56,93816,1,2,1:0:0:0:
123,99,94153,2,0,B|164:73|164:73|214:85,1,99.9999999999999,2|2,1:0|1:0,0:0:0:0:
243,125,94659,1,8,0:0:0:0:
311,197,94996,2,0,L|303:260,1,50,2|8,1:0|0:0,0:0:0:0:
268,280,95333,2,0,L|275:343,1,50,8|8,0:0|0:0,0:0:0:0:
316,355,95670,5,14,0:0:0:0:
405,309,96007,2,0,P|407:255|459:231,1,99.9999999999999,10|10,0:0|0:0,0:0:0:0:
478,196,96513,2,0,L|472:146,1,50,2|8,1:0|0:0,0:0:0:0:
503,107,96850,2,0,L|403:95,1,99.9999999999999,2|2,1:0|1:0,0:0:0:0:
366,129,97356,1,10,0:0:0:0:
317,41,97693,2,0,B|267:29|267:29|226:56,1,99.9999999999999,10|10,0:0|0:0,0:0:0:0:
178,143,98367,5,14,0:0:0:0:
252,209,98704,2,0,P|313:210|333:257,1,99.9999999999999,10|10,0:0|0:0,0:0:0:0:
363,277,99210,2,0,L|357:326,1,50,2|8,1:0|0:0,0:0:0:0:
316,355,99547,2,0,B|266:343|266:343|226:369,1,99.9999999999999,2|2,1:0|1:0,0:0:0:0:
179,349,100052,1,10,0:0:0:0:
95,294,100389,2,0,L|108:194,1,99.9999999999999,10|10,0:0|0:0,0:0:0:0:
186,133,101064,5,14,0:0:0:0:
255,205,101401,2,0,B|305:217|305:217|345:191,1,99.9999999999999,10|10,0:0|0:0,0:0:0:0:
370,147,101906,2,0,L|364:97,1,50,2|8,1:0|0:0,0:0:0:0:
398,60,102243,2,0,L|298:48,1,99.9999999999999,2|2,1:0|1:0,0:0:0:0:
271,6,102749,1,10,0:0:0:0:
200,77,103086,2,0,B|150:65|150:65|110:91,1,99.9999999999999,10|10,0:0|0:0,0:0:0:0:
171,169,103760,5,14,0:0:0:0:
99,239,104097,2,0,P|84:291|122:331,1,99.9999999999999,10|14,0:0|0:0,0:0:0:0:
152,349,104603,2,0,L|201:343,1,50,2|8,1:0|0:0,0:0:0:0:
235,307,104940,2,0,B|285:295|285:295|326:321,1,99.9999999999999,2|0,1:0|0:0,0:0:0:0:
375,314,105452,1,10,0:0:0:0:
439,237,105797,2,0,L|431:173,1,50,10|8,0:0|0:0,0:0:0:0:
391,159,106142,2,0,L|398:95,1,50,10|8,0:0|0:0,0:0:0:0:
439,81,106487,5,14,0:0:0:0:
