osu file format v14

[General]
AudioFilename: audio.mp3
AudioLeadIn: 0
PreviewTime: 62637
Countdown: 0
SampleSet: Soft
StackLeniency: 0.7
Mode: 0
LetterboxInBreaks: 0
WidescreenStoryboard: 1

[Editor]
DistanceSpacing: 0.7
BeatDivisor: 4
GridSize: 32
TimelineZoom: 1.5

[Metadata]
Title:Yume wa Jikuu o Koete
TitleUnicode:夢は時空を越えて
Artist:KISIDA KYODAN & THE AKEBOSI ROCKETS
ArtistUnicode:岸田教団&THE明星ロケッツ
Creator:SMOKELIND
Version:Reform's Extra Stage
Source:東方夢時空 ~ Pantasmagria of Dim.Dream
Tags:Japanese JP Video Game J-Rock JRock Rock Ichigo TH ZUN Touhou 東方Project 3 Reitaisai 4 C85 Comiket 85 A Dream Transcending Across Space-time Fantasy Incident Yumemi Okazaki 岡崎 夢美 幻想事変 KISHIDA KYOUDAN AND AKEBOSHI Kowari iljaaz Reform Kujinn Xenon- Xehn Xen
BeatmapID:2101240
BeatmapSetID:1002336

[Difficulty]
HPDrainRate:5
CircleSize:4
OverallDifficulty:8.8
ApproachRate:9
SliderMultiplier:1.77
SliderTickRate:1

[Events]
//Background and Video events
0,0,"Nya.jpg",0,0
//Break Periods
//Storyboard Layer 0 (Background)
//Storyboard Layer 1 (Fail)
//Storyboard Layer 2 (Pass)
//Storyboard Layer 3 (Foreground)
//Storyboard Layer 4 (Overlay)
//Storyboard Sound Samples

[TimingPoints]
46,337.078651685393,4,2,7,77,1,0
6682,337.078651685393,4,2,7,77,1,0
6682,-114.942528735632,4,2,7,77,0,0
7693,-129.87012987013,4,2,7,77,0,0
8030,-114.942528735632,4,2,7,77,0,0
18816,-103.092783505155,4,2,7,87,0,0
29603,-129.87012987013,4,2,7,57,0,0
51176,-114.942528735632,4,2,7,67,0,0
61962,-129.87012987013,4,2,7,77,0,0
63311,-93.4579439252336,4,2,7,97,0,0
84884,-103.092783505155,4,2,7,87,0,0
105108,344.827586206897,4,2,7,87,1,0
105108,-103.092783505155,4,2,7,87,0,0
106487,-1000,4,2,7,77,0,0
106659,-1000,4,2,7,7,0,0

[Colours]
Combo1 : 188,121,255
Combo2 : 255,121,188
Combo3 : 255,121,121
Combo4 : 121,121,255

[HitObjects]
119,42,6682,6,0,L|135:136,1,76.9950006461678,8|0,0:0|1:0,0:0:0:0:
331,293,7019,2,0,L|345:212,1,76.9950006461678,8|0,0:0|1:0,0:0:0:0:
109,234,7356,1,8,0:0:0:0:
222,50,7524,1,0,1:0:0:0:
322,195,7693,1,8,3:0:0:0:
322,195,8030,6,0,P|236:180|204:230,1,153.990001292336,4|8,1:0|0:0,0:0:0:0:
387,365,8704,2,0,P|432:353|478:339,2,76.9950006461678,0|0|10,1:0|1:0|0:0,0:0:0:0:
79,363,9378,6,0,P|102:307|102:207,1,153.990001292336,2|8,1:0|0:0,0:0:0:0:
22,186,9884,2,0,P|15:140|54:35,1,153.990001292336,0|2,1:0|1:0,0:0:0:0:
136,6,10389,1,10,0:0:0:0:
466,146,10726,6,0,B|409:155|409:155|384:182|384:182|314:192,1,153.990001292336,2|8,1:0|0:0,0:0:0:0:
161,325,11401,2,0,L|83:308,2,76.9950006461678,0|0|10,1:0|1:0|0:0,0:0:0:0:
464,259,12075,5,2,1:0:0:0:
464,259,12243,1,0,1:0:0:0:
362,345,12412,2,0,L|348:258,1,76.9950006461678,10|0,0:0|3:0,0:0:0:0:
213,160,12749,5,0,1:0:0:0:
213,160,12917,1,0,1:0:0:0:
315,74,13086,2,0,L|329:161,1,76.9950006461678,10|0,0:0|0:0,0:0:0:0:
181,319,13423,6,0,P|113:330|74:245,1,153.990001292336,6|10,1:0|0:0,0:0:0:0:
149,190,13929,1,0,3:0:0:0:
252,256,14097,2,0,P|293:247|339:241,1,76.9950006461678,2|2,1:0|1:0,0:0:0:0:
159,157,14434,2,0,P|120:151|83:143,1,76.9950006461678,10|0,0:0|0:0,0:0:0:0:
267,23,14771,6,0,B|227:62|227:62|255:182,1,153.990001292336,2|10,1:0|0:0,0:0:0:0:
367,276,15277,1,2,1:0:0:0:
202,222,15446,1,2,0:0:0:0:
202,222,15614,1,2,1:0:0:0:
355,108,15783,2,0,L|345:206,1,76.9950006461678,10|0,0:0|0:0,0:0:0:0:
209,351,16120,6,0,P|165:363|107:269,1,153.990001292336,2|8,1:0|0:0,0:0:0:0:
213,203,16625,1,0,3:0:0:0:
213,203,16710,1,0,3:0:0:0:
213,203,16794,2,0,L|300:217,1,76.9950006461678,2|0,1:0|1:0,0:0:0:0:
102,289,17131,2,0,L|15:303,1,76.9950006461678,10|0,0:0|0:0,0:0:0:0:
104,126,17468,5,2,1:0:0:0:
195,285,17637,1,0,3:0:0:0:
195,285,17721,1,8,0:0:0:0:
195,285,17805,2,0,L|201:221,1,38.4975003230839,8|0,0:0|3:0,0:0:0:0:
229,92,17974,1,8,0:0:0:0:
229,92,18058,1,8,0:0:0:0:
229,92,18142,1,4,1:0:0:0:
33,219,18479,5,0,0:0:0:0:
33,219,18816,6,0,P|87:226|134:232,1,85.8450020303307,14|0,0:0|0:0,0:0:0:0:
280,326,19153,2,0,P|226:333|179:339,1,85.8450020303307,10|0,0:0|1:0,0:0:0:0:
110,149,19490,1,10,0:0:0:0:
266,215,19659,1,2,1:0:0:0:
129,278,19828,1,8,0:0:0:0:
257,135,19996,6,0,P|314:149|343:194,1,85.8450020303307,2|8,1:0|0:0,0:0:0:0:
268,301,20333,1,2,1:0:0:0:
167,173,20502,1,10,0:0:0:0:
359,266,20670,1,2,1:0:0:0:
165,334,20839,1,10,0:0:0:0:
256,132,21007,1,2,1:0:0:0:
345,341,21176,2,0,L|446:326,1,85.8450020303307,10|2,0:0|1:0,0:0:0:0:
181,253,21513,6,0,P|162:207|171:162,1,85.8450020303307,14|0,0:0|1:0,0:0:0:0:
333,78,21850,2,0,P|352:124|343:169,1,85.8450020303307,10|0,0:0|1:0,0:0:0:0:
230,77,22187,1,10,0:0:0:0:
334,256,22356,1,2,1:0:0:0:
428,78,22524,1,8,0:0:0:0:
251,184,22693,6,0,L|158:171,1,85.8450020303307,2|8,1:0|0:0,0:0:0:0:
87,259,23030,1,2,1:0:0:0:
271,316,23198,2,0,L|364:303,1,85.8450020303307,10|2,0:0|1:0,0:0:0:0:
185,287,23535,2,0,P|181:344|210:386,1,85.8450020303307,10|2,0:0|1:0,0:0:0:0:
340,212,23873,2,0,P|344:155|315:113,1,85.8450020303307,10|2,0:0|1:0,0:0:0:0:
95,155,24210,6,0,B|198:128|162:206|272:177,2,171.690004060661,14|10|10,0:0|0:0|0:0,0:0:0:0:
225,81,25052,1,2,1:0:0:0:
135,241,25221,1,8,0:0:0:0:
340,212,25389,6,0,P|344:155|315:113,1,85.8450020303307,2|8,1:0|0:0,0:0:0:0:
246,317,25726,1,2,1:0:0:0:
157,155,25895,1,10,0:0:0:0:
340,212,26064,1,2,1:0:0:0:
152,277,26232,1,10,0:0:0:0:
239,98,26401,1,2,1:0:0:0:
343,293,26569,2,0,P|384:311|441:298,1,85.8450020303307,10|2,0:0|1:0,0:0:0:0:
413,78,26906,6,0,L|397:182,1,85.8450020303307,14|0,0:0|1:0,0:0:0:0:
227,293,27243,2,0,L|243:189,1,85.8450020303307,10|0,0:0|1:0,0:0:0:0:
191,56,27580,1,10,0:0:0:0:
343,160,27749,1,2,1:0:0:0:
130,226,27917,6,0,P|125:171|149:128,1,85.8450020303307,8|2,0:0|0:0,0:0:0:0:
344,263,28255,2,0,P|349:318|325:361,1,85.8450020303307,10|2,0:0|0:0,0:0:0:0:
200,192,28592,1,10,0:0:0:0:
242,344,28760,1,8,0:0:0:0:
297,123,28929,1,10,0:0:0:0:
152,306,29097,1,10,0:0:0:0:
215,48,29266,1,10,0:0:0:0:
215,48,29603,6,0,B|217:97|217:97|238:124|238:124|242:180,1,136.289997296494,6|8,1:0|0:0,0:0:0:0:
174,246,30108,1,0,0:0:0:0:
174,246,30277,2,0,L|90:231,1,68.1449986482468,2|0,1:0|0:0,0:0:0:0:
265,323,30614,2,0,L|349:308,1,68.1449986482468,10|0,0:0|0:0,0:0:0:0:
451,213,30951,6,0,P|426:175|327:175,2,136.289997296494,2|10|2,1:0|0:0|1:0,0:0:0:0:
382,307,31794,1,0,1:0:0:0:
382,307,31962,2,0,L|371:225,1,68.1449986482468,10|0,0:0|0:0,0:0:0:0:
273,81,32299,6,0,L|263:148,1,68.1449986482468,2|0,1:0|0:0,0:0:0:0:
159,240,32637,2,0,P|118:236|88:211,1,68.1449986482468,10|0,0:0|0:0,0:0:0:0:
156,146,32974,1,2,1:0:0:0:
156,146,33142,1,0,1:0:0:0:
258,237,33311,2,0,L|268:304,1,68.1449986482468,8|2,0:0|0:0,0:0:0:0:
372,180,33648,6,0,L|388:42,2,136.289997296494,2|8|2,1:0|0:0|1:0,0:0:0:0:
401,299,34490,1,0,1:0:0:0:
289,168,34659,2,0,P|261:157|212:165,1,68.1449986482468,8|0,0:0|0:0,0:0:0:0:
90,283,34996,6,0,P|121:294|155:291,1,68.1449986482468,6|0,1:0|0:0,0:0:0:0:
118,135,35333,2,0,L|128:219,1,68.1449986482468,10|0,0:0|0:0,0:0:0:0:
258,302,35670,1,2,1:0:0:0:
258,302,35839,2,0,L|248:218,1,68.1449986482468,0|8,1:0|0:0,0:0:0:0:
366,276,36176,1,2,0:0:0:0:
350,123,36344,6,0,P|383:119|415:130,1,68.1449986482468,2|0,1:0|0:0,0:0:0:0:
497,224,36681,2,0,P|463:227|431:216,1,68.1449986482468,10|0,0:0|0:0,0:0:0:0:
301,269,37019,2,0,P|334:265|366:276,1,68.1449986482468,2|0,1:0|1:0,0:0:0:0:
459,376,37356,2,0,P|425:379|393:368,1,68.1449986482468,10|0,0:0|0:0,0:0:0:0:
251,209,37693,6,0,L|268:353,2,136.289997296494,2|8|0,1:0|0:0|1:0,0:0:0:0:
191,147,38535,1,0,1:0:0:0:
191,147,38704,2,0,L|117:138,1,68.1449986482468,8|0,0:0|0:0,0:0:0:0:
241,64,39041,5,0,1:0:0:0:
241,64,39210,1,0,0:0:0:0:
303,147,39378,1,8,0:0:0:0:
378,68,39547,1,0,3:0:0:0:
378,68,39631,1,0,3:0:0:0:
378,68,39715,1,0,1:0:0:0:
315,251,39884,1,8,0:0:0:0:
241,64,40052,1,8,0:0:0:0:
395,255,40389,6,0,P|375:305|279:325,2,136.289997296494,6|8|2,1:0|0:0|1:0,0:0:0:0:
326,175,41232,1,0,1:0:0:0:
326,175,41401,2,0,L|241:188,1,68.1449986482468,10|0,0:0|0:0,0:0:0:0:
110,260,41738,6,0,L|195:273,1,68.1449986482468,2|0,1:0|0:0,0:0:0:0:
199,118,42075,2,0,P|175:151|170:187,1,68.1449986482468,10|0,0:0|0:0,0:0:0:0:
234,338,42412,2,0,P|258:305|263:269,1,68.1449986482468,2|0,1:0|1:0,0:0:0:0:
95,193,42749,2,0,L|114:281,1,68.1449986482468,10|0,0:0|0:0,0:0:0:0:
258,185,43086,6,0,L|272:118,1,68.1449986482468,2|0,1:0|0:0,0:0:0:0:
178,16,43423,2,0,L|163:82,1,68.1449986482468,10|0,0:0|0:0,0:0:0:0:
281,38,43760,1,2,1:0:0:0:
281,38,43929,1,0,1:0:0:0:
166,161,44097,2,0,P|127:155|96:127,1,68.1449986482468,8|0,0:0|0:0,0:0:0:0:
281,38,44434,6,0,L|300:181,2,136.289997296494,2|8|2,1:0|0:0|1:0,0:0:0:0:
382,115,45277,1,0,1:0:0:0:
382,115,45446,2,0,L|394:211,1,68.1449986482468,8|0,0:0|0:0,0:0:0:0:
304,290,45783,6,0,P|265:303|225:291,1,68.1449986482468,2|0,1:0|0:0,0:0:0:0:
92,237,46120,2,0,P|131:224|171:236,1,68.1449986482468,10|0,0:0|0:0,0:0:0:0:
137,325,46457,1,2,1:0:0:0:
137,325,46625,1,0,1:0:0:0:
258,220,46794,2,0,L|248:134,1,68.1449986482468,8|0,0:0|0:0,0:0:0:0:
191,64,47131,6,0,L|119:54,1,68.1449986482468,2|0,1:0|0:0,0:0:0:0:
311,86,47468,2,0,L|383:76,1,68.1449986482468,10|0,0:0|0:0,0:0:0:0:
209,158,47805,1,2,1:0:0:0:
209,158,47974,1,0,1:0:0:0:
311,86,48142,2,0,L|317:18,1,68.1449986482468,10|0,0:0|0:0,0:0:0:0:
126,146,48479,6,0,P|140:206|229:238,2,136.289997296494,2|8|0,1:0|0:0|1:0,0:0:0:0:
207,55,49322,1,0,1:0:0:0:
207,55,49490,2,0,L|291:65,1,68.1449986482468,8|0,0:0|0:0,0:0:0:0:
147,195,49828,5,0,1:0:0:0:
81,78,49996,1,0,1:0:0:0:
229,183,50165,2,0,L|296:174,1,68.1449986482468,8|0,0:0|0:0,0:0:0:0:
106,270,50502,1,8,0:0:0:0:
206,95,50670,1,0,3:0:0:0:
206,95,50755,1,0,3:0:0:0:
206,95,50839,2,0,L|253:100,1,34.0724993241234,8|8,3:0|3:0,0:0:0:0:
414,156,51007,5,8,3:0:0:0:
414,156,51092,1,8,3:0:0:0:
414,156,51176,2,0,P|414:205|391:243,1,76.9950006461678,6|0,1:0|0:0,0:0:0:0:
258,108,51513,2,0,P|258:59|281:21,1,76.9950006461678,2|0,1:0|0:0,0:0:0:0:
300,209,51850,1,10,0:0:0:0:
300,209,52019,1,2,0:0:0:0:
359,90,52187,2,0,L|435:98,1,76.9950006461678,2|8,1:0|3:0,0:0:0:0:
475,107,52440,1,8,3:0:0:0:
475,107,52524,6,0,B|443:141|443:141|467:267,1,153.990001292336,10|2,3:0|1:0,0:0:0:0:
294,357,53198,2,0,L|281:277,2,76.9950006461678,10|2|2,0:0|0:0|1:0,0:0:0:0:
402,231,53704,1,8,0:0:0:0:
199,282,53873,6,0,L|116:268,1,76.9950006461678,10|8,0:0|0:0,0:0:0:0:
266,156,54210,2,0,L|349:142,1,76.9950006461678,2|0,1:0|0:0,0:0:0:0:
150,170,54547,1,10,0:0:0:0:
297,298,54715,1,2,0:0:0:0:
150,170,54884,2,0,L|67:156,1,76.9950006461678,2|8,1:0|0:0,0:0:0:0:
257,94,55221,5,2,1:0:0:0:
229,257,55389,1,2,0:0:0:0:
228,21,55558,1,2,1:0:0:0:
276,199,55726,1,2,0:0:0:0:
368,29,55895,2,0,L|385:121,1,76.9950006461678,8|2,0:0|0:0,0:0:0:0:
405,147,56148,1,8,0:0:0:0:
405,147,56232,2,0,L|388:239,1,76.9950006461678,2|8,1:0|0:0,0:0:0:0:
244,331,56569,6,0,P|181:325|138:238,2,153.990001292336,6|2|10,1:0|1:0|0:0,0:0:0:0:
342,255,57412,1,2,0:0:0:0:
212,166,57580,2,0,L|224:255,1,76.9950006461678,2|0,1:0|0:0,0:0:0:0:
261,90,57917,6,0,P|217:73|174:83,1,76.9950006461678,2|0,1:0|0:0,0:0:0:0:
24,193,58255,2,0,P|68:210|111:200,1,76.9950006461678,2|0,1:0|0:0,0:0:0:0:
212,166,58592,1,10,0:0:0:0:
78,99,58760,1,2,0:0:0:0:
184,261,58929,1,2,1:0:0:0:
261,90,59097,1,2,0:0:0:0:
96,206,59266,6,0,L|121:362,1,153.990001292336,6|0,1:0|1:0,0:0:0:0:
419,310,59940,6,0,L|444:158,1,153.990001292336,8|0,0:0|1:0,0:0:0:0:
275,303,60614,6,0,P|240:286|162:306,1,102.660000861557,2|2,1:0|0:0,0:0:0:0:
155,325,60951,2,0,P|104:332|54:295,1,102.660000861557,0|0,1:0|0:0,0:0:0:0:
121,231,61288,1,10,0:0:0:0:
228,371,61457,1,0,1:0:0:0:
342,238,61625,1,14,0:0:0:0:
192,20,61962,6,0,L|177:128,1,102.21749797237,6|0,0:0|0:0,0:0:0:0:
159,149,62299,2,0,L|170:262,1,102.21749797237,4|0,0:0|0:0,0:0:0:0:
199,285,62637,6,0,L|246:292,1,34.0724993241234,8|8,3:0|3:0,0:0:0:0:
86,207,62805,2,0,L|52:201,1,34.0724993241234,8|8,3:0|3:0,0:0:0:0:
232,122,62974,1,8,0:0:0:0:
232,122,63311,5,14,0:0:0:0:
264,295,63479,1,2,0:0:0:0:
289,59,63648,1,10,0:0:0:0:
219,234,63816,1,0,1:0:0:0:
152,49,63985,1,8,0:0:0:0:
362,118,64153,1,0,1:0:0:0:
99,154,64322,2,0,L|211:140,1,94.694997110138,10|0,0:0|1:0,0:0:0:0:
307,317,64659,5,10,0:0:0:0:
155,226,64828,1,2,1:0:0:0:
311,103,64996,2,0,L|298:221,1,94.694997110138,10|0,0:0|1:0,0:0:0:0:
133,316,65333,1,10,0:0:0:0:
215,131,65502,1,2,1:0:0:0:
295,289,65670,1,10,0:0:0:0:
128,212,65839,1,2,1:0:0:0:
319,164,66007,6,0,B|366:151|366:151|425:171,1,94.694997110138,14|0,0:0|1:0,0:0:0:0:
253,318,66344,1,8,0:0:0:0:
152,160,66513,1,2,1:0:0:0:
363,252,66681,2,0,P|368:302|338:354,1,94.694997110138,10|0,0:0|1:0,0:0:0:0:
139,249,67019,2,0,P|134:199|164:147,1,94.694997110138,8|0,0:0|1:0,0:0:0:0:
341,64,67356,5,8,0:0:0:0:
233,227,67524,1,0,1:0:0:0:
174,46,67693,1,8,0:0:0:0:
356,187,67861,1,0,1:0:0:0:
133,118,68030,5,10,0:0:0:0:
341,64,68198,1,2,1:0:0:0:
276,260,68367,1,10,0:0:0:0:
237,93,68535,1,2,1:0:0:0:
375,285,68704,6,0,L|474:303,1,94.694997110138,14|2,0:0|1:0,0:0:0:0:
196,194,69041,2,0,L|97:212,1,94.694997110138,10|0,0:0|1:0,0:0:0:0:
327,127,69378,1,8,0:0:0:0:
270,310,69547,1,0,1:0:0:0:
186,106,69715,2,0,B|174:153|174:153|208:218,1,94.694997110138,10|0,0:0|1:0,0:0:0:0:
350,71,70052,5,10,0:0:0:0:
188,14,70221,1,2,1:0:0:0:
326,187,70389,2,0,L|426:167,1,94.694997110138,10|0,0:0|1:0,0:0:0:0:
161,117,70726,1,10,0:0:0:0:
343,78,70895,1,2,1:0:0:0:
132,198,71064,1,10,0:0:0:0:
367,255,71232,1,2,1:0:0:0:
235,158,71401,5,14,0:0:0:0:
174,311,71569,1,0,1:0:0:0:
192,86,71738,1,8,0:0:0:0:
297,286,71906,1,0,1:0:0:0:
277,39,72075,1,8,0:0:0:0:
186,238,72243,1,0,1:0:0:0:
107,78,72412,2,0,L|5:60,1,94.694997110138,8|0,0:0|1:0,0:0:0:0:
287,186,72749,6,0,L|389:168,1,94.694997110138,12|0,0:0|1:0,0:0:0:0:
129,356,73086,2,0,B|104:307|104:307|123:250,1,94.694997110138,8|0,0:0|1:0,0:0:0:0:
180,84,73423,1,10,3:0:0:0:
298,298,73592,1,10,0:0:0:0:
298,298,73676,1,8,0:0:0:0:
298,298,73760,2,0,L|243:291,1,47.347498555069,10|8,0:0|0:0,0:0:0:0:
49,158,73929,2,0,L|104:165,1,47.347498555069,8|8,0:0|0:0,0:0:0:0:
297,188,74097,5,14,0:0:0:0:
154,265,74266,1,2,0:0:0:0:
379,210,74434,1,10,0:0:0:0:
173,157,74603,1,0,1:0:0:0:
408,284,74771,1,8,0:0:0:0:
197,333,74940,1,0,1:0:0:0:
297,188,75108,2,0,L|315:300,1,94.694997110138,10|0,0:0|1:0,0:0:0:0:
198,87,75446,5,10,0:0:0:0:
378,128,75614,1,2,1:0:0:0:
184,231,75783,2,0,B|141:246|141:246|95:227,1,94.694997110138,10|0,0:0|1:0,0:0:0:0:
286,101,76120,1,10,0:0:0:0:
217,305,76288,1,2,1:0:0:0:
123,123,76457,1,10,0:0:0:0:
313,194,76625,1,2,1:0:0:0:
149,365,76794,6,0,P|127:316|136:260,1,94.694997110138,14|0,0:0|1:0,0:0:0:0:
207,151,77131,1,8,0:0:0:0:
321,289,77299,1,2,1:0:0:0:
26,186,77468,2,0,B|75:171|75:171|136:189,1,94.694997110138,10|0,0:0|1:0,0:0:0:0:
239,362,77805,2,0,B|190:377|190:377|129:359,1,94.694997110138,8|0,0:0|1:0,0:0:0:0:
219,135,78142,5,8,0:0:0:0:
187,291,78311,1,0,1:0:0:0:
48,82,78479,1,8,0:0:0:0:
77,256,78648,1,0,1:0:0:0:
233,54,78816,5,10,0:0:0:0:
63,160,78985,1,2,1:0:0:0:
274,212,79153,1,10,0:0:0:0:
135,52,79322,1,2,1:0:0:0:
215,272,79490,6,0,P|261:296|312:288,1,94.694997110138,14|2,0:0|1:0,0:0:0:0:
489,179,79828,2,0,P|443:155|392:163,1,94.694997110138,10|0,0:0|1:0,0:0:0:0:
274,212,80165,1,8,0:0:0:0:
433,283,80333,1,0,1:0:0:0:
315,42,80502,2,0,L|303:140,1,94.694997110138,10|0,0:0|1:0,0:0:0:0:
250,328,80839,5,10,0:0:0:0:
179,164,81007,1,2,1:0:0:0:
361,280,81176,2,0,B|405:303|405:303|473:287,1,94.694997110138,10|0,0:0|1:0,0:0:0:0:
340,118,81513,1,10,0:0:0:0:
197,208,81681,1,2,1:0:0:0:
416,216,81850,1,10,0:0:0:0:
278,45,82019,1,2,1:0:0:0:
298,306,82187,6,0,L|309:205,1,94.694997110138,14|0,0:0|1:0,0:0:0:0:
143,31,82524,2,0,L|153:125,1,94.694997110138,8|0,0:0|1:0,0:0:0:0:
319,78,82861,1,8,0:0:0:0:
192,252,83030,1,0,1:0:0:0:
62,127,83198,2,0,B|111:113|111:113|165:128,1,94.694997110138,8|0,0:0|1:0,0:0:0:0:
239,327,83535,6,0,B|192:341|192:341|131:320,1,94.694997110138,8|0,0:0|1:0,0:0:0:0:
75,158,83873,1,8,0:0:0:0:
292,255,84041,1,8,0:0:0:0:
42,343,84210,1,10,0:0:0:0:
141,108,84378,1,10,0:0:0:0:
252,359,84547,1,10,0:0:0:0:
10,220,84715,1,10,0:0:0:0:
259,176,84884,6,0,P|307:167|353:185,1,85.8450020303307,14|0,0:0|0:0,0:0:0:0:
90,275,85221,2,0,P|42:284|-4:266,1,85.8450020303307,10|0,0:0|1:0,0:0:0:0:
180,132,85558,1,10,0:0:0:0:
179,306,85726,1,2,1:0:0:0:
53,190,85895,1,8,0:0:0:0:
297,255,86064,6,0,L|283:361,1,85.8450020303307,2|8,1:0|0:0,0:0:0:0:
213,121,86401,1,2,1:0:0:0:
384,232,86569,1,10,0:0:0:0:
188,256,86738,1,2,1:0:0:0:
188,256,86822,1,0,1:0:0:0:
188,256,86906,1,10,0:0:0:0:
358,135,87075,1,2,1:0:0:0:
296,332,87243,1,10,0:0:0:0:
238,191,87412,1,2,1:0:0:0:
392,320,87580,6,0,L|490:336,1,85.8450020303307,14|0,0:0|1:0,0:0:0:0:
231,230,87917,2,0,L|133:246,1,85.8450020303307,10|0,0:0|1:0,0:0:0:0:
377,157,88255,1,10,0:0:0:0:
304,360,88423,2,0,B|288:317|288:317|308:258,1,85.8450020303307,2|8,1:0|0:0,0:0:0:0:
455,112,88760,6,0,B|471:155|471:155|451:214,1,85.8450020303307,2|8,1:0|0:0,0:0:0:0:
279,129,89097,1,2,1:0:0:0:
388,274,89266,2,0,L|489:294,1,85.8450020303307,10|2,0:0|1:0,0:0:0:0:
232,203,89603,2,0,L|131:223,1,85.8450020303307,10|2,0:0|1:0,0:0:0:0:
311,48,89940,2,0,P|352:72|366:127,1,85.8450020303307,10|2,0:0|1:0,0:0:0:0:
243,288,90277,6,0,L|230:194,1,85.8450020303307,14|0,0:0|1:0,0:0:0:0:
455,112,90614,2,0,L|443:197,1,85.8450020303307,10|0,0:0|1:0,0:0:0:0:
285,120,90951,1,10,0:0:0:0:
344,296,91120,1,2,1:0:0:0:
428,158,91288,1,8,0:0:0:0:
208,257,91457,6,0,P|164:256|122:224,1,85.8450020303307,2|8,1:0|0:0,0:0:0:0:
58,78,91794,1,2,1:0:0:0:
191,164,91962,1,10,0:0:0:0:
17,228,92131,1,2,1:0:0:0:
17,228,92215,1,0,1:0:0:0:
17,228,92299,1,10,0:0:0:0:
126,77,92468,1,2,1:0:0:0:
140,298,92637,1,10,0:0:0:0:
61,148,92805,1,2,1:0:0:0:
215,240,92974,6,0,L|326:258,1,85.8450020303307,14|0,0:0|1:0,0:0:0:0:
97,328,93311,2,0,L|-14:346,1,85.8450020303307,10|0,0:0|1:0,0:0:0:0:
110,170,93648,1,10,0:0:0:0:
219,354,93816,2,0,P|233:307|219:257,1,85.8450020303307,2|8,1:0|0:0,0:0:0:0:
38,125,94153,6,0,P|24:172|38:222,1,85.8450020303307,2|8,1:0|0:0,0:0:0:0:
222,161,94490,1,2,1:0:0:0:
139,304,94659,2,0,L|48:319,1,85.8450020303307,8|2,0:0|0:0,0:0:0:0:
110,170,94996,1,2,1:0:0:0:
268,316,95165,1,8,0:0:0:0:
296,324,95249,1,8,0:0:0:0:
325,331,95333,1,8,0:0:0:0:
354,337,95417,1,8,0:0:0:0:
383,343,95502,1,8,0:0:0:0:
412,349,95586,1,8,0:0:0:0:
439,361,95670,6,0,L|428:268,1,85.8450020303307,14|0,0:0|0:0,0:0:0:0:
267,107,96007,2,0,L|256:192,1,85.8450020303307,10|0,0:0|1:0,0:0:0:0:
324,328,96344,1,10,0:0:0:0:
396,166,96513,1,2,1:0:0:0:
205,197,96681,1,8,0:0:0:0:
416,312,96850,6,0,B|457:328|457:328|505:316,1,85.8450020303307,2|8,1:0|0:0,0:0:0:0:
280,178,97187,1,2,1:0:0:0:
331,332,97356,1,10,0:0:0:0:
391,140,97524,1,2,1:0:0:0:
203,198,97693,1,10,0:0:0:0:
419,272,97861,1,2,1:0:0:0:
372,57,98030,1,10,0:0:0:0:
315,236,98198,1,2,1:0:0:0:
196,92,98367,6,0,L|86:76,1,85.8450020303307,14|0,0:0|1:0,0:0:0:0:
45,272,98704,2,0,L|155:256,1,85.8450020303307,10|0,0:0|1:0,0:0:0:0:
309,146,99041,1,10,0:0:0:0:
230,329,99210,2,0,B|215:284|215:284|239:220,1,85.8450020303307,2|8,1:0|0:0,0:0:0:0:
405,100,99547,6,0,B|420:145|420:145|396:209,1,85.8450020303307,2|8,1:0|0:0,0:0:0:0:
214,101,99884,1,2,1:0:0:0:
349,281,100052,2,0,L|450:267,1,85.8450020303307,10|2,0:0|1:0,0:0:0:0:
210,202,100389,2,0,L|109:188,1,85.8450020303307,10|2,0:0|1:0,0:0:0:0:
307,43,100726,2,0,P|317:87|301:132,1,85.8450020303307,10|2,0:0|1:0,0:0:0:0:
124,76,101064,6,0,B|167:63|167:63|218:77,1,85.8450020303307,14|0,0:0|1:0,0:0:0:0:
426,211,101401,2,0,B|383:224|383:224|332:210,1,85.8450020303307,10|0,0:0|1:0,0:0:0:0:
170,143,101738,1,10,0:0:0:0:
357,72,101906,1,2,1:0:0:0:
251,245,102075,1,8,0:0:0:0:
163,57,102243,6,0,L|171:165,1,85.8450020303307,2|8,1:0|0:0,0:0:0:0:
336,283,102580,1,2,1:0:0:0:
148,216,102749,1,10,0:0:0:0:
355,172,102917,1,2,1:0:0:0:
169,297,103086,1,10,0:0:0:0:
285,122,103255,1,2,1:0:0:0:
332,340,103423,1,10,0:0:0:0:
133,191,103592,1,2,1:0:0:0:
380,266,103760,6,0,B|424:281|424:281|472:270,1,85.8450020303307,14|0,0:0|1:0,0:0:0:0:
285,122,104097,2,0,B|244:107|244:107|202:115,1,85.8450020303307,10|0,0:0|1:0,0:0:0:0:
280,299,104434,1,14,0:0:0:0:
407,154,104603,1,2,1:0:0:0:
236,195,104771,1,8,0:0:0:0:
380,266,104940,1,2,1:0:0:0:
286,32,105108,6,0,L|302:145,1,85.8450020303307,12|2,0:0|0:0,0:0:0:0:
173,287,105452,1,10,0:0:0:0:
208,125,105625,1,8,0:0:0:0:
298,338,105797,1,10,0:0:0:0:
90,190,105970,1,8,0:0:0:0:
352,150,106142,1,10,0:0:0:0:
205,362,106314,1,8,0:0:0:0:
115,106,106487,5,6,1:0:0:0:
256,192,106573,12,0,118901,0:0:0:0:
