osu file format v14

[General]
AudioFilename: audio.mp3
AudioLeadIn: 0
PreviewTime: 62637
Countdown: 0
SampleSet: Soft
StackLeniency: 0.7
Mode: 0
LetterboxInBreaks: 0
WidescreenStoryboard: 0

[Editor]
Bookmarks: 104434
DistanceSpacing: 1
BeatDivisor: 6
GridSize: 32
TimelineZoom: 1.799999

[Metadata]
Title:Yume wa Jikuu o Koete
TitleUnicode:夢は時空を越えて
Artist:KISIDA KYODAN & THE AKEBOSI ROCKETS
ArtistUnicode:岸田教団&THE明星ロケッツ
Creator:SMOKELIND
Version:Phantasmagoria
Source:東方夢時空 ~ Pantasmagria of Dim.Dream
Tags:Japanese JP Video Game J-Rock JRock Rock Ichigo TH ZUN Touhou 東方Project 3 Reitaisai 4 C85 Comiket 85 A Dream Transcending Across Space-time Fantasy Incident Yumemi Okazaki 岡崎 夢美 幻想事変 KISHIDA KYOUDAN AND AKEBOSHI Kowari iljaaz Reform Kujinn Xenon- Xehn Xen
BeatmapID:2098034
BeatmapSetID:1002336

[Difficulty]
HPDrainRate:5.2
CircleSize:3.8
OverallDifficulty:9.2
ApproachRate:9.2
SliderMultiplier:1.97
SliderTickRate:1

[Events]
//Background and Video events
0,0,"Nya.jpg",0,0
//Break Periods
//Storyboard Layer 0 (Background)
//Storyboard Layer 1 (Fail)
//Storyboard Layer 2 (Pass)
//Storyboard Layer 3 (Foreground)
//Storyboard Layer 4 (Overlay)
//Storyboard Sound Samples

[TimingPoints]
46,337.078651685393,4,2,7,77,1,0
6682,337.078651685393,4,2,7,77,1,0
6682,-114.942528735632,4,2,7,77,0,0
7693,-129.87012987013,4,2,7,77,0,0
8030,-114.942528735632,4,2,7,77,0,0
18816,-103.092783505155,4,2,7,87,0,0
29603,-129.87012987013,4,2,7,57,0,0
51176,-114.942528735632,4,2,7,67,0,0
61962,-129.87012987013,4,2,7,77,0,0
63311,-93.4579439252336,4,2,7,97,0,0
84884,-103.092783505155,4,2,7,87,0,0
105108,344.827586206897,4,2,7,87,1,0
105108,-103.092783505155,4,2,7,87,0,0
106487,-1000,4,2,7,77,0,0
106659,-1000,4,2,7,7,0,0

[Colours]
Combo1 : 188,121,255
Combo2 : 255,121,188
Combo3 : 255,121,121
Combo4 : 121,121,255

[HitObjects]
362,266,6682,6,0,L|367:225,1,28.565000239727,8|8,0:0|0:0,0:0:0:0:
278,53,6850,1,0,1:0:0:0:
260,292,7019,6,0,L|255:251,1,28.565000239727,8|8,0:0|0:0,0:0:0:0:
270,82,7187,1,0,1:0:0:0:
145,316,7356,6,0,L|150:275,1,28.565000239727,8|8,0:0|0:0,0:0:0:0:
261,113,7524,1,0,1:0:0:0:
381,353,7693,2,0,B|300:361|328:320|243:333,1,113.767497743259,8|0,3:0|0:0,0:0:0:0:
231,352,8030,6,0,P|238:299|254:240,1,85.6950007191811,4|0,1:0|0:0,0:0:0:0:
375,80,8367,2,0,P|337:101|280:110,1,85.6950007191811,8|0,0:0|3:0,0:0:0:0:
270,82,8620,1,0,3:0:0:0:
270,82,8704,2,0,P|232:61|175:52,1,85.6950007191811,0|0,1:0|1:0,0:0:0:0:
13,207,9041,2,0,P|29:251|40:309,1,85.6950007191811,10|0,0:0|0:0,0:0:0:0:
262,255,9378,6,0,P|177:208|105:249,1,171.390001438362,2|8,1:0|0:0,0:0:0:0:
347,376,9884,2,0,P|359:324|372:270,1,85.6950007191811,0|0,1:0|0:0,0:0:0:0:
452,83,10221,1,2,1:0:0:0:
462,318,10389,2,0,P|450:266|437:212,1,85.6950007191811,10|0,0:0|0:0,0:0:0:0:
457,2,10726,6,0,P|421:26|362:35,1,85.6950007191811,2|0,1:0|0:0,0:0:0:0:
149,49,11064,2,0,P|190:58|225:82,1,85.6950007191811,8|0,0:0|3:0,0:0:0:0:
236,122,11316,1,0,3:0:0:0:
236,122,11401,2,0,P|221:163|212:217,1,85.6950007191811,0|0,1:0|1:0,0:0:0:0:
70,371,11738,2,0,P|61:329|47:288,1,85.6950007191811,10|0,0:0|0:0,0:0:0:0:
135,81,12075,5,2,1:0:0:0:
147,280,12243,1,0,1:0:0:0:
260,84,12412,2,0,P|302:62|352:60,1,85.6950007191811,10|0,0:0|3:0,0:0:0:0:
363,94,12665,1,0,3:0:0:0:
363,94,12749,2,0,P|405:116|455:118,1,85.6950007191811,0|0,1:0|1:0,0:0:0:0:
345,316,13086,2,0,P|303:338|253:340,1,85.6950007191811,10|0,0:0|0:0,0:0:0:0:
117,163,13423,6,0,P|133:200|147:257,1,85.6950007191811,6|0,1:0|0:0,0:0:0:0:
269,16,13760,2,0,P|253:53|239:110,1,85.6950007191811,10|0,0:0|3:0,0:0:0:0:
259,124,14013,1,0,3:0:0:0:
259,124,14097,2,0,P|275:161|289:218,1,85.6950007191811,2|2,1:0|1:0,0:0:0:0:
115,344,14434,2,0,P|125:302|142:263,1,85.6950007191811,10|0,0:0|0:0,0:0:0:0:
366,266,14771,6,0,P|331:296|279:302,1,85.6950007191811,2|0,1:0|0:0,0:0:0:0:
121,179,15108,2,0,P|163:178|200:197,1,85.6950007191811,10|2,0:0|1:0,0:0:0:0:
324,365,15446,1,2,0:0:0:0:
216,278,15614,1,2,1:0:0:0:
408,168,15783,2,0,P|436:112|445:49,1,85.6950007191811,10|0,0:0|0:0,0:0:0:0:
211,27,16120,6,0,P|253:80|285:195,1,171.390001438362,2|8,1:0|0:0,0:0:0:0:
127,343,16625,1,0,3:0:0:0:
127,343,16710,1,0,3:0:0:0:
127,343,16794,2,0,P|170:315|214:308,1,85.6950007191811,2|0,1:0|1:0,0:0:0:0:
437,313,17131,2,0,P|395:302|360:278,1,85.6950007191811,10|0,0:0|0:0,0:0:0:0:
261,73,17468,5,2,1:0:0:0:
261,73,17552,1,8,3:0:0:0:
261,73,17637,2,0,P|269:102|276:136,1,42.8475003595905,0|8,3:0|0:0,0:0:0:0:
281,280,17805,2,0,P|285:259|292:238,3,42.8475003595905,8|0|8|8,0:0|3:0|0:0|0:0,0:0:0:0:
363,169,18142,1,4,1:0:0:0:
363,169,18816,6,0,P|317:147|249:144,1,95.5450022597466,14|0,0:0|0:0,0:0:0:0:
63,322,19153,2,0,P|106:314|151:285,1,95.5450022597466,10|0,0:0|1:0,0:0:0:0:
284,39,19490,1,10,0:0:0:0:
312,317,19659,2,0,P|355:328|420:300,1,95.5450022597466,2|8,1:0|0:0,0:0:0:0:
470,78,19996,6,0,P|460:121|448:187,1,95.5450022597466,2|8,1:0|0:0,0:0:0:0:
245,354,20333,1,2,1:0:0:0:
148,88,20502,1,10,0:0:0:0:
370,242,20670,1,2,1:0:0:0:
92,300,20839,1,10,0:0:0:0:
345,264,21007,1,2,1:0:0:0:
158,51,21176,1,10,0:0:0:0:
220,348,21344,1,2,1:0:0:0:
309,56,21513,6,0,P|294:90|280:151,1,95.5450022597466,14|0,0:0|1:0,0:0:0:0:
74,341,21850,2,0,P|63:297|43:252,1,95.5450022597466,10|0,0:0|1:0,0:0:0:0:
182,46,22187,1,10,0:0:0:0:
241,325,22356,2,0,P|250:280|271:234,1,95.5450022597466,2|8,1:0|0:0,0:0:0:0:
417,60,22693,6,0,P|427:104|444:158,1,95.5450022597466,2|8,1:0|0:0,0:0:0:0:
349,345,23030,1,2,1:0:0:0:
301,54,23198,1,10,0:0:0:0:
166,317,23367,1,2,1:0:0:0:
431,180,23535,1,10,0:0:0:0:
150,126,23704,1,2,1:0:0:0:
419,209,23873,1,10,0:0:0:0:
161,289,24041,1,2,1:0:0:0:
328,44,24210,6,0,P|313:93|301:156,1,95.5450022597466,14|0,0:0|1:0,0:0:0:0:
80,351,24547,2,0,P|71:306|54:260,1,95.5450022597466,10|0,0:0|1:0,0:0:0:0:
203,31,24884,1,10,0:0:0:0:
343,264,25052,2,0,P|385:293|453:298,1,95.5450022597466,2|8,1:0|0:0,0:0:0:0:
218,57,25389,6,0,P|205:108|196:170,1,95.5450022597466,2|8,1:0|0:0,0:0:0:0:
431,50,25726,1,2,1:0:0:0:
245,243,25895,1,10,0:0:0:0:
325,53,26064,1,2,1:0:0:0:
355,342,26232,1,10,0:0:0:0:
307,87,26401,1,2,1:0:0:0:
113,290,26569,1,10,0:0:0:0:
338,212,26738,1,2,1:0:0:0:
131,59,26906,6,0,P|86:40|19:37,1,95.5450022597466,14|0,0:0|1:0,0:0:0:0:
214,317,27243,2,0,P|258:310|303:283,1,95.5450022597466,10|0,0:0|1:0,0:0:0:0:
402,46,27580,1,10,0:0:0:0:
159,230,27749,2,0,P|113:224|71:199,1,95.5450022597466,2|8,1:0|0:0,0:0:0:0:
271,46,28086,1,2,0:0:0:0:
419,285,28255,6,0,L|534:262,1,95.5450022597466,10|0,0:0|0:0,0:0:0:0:
225,142,28592,1,10,0:0:0:0:
442,36,28760,1,8,0:0:0:0:
312,301,28929,1,10,0:0:0:0:
173,41,29097,1,10,0:0:0:0:
311,384,29266,1,10,0:0:0:0:
311,384,29603,6,0,P|337:295|363:239,2,151.689996991013,6|8|2,1:0|0:0|1:0,0:0:0:0:
167,377,30446,1,0,0:0:0:0:
111,217,30614,2,0,P|118:179|129:143,1,75.8449984955063,10|0,0:0|0:0,0:0:0:0:
244,43,30951,2,0,P|287:56|341:57,1,75.8449984955063,2|0,1:0|0:0,0:0:0:0:
451,194,31288,2,0,P|413:197|377:209,1,75.8449984955063,10|0,0:0|0:0,0:0:0:0:
241,62,31625,2,0,P|284:75|338:76,1,75.8449984955063,2|0,1:0|1:0,0:0:0:0:
448,213,31962,2,0,P|410:216|374:228,1,75.8449984955063,10|0,0:0|0:0,0:0:0:0:
243,359,32299,6,0,P|230:316|229:262,1,75.8449984955063,2|0,1:0|0:0,0:0:0:0:
105,168,32637,2,0,P|101:205|89:241,1,75.8449984955063,10|0,0:0|0:0,0:0:0:0:
224,379,32974,2,0,P|205:317|203:241,2,75.8449984955063,2|0|8,1:0|1:0|0:0,0:0:0:0:
345,384,33479,1,2,0:0:0:0:
422,201,33648,2,0,B|342:220|389:270|292:278,2,151.689996991013,2|8|2,1:0|0:0|1:0,0:0:0:0:
442,292,34490,1,0,1:0:0:0:
298,192,34659,2,0,P|309:155|325:121,1,75.8449984955063,8|0,0:0|0:0,0:0:0:0:
449,4,34996,6,0,P|412:17|356:18,1,75.8449984955063,6|0,1:0|0:0,0:0:0:0:
209,88,35333,2,0,P|246:91|282:104,1,75.8449984955063,10|0,0:0|0:0,0:0:0:0:
454,24,35670,2,0,P|417:37|291:26,1,151.689996991013,2|8,1:0|0:0,0:0:0:0:
418,136,36176,1,0,0:0:0:0:
307,260,36344,2,0,P|267:277|194:281,1,75.8449984955063,2|0,1:0|0:0,0:0:0:0:
90,134,36681,2,0,P|127:141|161:156,1,75.8449984955063,10|0,0:0|0:0,0:0:0:0:
112,304,37019,2,0,P|109:260|101:214,1,75.8449984955063,2|0,1:0|1:0,0:0:0:0:
261,115,37356,2,0,P|255:152|253:190,1,75.8449984955063,10|0,0:0|0:0,0:0:0:0:
362,354,37693,6,0,P|449:335|477:268,1,151.689996991013,2|8,1:0|0:0,0:0:0:0:
423,111,38198,1,0,0:0:0:0:
361,258,38367,1,0,1:0:0:0:
361,258,38535,1,0,1:0:0:0:
414,81,38704,2,0,P|377:63|313:60,1,75.8449984955063,8|0,0:0|0:0,0:0:0:0:
198,208,39041,2,0,P|232:109|241:44,1,151.689996991013,0|8,1:0|0:0,0:0:0:0:
373,220,39547,1,0,3:0:0:0:
373,220,39631,1,0,3:0:0:0:
373,220,39715,1,0,1:0:0:0:
293,0,39884,1,8,0:0:0:0:
96,193,40052,1,8,0:0:0:0:
96,193,40389,6,0,B|118:272|74:252|89:349,1,151.689996991013,6|8,1:0|0:0,0:0:0:0:
19,229,40895,1,0,0:0:0:0:
166,312,41064,2,0,P|204:328|246:329,1,75.8449984955063,2|0,1:0|1:0,0:0:0:0:
345,188,41401,2,0,P|307:190|272:206,1,75.8449984955063,10|0,0:0|0:0,0:0:0:0:
420,353,41738,2,0,P|427:304|435:266,1,75.8449984955063,2|0,1:0|0:0,0:0:0:0:
488,114,42075,2,0,P|495:151|500:188,1,75.8449984955063,10|0,0:0|0:0,0:0:0:0:
400,351,42412,2,0,P|407:302|415:264,1,75.8449984955063,2|0,1:0|1:0,0:0:0:0:
468,112,42749,2,0,P|475:149|480:186,1,75.8449984955063,10|0,0:0|0:0,0:0:0:0:
318,63,43086,6,0,P|285:75|244:79,1,75.8449984955063,2|0,1:0|0:0,0:0:0:0:
73,131,43423,2,0,P|110:134|146:147,1,75.8449984955063,10|0,0:0|0:0,0:0:0:0:
276,257,43760,2,0,P|313:253|349:240,2,75.8449984955063,2|0|8,1:0|1:0|0:0,0:0:0:0:
174,134,44266,1,0,0:0:0:0:
85,303,44434,2,0,P|25:258|8:165,2,151.689996991013,2|8|2,1:0|0:0|1:0,0:0:0:0:
198,167,45277,1,0,1:0:0:0:
281,337,45446,2,0,P|288:296|298:252,1,75.8449984955063,8|0,0:0|0:0,0:0:0:0:
411,99,45783,6,0,P|379:118|327:125,1,75.8449984955063,2|0,1:0|0:0,0:0:0:0:
183,29,46120,2,0,P|220:36|252:55,1,75.8449984955063,10|0,0:0|0:0,0:0:0:0:
178,211,46457,2,0,P|145:230|108:237,2,75.8449984955063,2|0|8,1:0|1:0|0:0,0:0:0:0:
261,95,46962,1,0,0:0:0:0:
359,254,47131,2,0,P|391:273|428:280,1,75.8449984955063,2|0,1:0|0:0,0:0:0:0:
249,358,47468,2,0,P|212:368|175:366,1,75.8449984955063,10|0,0:0|0:0,0:0:0:0:
360,230,47805,2,0,P|392:249|429:256,1,75.8449984955063,2|0,1:0|1:0,0:0:0:0:
250,334,48142,2,0,P|213:344|176:342,1,75.8449984955063,10|0,0:0|0:0,0:0:0:0:
86,176,48479,6,0,B|167:197|118:258|237:266,1,151.689996991013,2|8,1:0|0:0,0:0:0:0:
356,201,48985,1,0,0:0:0:0:
213,175,49153,2,0,P|194:131|188:74,1,75.8449984955063,0|0,1:0|1:0,0:0:0:0:
345,23,49490,2,0,P|336:59|320:94,1,75.8449984955063,8|0,0:0|0:0,0:0:0:0:
180,204,49828,1,0,1:0:0:0:
384,208,49996,1,0,1:0:0:0:
204,61,50165,2,0,P|160:58|104:71,1,75.8449984955063,8|0,0:0|0:0,0:0:0:0:
66,317,50502,2,0,P|103:322|141:318,1,75.8449984955063,8|0,0:0|3:0,0:0:0:0:
166,294,50755,1,0,3:0:0:0:
166,294,50839,2,0,P|174:267|185:249,3,37.9224992477532,8|8|8|8,3:0|3:0|3:0|3:0,0:0:0:0:
251,219,51176,6,0,P|307:251|390:246,1,128.542501078772,6|0,1:0|0:0,0:0:0:0:
431,200,51513,2,0,P|449:127|475:84,1,85.6950007191811,2|0,1:0|0:0,0:0:0:0:
290,0,51850,1,10,0:0:0:0:
290,0,52019,1,2,0:0:0:0:
214,238,52187,2,0,P|147:252|121:248,1,85.6950007191811,2|8,1:0|3:0,0:0:0:0:
64,205,52440,5,8,3:0:0:0:
64,205,52524,2,0,P|91:253|104:300,1,85.6950007191811,10|0,3:0|0:0,0:0:0:0:
263,80,52861,2,0,P|236:128|223:175,1,85.6950007191811,2|0,1:0|0:0,0:0:0:0:
33,196,53198,1,10,0:0:0:0:
33,196,53367,1,2,0:0:0:0:
229,69,53535,2,0,P|202:117|189:164,1,85.6950007191811,2|8,1:0|0:0,0:0:0:0:
323,344,53873,5,10,0:0:0:0:
304,92,54041,1,8,0:0:0:0:
207,316,54210,2,0,P|165:336|117:336,1,85.6950007191811,2|0,1:0|0:0,0:0:0:0:
311,172,54547,1,10,0:0:0:0:
311,172,54715,1,2,0:0:0:0:
431,358,54884,2,0,P|437:306|447:264,1,85.6950007191811,2|8,1:0|0:0,0:0:0:0:
420,64,55221,5,2,1:0:0:0:
420,64,55389,1,2,0:0:0:0:
328,217,55558,1,2,1:0:0:0:
328,217,55726,1,2,0:0:0:0:
190,41,55895,2,0,P|235:58|275:62,1,85.6950007191811,8|2,0:0|0:0,0:0:0:0:
339,31,56148,1,8,0:0:0:0:
339,31,56232,2,0,P|321:66|306:122,1,85.6950007191811,2|8,1:0|0:0,0:0:0:0:
335,331,56569,6,0,P|304:278|206:262,1,128.542501078772,6|0,1:0|0:0,0:0:0:0:
183,306,56906,2,0,P|151:324|96:331,1,85.6950007191811,2|0,1:0|0:0,0:0:0:0:
36,142,57243,1,10,0:0:0:0:
36,142,57412,1,2,0:0:0:0:
230,228,57580,2,0,P|265:237|320:231,1,85.6950007191811,2|0,1:0|0:0,0:0:0:0:
157,41,57917,6,0,P|149:84|138:136,1,85.6950007191811,2|0,1:0|0:0,0:0:0:0:
344,15,58255,2,0,P|352:58|363:110,1,85.6950007191811,2|0,1:0|0:0,0:0:0:0:
459,275,58592,1,10,0:0:0:0:
459,275,58760,1,2,0:0:0:0:
297,153,58929,1,2,1:0:0:0:
297,153,59097,1,2,0:0:0:0:
441,306,59266,6,0,B|338:325|378:252|252:286,1,171.390001438362,6|0,1:0|1:0,0:0:0:0:
310,358,59771,1,0,0:0:0:0:
418,195,59940,2,0,P|436:150|442:91,1,85.6950007191811,8|0,0:0|0:0,0:0:0:0:
197,51,60277,2,0,P|204:93|220:132,1,85.6950007191811,0|0,1:0|0:0,0:0:0:0:
393,270,60614,6,0,L|264:244,1,114.260000958908,2|2,1:0|0:0,0:0:0:0:
209,284,60951,1,0,1:0:0:0:
209,284,61064,2,0,L|103:300,1,57.130000479454,2|0,0:0|0:0,0:0:0:0:
67,306,61288,1,10,0:0:0:0:
144,83,61457,1,0,1:0:0:0:
230,366,61625,1,14,0:0:0:0:
129,111,61794,1,2,0:0:0:0:
150,296,61962,6,0,P|189:267|276:274,1,113.767497743259,6|0,0:0|0:0,0:0:0:0:
265,278,62299,1,4,0:0:0:0:
427,79,62637,2,0,L|435:22,3,37.9224992477532,8|8|8|8,3:0|3:0|3:0|3:0,0:0:0:0:
377,143,62974,1,8,0:0:0:0:
377,143,63311,5,14,0:0:0:0:
116,98,63479,1,2,0:0:0:0:
395,246,63648,5,10,0:0:0:0:
235,46,63816,1,0,1:0:0:0:
123,325,63985,5,8,0:0:0:0:
228,73,64153,1,0,1:0:0:0:
410,339,64322,2,0,P|462:361|512:337,1,105.3949967836,10|0,0:0|1:0,0:0:0:0:
354,58,64659,5,10,0:0:0:0:
256,323,64828,1,2,1:0:0:0:
106,54,64996,2,0,P|53:41|5:76,1,105.3949967836,10|0,0:0|1:0,0:0:0:0:
159,320,65333,1,10,0:0:0:0:
220,52,65502,1,2,1:0:0:0:
396,329,65670,1,10,0:0:0:0:
331,53,65839,1,2,1:0:0:0:
154,345,66007,6,0,P|104:369|28:371,1,105.3949967836,14|0,0:0|1:0,0:0:0:0:
209,82,66344,1,8,0:0:0:0:
277,346,66513,1,2,1:0:0:0:
116,83,66681,2,0,P|104:136|94:208,1,105.3949967836,10|0,0:0|1:0,0:0:0:0:
368,338,67019,1,8,0:0:0:0:
294,72,67187,1,0,1:0:0:0:
164,349,67356,5,8,0:0:0:0:
205,100,67524,1,0,1:0:0:0:
389,353,67693,2,0,L|496:314,1,105.3949967836,8|0,0:0|1:0,0:0:0:0:
367,29,68030,1,10,0:0:0:0:
277,314,68198,1,2,1:0:0:0:
174,13,68367,1,10,0:0:0:0:
378,244,68535,1,2,1:0:0:0:
77,136,68704,5,14,0:0:0:0:
377,212,68873,1,2,1:0:0:0:
120,362,69041,2,0,P|66:362|13:323,1,105.3949967836,10|0,0:0|1:0,0:0:0:0:
150,43,69378,1,8,0:0:0:0:
198,338,69547,1,0,1:0:0:0:
325,25,69715,2,0,P|315:74|307:139,1,105.3949967836,10|0,0:0|1:0,0:0:0:0:
436,308,70052,5,14,0:0:0:0:
171,194,70221,1,2,1:0:0:0:
430,82,70389,2,0,P|440:131|448:196,1,105.3949967836,10|0,0:0|1:0,0:0:0:0:
141,64,70726,1,10,0:0:0:0:
409,0,70895,1,2,1:0:0:0:
171,194,71064,1,10,0:0:0:0:
442,278,71232,1,2,1:0:0:0:
106,345,71401,6,0,P|97:293|82:242,1,105.3949967836,14|0,0:0|1:0,0:0:0:0:
358,47,71738,2,0,P|343:97|335:149,1,105.3949967836,8|0,0:0|1:0,0:0:0:0:
70,127,72075,2,0,P|103:93|171:87,1,105.3949967836,8|0,0:0|1:0,0:0:0:0:
331,297,72412,2,0,P|279:289|242:253,1,105.3949967836,8|0,0:0|1:0,0:0:0:0:
374,33,72749,6,0,L|354:153,1,105.3949967836,10|0,0:0|0:0,0:0:0:0:
115,123,73086,2,0,L|97:19,1,105.3949967836,8|0,0:0|1:0,0:0:0:0:
256,204,73423,2,0,L|245:320,1,105.3949967836,10|2,3:0|1:0,0:0:0:0:
207,378,73676,1,8,0:0:0:0:
207,378,73760,2,0,P|180:380|156:366,1,52.6974983918,10|8,0:0|0:0,0:0:0:0:
207,213,73929,2,0,P|230:200|255:203,1,52.6974983918,10|8,0:0|0:0,0:0:0:0:
103,312,74097,5,14,0:0:0:0:
224,73,74266,1,2,0:0:0:0:
286,384,74434,5,10,0:0:0:0:
207,103,74603,1,0,1:0:0:0:
69,384,74771,5,8,0:0:0:0:
195,129,74940,1,0,1:0:0:0:
408,377,75108,6,0,P|467:355|527:340,1,105.3949967836,10|0,0:0|1:0,0:0:0:0:
218,127,75446,5,10,0:0:0:0:
470,264,75614,1,2,1:0:0:0:
119,301,75783,2,0,P|71:277|20:264,1,105.3949967836,10|0,0:0|1:0,0:0:0:0:
280,77,76120,1,10,0:0:0:0:
333,367,76288,1,2,1:0:0:0:
121,190,76457,1,10,0:0:0:0:
429,116,76625,1,2,1:0:0:0:
232,344,76794,6,0,P|239:278|256:194,1,105.3949967836,14|0,0:0|1:0,0:0:0:0:
149,20,77131,1,8,0:0:0:0:
404,106,77299,1,2,1:0:0:0:
102,314,77468,2,0,P|44:313|3:260,1,105.3949967836,10|0,0:0|1:0,0:0:0:0:
245,46,77805,1,8,0:0:0:0:
309,332,77974,1,0,1:0:0:0:
352,52,78142,5,8,0:0:0:0:
203,328,78311,1,0,1:0:0:0:
141,34,78479,2,0,P|95:9|25:14,1,105.3949967836,8|0,0:0|1:0,0:0:0:0:
92,307,78816,1,10,0:0:0:0:
219,90,78985,1,2,1:0:0:0:
302,356,79153,1,10,0:0:0:0:
119,135,79322,1,2,1:0:0:0:
471,76,79490,5,14,0:0:0:0:
187,299,79659,1,2,1:0:0:0:
359,75,79828,2,0,P|347:128|338:186,1,105.3949967836,10|0,0:0|1:0,0:0:0:0:
235,384,80165,1,8,0:0:0:0:
130,112,80333,1,0,1:0:0:0:
378,351,80502,2,0,P|437:338|474:302,1,105.3949967836,10|0,0:0|1:0,0:0:0:0:
457,30,80839,5,10,0:0:0:0:
316,285,81007,1,2,1:0:0:0:
146,13,81176,2,0,P|86:25|44:56,1,105.3949967836,10|0,0:0|1:0,0:0:0:0:
306,208,81513,1,10,0:0:0:0:
52,131,81681,1,2,1:0:0:0:
366,77,81850,1,10,0:0:0:0:
76,244,82019,1,2,1:0:0:0:
358,326,82187,6,0,P|348:262|330:202,1,105.3949967836,14|0,0:0|1:0,0:0:0:0:
203,59,82524,1,8,0:0:0:0:
483,191,82693,1,0,1:0:0:0:
143,151,82861,1,8,0:0:0:0:
408,39,83030,1,0,1:0:0:0:
174,273,83198,1,8,0:0:0:0:
215,29,83367,1,0,1:0:0:0:
361,345,83535,2,0,P|417:370|483:335,1,105.3949967836,8|0,0:0|1:0,0:0:0:0:
316,34,83873,5,8,0:0:0:0:
224,296,84041,1,8,0:0:0:0:
99,0,84210,1,10,0:0:0:0:
221,324,84378,1,10,0:0:0:0:
334,0,84547,1,10,0:0:0:0:
218,355,84715,1,10,0:0:0:0:
115,39,84884,6,0,P|158:60|206:67,1,95.5450022597466,14|0,0:0|0:0,0:0:0:0:
470,47,85221,2,0,P|422:55|378:76,1,95.5450022597466,10|0,0:0|1:0,0:0:0:0:
218,340,85558,1,10,0:0:0:0:
190,74,85726,2,0,P|146:52|98:45,1,95.5450022597466,2|8,1:0|0:0,0:0:0:0:
44,295,86064,6,0,P|54:252|65:185,1,95.5450022597466,2|8,1:0|0:0,0:0:0:0:
254,10,86401,1,2,1:0:0:0:
352,285,86569,1,10,0:0:0:0:
125,138,86738,1,2,1:0:0:0:
410,76,86906,1,10,0:0:0:0:
143,116,87075,1,2,1:0:0:0:
340,314,87243,1,10,0:0:0:0:
269,39,87412,1,2,1:0:0:0:
168,318,87580,6,0,P|183:283|197:222,1,95.5450022597466,14|0,0:0|1:0,0:0:0:0:
421,39,87917,2,0,P|431:84|458:134,1,95.5450022597466,10|0,0:0|1:0,0:0:0:0:
313,334,88255,1,10,0:0:0:0:
254,55,88423,2,0,P|244:100|220:149,1,95.5450022597466,2|8,1:0|0:0,0:0:0:0:
77,320,88760,6,0,P|68:276|45:223,1,95.5450022597466,2|8,1:0|0:0,0:0:0:0:
139,44,89097,1,2,1:0:0:0:
193,327,89266,1,10,0:0:0:0:
329,64,89434,1,2,1:0:0:0:
63,200,89603,1,10,0:0:0:0:
336,245,89771,1,2,1:0:0:0:
74,172,89940,1,10,0:0:0:0:
332,90,90108,1,2,1:0:0:0:
167,336,90277,6,0,P|182:288|193:224,1,95.5450022597466,14|0,0:0|1:0,0:0:0:0:
414,30,90614,2,0,P|424:74|442:127,1,95.5450022597466,10|0,0:0|1:0,0:0:0:0:
292,349,90951,1,10,0:0:0:0:
151,116,91120,2,0,P|110:88|41:82,1,95.5450022597466,2|8,1:0|0:0,0:0:0:0:
278,326,91457,6,0,P|290:275|299:213,1,95.5450022597466,2|8,1:0|0:0,0:0:0:0:
63,330,91794,1,2,1:0:0:0:
249,137,91962,1,10,0:0:0:0:
169,328,92131,1,2,1:0:0:0:
139,38,92299,1,10,0:0:0:0:
187,293,92468,1,2,1:0:0:0:
381,90,92637,1,10,0:0:0:0:
156,168,92805,1,2,1:0:0:0:
365,323,92974,6,0,P|410:342|477:345,1,95.5450022597466,14|0,0:0|1:0,0:0:0:0:
281,63,93311,2,0,P|237:70|194:94,1,95.5450022597466,10|0,0:0|1:0,0:0:0:0:
93,334,93648,1,10,0:0:0:0:
336,150,93816,2,0,P|381:157|432:180,1,95.5450022597466,2|8,1:0|0:0,0:0:0:0:
224,334,94153,1,2,1:0:0:0:
109,87,94322,5,8,0:0:0:0:
232,312,94490,2,0,P|277:305|323:283,1,95.5450022597466,2|8,1:0|0:0,0:0:0:0:
380,61,94828,1,2,0:0:0:0:
195,234,94996,2,0,P|150:227|106:204,1,95.5450022597466,2|8,1:0|0:0,0:0:0:0:
56,140,95249,1,8,0:0:0:0:
56,140,95333,2,0,P|50:103|40:71,1,47.7725011298733,8|8,0:0|0:0,0:0:0:0:
207,35,95502,2,0,P|201:58|198:81,1,47.7725011298733,8|8,0:0|0:0,0:0:0:0:
109,209,95670,6,0,P|72:224|9:206,1,95.5450022597466,14|0,0:0|0:0,0:0:0:0:
222,25,96007,2,0,P|265:15|312:38,1,95.5450022597466,10|0,0:0|1:0,0:0:0:0:
152,276,96344,1,10,0:0:0:0:
360,107,96513,2,0,P|344:149|328:217,1,95.5450022597466,2|8,1:0|0:0,0:0:0:0:
73,328,96850,6,0,P|60:283|40:223,1,95.5450022597466,2|8,1:0|0:0,0:0:0:0:
164,47,97187,1,2,1:0:0:0:
234,335,97356,1,10,0:0:0:0:
101,120,97524,1,2,1:0:0:0:
150,335,97693,1,10,0:0:0:0:
251,63,97861,1,2,1:0:0:0:
139,299,98030,1,10,0:0:0:0:
28,83,98198,1,2,1:0:0:0:
283,172,98367,6,0,P|328:166|380:145,1,95.5450022597466,14|0,0:0|1:0,0:0:0:0:
156,363,98704,2,0,P|113:347|59:341,1,95.5450022597466,10|0,0:0|1:0,0:0:0:0:
287,199,99041,1,10,0:0:0:0:
104,42,99210,2,0,P|58:47|12:64,1,95.5450022597466,2|8,1:0|0:0,0:0:0:0:
177,339,99547,6,0,P|188:285|203:242,1,95.5450022597466,2|8,1:0|0:0,0:0:0:0:
272,59,99884,1,2,1:0:0:0:
293,309,100052,1,10,0:0:0:0:
357,79,100221,1,2,1:0:0:0:
107,239,100389,1,10,0:0:0:0:
347,112,100558,1,2,1:0:0:0:
86,84,100726,1,10,0:0:0:0:
272,286,100895,1,2,1:0:0:0:
187,9,101064,6,0,P|173:51|158:133,1,95.5450022597466,14|0,0:0|1:0,0:0:0:0:
45,331,101401,2,0,P|35:287|19:236,1,95.5450022597466,10|0,0:0|1:0,0:0:0:0:
242,111,101738,1,10,0:0:0:0:
128,320,101906,2,0,P|137:275|154:222,1,95.5450022597466,2|8,1:0|0:0,0:0:0:0:
274,25,102243,6,0,P|317:45|381:55,1,95.5450022597466,2|8,1:0|0:0,0:0:0:0:
205,258,102580,1,2,1:0:0:0:
458,131,102749,1,10,0:0:0:0:
229,169,102917,1,2,1:0:0:0:
493,275,103086,1,10,0:0:0:0:
199,283,103255,1,2,1:0:0:0:
383,71,103423,1,10,0:0:0:0:
298,285,103592,1,2,1:0:0:0:
161,61,103760,6,0,P|123:42|53:30,1,95.5450022597466,14|0,0:0|1:0,0:0:0:0:
206,302,104097,2,0,P|249:291|294:261,1,95.5450022597466,10|0,0:0|1:0,0:0:0:0:
387,21,104434,1,14,0:0:0:0:
141,220,104603,2,0,P|96:210|51:184,1,95.5450022597466,2|8,1:0|0:0,0:0:0:0:
278,31,104940,1,2,1:0:0:0:
430,232,105108,6,0,L|441:326,1,95.5450022597466,14|0,0:0|0:0,0:0:0:0:
157,197,105452,1,10,0:0:0:0:
418,155,105625,1,8,0:0:0:0:
70,112,105797,1,10,0:0:0:0:
311,335,105970,1,8,0:0:0:0:
257,0,106142,1,10,0:0:0:0:
171,347,106314,1,8,0:0:0:0:
490,105,106487,1,14,0:0:0:0:
