osu file format v14

[General]
AudioFilename: audio.mp3
AudioLeadIn: 0
PreviewTime: 62637
Countdown: 0
SampleSet: Soft
StackLeniency: 0.7
Mode: 0
LetterboxInBreaks: 0
WidescreenStoryboard: 1

[Editor]
DistanceSpacing: 1.5
BeatDivisor: 4
GridSize: 32
TimelineZoom: 1.4

[Metadata]
Title:Yume wa Jikuu o Koete
TitleUnicode:夢は時空を越えて
Artist:KISIDA KYODAN & THE AKEBOSI ROCKETS
ArtistUnicode:岸田教団&THE明星ロケッツ
Creator:SMOKELIND
Version:Lunatic
Source:東方夢時空 ~ Pantasmagria of Dim.Dream
Tags:Japanese JP Video Game J-Rock JRock Rock Ichigo TH ZUN Touhou 東方Project 3 Reitaisai 4 C85 Comiket 85 A Dream Transcending Across Space-time Fantasy Incident Yumemi Okazaki 岡崎 夢美 幻想事変 KISHIDA KYOUDAN AND AKEBOSHI Kowari iljaaz Reform Kujinn Xenon- Xehn Xen
BeatmapID:2238257
BeatmapSetID:1002336

[Difficulty]
HPDrainRate:4.7
CircleSize:3.7
OverallDifficulty:7.7
ApproachRate:9
SliderMultiplier:1.57
SliderTickRate:1

[Events]
//Background and Video events
0,0,"Nya.jpg",0,0
//Break Periods
//Storyboard Layer 0 (Background)
//Storyboard Layer 1 (Fail)
//Storyboard Layer 2 (Pass)
//Storyboard Layer 3 (Foreground)
//Storyboard Layer 4 (Overlay)
//Storyboard Sound Samples

[TimingPoints]
46,337.078651685393,4,2,7,77,1,0
6682,337.078651685393,4,2,7,77,1,0
6682,-114.942528735632,4,2,7,77,0,0
7693,-129.87012987013,4,2,7,77,0,0
8030,-114.942528735632,4,2,7,77,0,0
18816,-103.092783505155,4,2,7,87,0,0
29603,-129.87012987013,4,2,7,57,0,0
51176,-114.942528735632,4,2,7,67,0,0
61962,-129.87012987013,4,2,7,77,0,0
63311,-93.4579439252336,4,2,7,97,0,0
84884,-103.092783505155,4,2,7,87,0,0
105108,344.827586206897,4,2,7,87,1,0
105108,-103.092783505155,4,2,7,87,0,0
106487,-1000,4,2,7,77,0,0
106659,-1000,4,2,7,7,0,0

[Colours]
Combo1 : 188,121,255
Combo2 : 255,121,188
Combo3 : 255,121,121
Combo4 : 121,121,255

[HitObjects]
66,99,6682,6,0,L|72:198,1,68.2950005731545,8|0,0:0|1:0,0:0:0:0:
170,295,7019,1,8,0:0:0:0:
207,135,7187,1,0,1:0:0:0:
155,286,7356,2,0,L|150:217,1,68.2950005731545,8|0,0:0|1:0,0:0:0:0:
258,78,7693,2,0,L|248:188,1,90.6674982014809,8|0,3:0|0:0,0:0:0:0:
293,237,8030,6,0,P|330:260|379:260,1,68.2950005731545,4|0,1:0|0:0,0:0:0:0:
480,184,8367,2,0,P|446:191|419:210,1,68.2950005731545,8|0,0:0|3:0,0:0:0:0:
431,290,8620,1,0,3:0:0:0:
431,290,8704,2,0,L|423:369,1,68.2950005731545,0|0,1:0|1:0,0:0:0:0:
258,382,9041,2,0,L|251:314,1,68.2950005731545,10|0,0:0|0:0,0:0:0:0:
233,152,9378,6,0,P|185:204|101:196,1,136.590001146309,2|8,1:0|0:0,0:0:0:0:
39,82,9884,2,0,L|49:173,1,68.2950005731545,0|0,1:0|0:0,0:0:0:0:
7,268,10221,1,2,1:0:0:0:
130,138,10389,2,0,L|120:229,1,68.2950005731545,10|0,0:0|0:0,0:0:0:0:
185,353,10726,6,0,P|216:334|257:327,1,68.2950005731545,2|0,1:0|0:0,0:0:0:0:
392,362,11064,2,0,P|358:354|330:336,1,68.2950005731545,8|0,0:0|3:0,0:0:0:0:
298,267,11316,1,0,3:0:0:0:
298,267,11401,2,0,L|304:179,1,68.2950005731545,0|0,1:0|1:0,0:0:0:0:
214,73,11738,2,0,L|218:141,1,68.2950005731545,10|0,0:0|0:0,0:0:0:0:
384,220,12075,5,2,1:0:0:0:
310,78,12243,1,0,1:0:0:0:
223,223,12412,2,0,P|191:247|140:246,1,68.2950005731545,10|0,0:0|3:0,0:0:0:0:
114,184,12665,1,0,3:0:0:0:
114,184,12749,2,0,L|123:101,1,68.2950005731545,0|0,1:0|1:0,0:0:0:0:
19,266,13086,2,0,L|10:183,1,68.2950005731545,10|0,0:0|0:0,0:0:0:0:
103,343,13423,6,0,P|141:362|186:354,1,68.2950005731545,6|0,1:0|0:0,0:0:0:0:
258,255,13760,2,0,P|291:256|321:273,1,68.2950005731545,10|0,0:0|3:0,0:0:0:0:
371,337,14013,1,0,3:0:0:0:
371,337,14097,2,0,L|380:241,1,68.2950005731545,2|2,1:0|1:0,0:0:0:0:
478,129,14434,2,0,L|469:33,1,68.2950005731545,10|0,0:0|0:0,0:0:0:0:
365,167,14771,6,0,P|331:184|280:182,1,68.2950005731545,2|0,1:0|0:0,0:0:0:0:
228,57,15108,2,0,P|248:84|257:116,1,68.2950005731545,10|2,0:0|1:0,0:0:0:0:
128,235,15446,1,2,0:0:0:0:
178,119,15614,1,2,1:0:0:0:
193,296,15783,2,0,P|249:271|317:260,1,102.442500859732,10|0,0:0|0:0,0:0:0:0:
359,289,16120,6,0,P|316:285|214:318,1,136.590001146309,2|8,1:0|0:0,0:0:0:0:
44,341,16625,1,0,3:0:0:0:
44,341,16710,1,0,3:0:0:0:
44,341,16794,2,0,P|62:301|62:249,1,68.2950005731545,2|0,1:0|1:0,0:0:0:0:
0,149,17131,2,0,P|5:182|20:212,1,68.2950005731545,10|0,0:0|0:0,0:0:0:0:
130,71,17468,6,0,L|135:37,3,34.1475002865772,2|8|0|8,1:0|3:0|3:0|0:0,0:0:0:0:
220,95,17805,2,0,L|214:61,3,34.1475002865772,8|0|8|8,0:0|3:0|0:0|0:0,0:0:0:0:
302,117,18142,5,4,1:0:0:0:
302,117,18816,6,0,P|323:151|323:200,1,76.1450018009148,14|0,0:0|0:0,0:0:0:0:
190,332,19153,2,0,B|198:339|193:294|214:262,1,76.1450018009148,10|0,0:0|1:0,0:0:0:0:
334,353,19490,1,10,0:0:0:0:
238,182,19659,2,0,P|200:180|152:205,1,76.1450018009148,2|8,1:0|0:0,0:0:0:0:
364,356,19996,6,0,L|381:196,1,152.29000360183,2|2,1:0|1:0,0:0:0:0:
290,25,20502,1,10,0:0:0:0:
354,187,20670,1,2,1:0:0:0:
385,1,20839,1,10,0:0:0:0:
348,216,21007,1,2,1:0:0:0:
202,41,21176,2,0,L|107:22,1,76.1450018009148,10|2,0:0|1:0,0:0:0:0:
16,190,21513,6,0,L|111:171,1,76.1450018009148,14|0,0:0|1:0,0:0:0:0:
225,309,21850,2,0,L|130:290,1,76.1450018009148,10|0,0:0|1:0,0:0:0:0:
258,169,22187,1,10,0:0:0:0:
308,360,22356,2,0,P|320:317|320:277,1,76.1450018009148,2|8,1:0|0:0,0:0:0:0:
177,144,22693,6,0,P|178:181|189:218,1,76.1450018009148,2|8,1:0|0:0,0:0:0:0:
369,269,23030,1,2,1:0:0:0:
172,239,23198,1,10,0:0:0:0:
347,250,23367,1,2,1:0:0:0:
140,325,23535,2,0,P|104:312|54:308,1,76.1450018009148,10|2,0:0|1:0,0:0:0:0:
8,129,23873,2,0,P|45:124|81:111,1,76.1450018009148,10|2,0:0|1:0,0:0:0:0:
228,9,24210,6,0,L|242:113,1,76.1450018009148,14|0,0:0|1:0,0:0:0:0:
347,250,24547,2,0,L|357:174,1,76.1450018009148,10|0,0:0|1:0,0:0:0:0:
383,0,24884,1,10,0:0:0:0:
274,166,25052,2,0,P|227:172|177:140,1,76.1450018009148,2|8,1:0|0:0,0:0:0:0:
407,75,25389,6,0,P|455:107|461:208,1,152.29000360183,2|2,1:0|1:0,0:0:0:0:
279,297,25895,1,10,0:0:0:0:
386,166,26064,1,2,1:0:0:0:
162,168,26232,1,10,0:0:0:0:
335,230,26401,1,2,1:0:0:0:
129,316,26569,2,0,P|129:272|120:224,1,76.1450018009148,10|2,0:0|1:0,0:0:0:0:
303,330,26906,6,0,P|347:351|391:348,1,76.1450018009148,14|0,0:0|1:0,0:0:0:0:
493,222,27243,2,0,P|455:225|422:243,1,76.1450018009148,10|0,0:0|1:0,0:0:0:0:
303,330,27580,1,10,0:0:0:0:
212,181,27749,2,0,P|212:133|201:92,1,76.1450018009148,2|8,1:0|0:0,0:0:0:0:
303,221,28086,1,2,0:0:0:0:
279,39,28255,6,0,P|247:16|185:19,1,76.1450018009148,10|2,0:0|0:0,0:0:0:0:
93,146,28592,1,10,0:0:0:0:
335,226,28760,1,8,0:0:0:0:
117,270,28929,1,10,0:0:0:0:
316,124,29097,1,10,0:0:0:0:
99,285,29266,1,10,0:0:0:0:
99,285,29603,6,0,L|233:308,2,120.889997601975,6|8|2,1:0|0:0|1:0,0:0:0:0:
10,328,30446,1,0,0:0:0:0:
10,328,30614,2,0,P|-1:291|3:255,1,60.4449988009873,10|0,0:0|0:0,0:0:0:0:
75,199,30951,2,0,P|86:162|82:126,1,60.4449988009873,2|0,1:0|0:0,0:0:0:0:
33,51,31288,2,0,P|68:64|104:63,1,60.4449988009873,10|0,0:0|0:0,0:0:0:0:
181,15,31625,2,0,P|216:2|252:3,1,60.4449988009873,2|0,1:0|1:0,0:0:0:0:
303,81,31962,2,0,P|338:94|374:93,1,60.4449988009873,10|0,0:0|0:0,0:0:0:0:
458,65,32299,6,0,P|445:92|440:134,1,60.4449988009873,2|0,1:0|0:0,0:0:0:0:
485,209,32637,2,0,P|479:179|466:152,1,60.4449988009873,10|0,0:0|0:0,0:0:0:0:
376,248,32974,2,0,P|334:260|252:227,1,120.889997601975,2|8,1:0|0:0,0:0:0:0:
220,154,33479,1,2,0:0:0:0:
220,154,33648,2,0,P|217:222|203:290,2,120.889997601975,2|8|2,1:0|0:0|1:0,0:0:0:0:
128,138,34490,1,0,1:0:0:0:
128,138,34659,2,0,P|138:164|144:213,1,60.4449988009873,8|0,0:0|0:0,0:0:0:0:
108,295,34996,6,0,P|70:296|29:312,1,60.4449988009873,6|0,1:0|0:0,0:0:0:0:
174,377,35333,2,0,P|203:384|233:384,1,60.4449988009873,10|0,0:0|0:0,0:0:0:0:
316,313,35670,2,0,P|294:251|289:193,1,120.889997601975,2|8,1:0|0:0,0:0:0:0:
369,131,36176,1,0,0:0:0:0:
369,131,36344,2,0,P|403:121|443:118,1,60.4449988009873,2|0,1:0|0:0,0:0:0:0:
307,32,36681,2,0,P|335:40|365:44,1,60.4449988009873,10|0,0:0|0:0,0:0:0:0:
375,143,37019,2,0,P|409:133|449:130,1,60.4449988009873,2|0,1:0|1:0,0:0:0:0:
305,42,37356,2,0,P|333:50|363:54,1,60.4449988009873,10|0,0:0|0:0,0:0:0:0:
251,126,37693,6,0,P|221:88|218:-2,1,120.889997601975,2|8,1:0|0:0,0:0:0:0:
147,146,38198,1,0,0:0:0:0:
147,146,38367,2,0,P|118:167|69:174,1,60.4449988009873,0|0,1:0|1:0,0:0:0:0:
13,129,38704,2,0,P|41:138|65:156,1,60.4449988009873,8|0,0:0|0:0,0:0:0:0:
126,251,39041,2,0,P|146:308|159:374,1,120.889997601975,0|8,1:0|0:0,0:0:0:0:
254,262,39547,1,0,3:0:0:0:
254,262,39631,1,0,3:0:0:0:
254,262,39715,1,0,1:0:0:0:
351,383,39884,1,8,0:0:0:0:
408,209,40052,2,0,P|439:188|479:186,1,60.4449988009873,8|0,0:0|0:0,0:0:0:0:
367,358,40389,6,0,P|338:283|332:217,1,120.889997601975,6|8,1:0|0:0,0:0:0:0:
260,164,40895,1,0,0:0:0:0:
260,164,41064,2,0,P|270:135|275:105,1,60.4449988009873,2|0,1:0|1:0,0:0:0:0:
384,111,41401,2,0,P|373:82|368:52,1,60.4449988009873,10|0,0:0|0:0,0:0:0:0:
357,202,41738,2,0,P|389:209|433:199,1,60.4449988009873,2|0,1:0|0:0,0:0:0:0:
260,164,42075,2,0,P|230:160|200:167,1,60.4449988009873,10|0,0:0|0:0,0:0:0:0:
151,271,42412,2,0,L|140:341,1,60.4449988009873,2|0,1:0|1:0,0:0:0:0:
55,264,42749,2,0,L|45:204,1,60.4449988009873,10|0,0:0|0:0,0:0:0:0:
34,76,43086,6,0,P|58:55|91:52,1,60.4449988009873,2|0,1:0|0:0,0:0:0:0:
149,139,43423,2,0,P|171:159|200:163,1,60.4449988009873,10|0,0:0|0:0,0:0:0:0:
263,83,43760,2,0,P|240:141|230:221,1,120.889997601975,2|8,1:0|0:0,0:0:0:0:
313,271,44266,1,0,0:0:0:0:
375,176,44434,2,0,P|422:153|484:212,2,120.889997601975,2|8|2,1:0|0:0|1:0,0:0:0:0:
396,295,45277,1,0,1:0:0:0:
396,295,45446,2,0,P|428:274|464:269,1,60.4449988009873,8|0,0:0|0:0,0:0:0:0:
310,364,45783,6,0,P|281:355|256:338,1,60.4449988009873,2|0,1:0|0:0,0:0:0:0:
159,276,46120,2,0,P|187:267|212:250,1,60.4449988009873,10|0,0:0|0:0,0:0:0:0:
101,189,46457,2,0,P|130:230|145:316,1,120.889997601975,2|8,1:0|0:0,0:0:0:0:
196,133,46962,1,0,0:0:0:0:
196,133,47131,2,0,P|219:115|258:109,1,60.4449988009873,2|0,1:0|0:0,0:0:0:0:
328,160,47468,2,0,P|298:153|274:135,1,60.4449988009873,10|0,0:0|0:0,0:0:0:0:
405,69,47805,2,0,P|421:37|424:3,1,60.4449988009873,2|0,1:0|1:0,0:0:0:0:
348,139,48142,2,0,P|353:168|367:195,1,60.4449988009873,10|0,0:0|0:0,0:0:0:0:
497,244,48479,6,0,P|448:218|365:215,1,120.889997601975,2|8,1:0|0:0,0:0:0:0:
332,300,48985,1,0,0:0:0:0:
332,300,49153,2,0,P|295:324|256:329,1,60.4449988009873,0|0,1:0|1:0,0:0:0:0:
159,254,49490,2,0,L|175:188,1,60.4449988009873,8|0,0:0|0:0,0:0:0:0:
103,110,49828,1,0,1:0:0:0:
103,110,49996,1,0,1:0:0:0:
237,143,50165,2,0,L|221:77,1,60.4449988009873,8|0,0:0|0:0,0:0:0:0:
352,216,50502,2,0,L|366:101,1,90.6674982014809,8|0,0:0|3:0,0:0:0:0:
397,50,50839,2,0,L|439:40,3,30.2224994004936,8|8|8|8,3:0|3:0|3:0|3:0,0:0:0:0:
482,101,51176,6,0,L|496:222,1,102.442500859732,6|0,1:0|0:0,0:0:0:0:
476,223,51513,2,0,L|466:304,1,68.2950005731545,2|0,1:0|0:0,0:0:0:0:
335,371,51850,1,10,0:0:0:0:
335,371,52019,1,2,0:0:0:0:
279,293,52187,2,0,P|242:280|173:292,1,102.442500859732,2|8,1:0|3:0,0:0:0:0:
165,316,52524,6,0,L|153:207,1,102.442500859732,10|0,3:0|0:0,0:0:0:0:
173,194,52861,2,0,L|181:126,1,68.2950005731545,2|0,1:0|0:0,0:0:0:0:
33,196,53198,1,10,0:0:0:0:
33,196,53367,1,2,0:0:0:0:
94,131,53535,2,0,L|86:63,1,68.2950005731545,2|8,1:0|0:0,0:0:0:0:
237,202,53873,5,10,0:0:0:0:
237,202,54042,1,8,0:0:0:0:
176,137,54210,2,0,L|188:-9,1,136.590001146309,2|10,1:0|0:0,0:0:0:0:
268,102,54715,1,2,0:0:0:0:
268,102,54884,2,0,P|302:82|346:78,1,68.2950005731545,2|8,1:0|0:0,0:0:0:0:
453,135,55221,5,2,1:0:0:0:
453,135,55389,1,2,0:0:0:0:
389,194,55558,2,0,P|355:174|311:170,1,68.2950005731545,2|2,1:0|0:0,0:0:0:0:
236,271,55895,2,0,P|250:307|256:348,1,68.2950005731545,8|2,0:0|0:0,0:0:0:0:
330,370,56148,1,8,0:0:0:0:
330,370,56232,2,0,P|336:336|349:304,1,68.2950005731545,2|8,1:0|0:0,0:0:0:0:
435,226,56569,6,0,P|392:270|351:273,1,102.442500859732,6|0,1:0|0:0,0:0:0:0:
338,248,56906,2,0,P|304:210|275:202,1,68.2950005731545,2|0,1:0|0:0,0:0:0:0:
155,286,57243,1,10,0:0:0:0:
155,286,57412,1,2,0:0:0:0:
195,207,57580,2,0,P|186:238|182:286,1,68.2950005731545,2|0,1:0|0:0,0:0:0:0:
121,136,57917,6,0,P|88:118|47:119,1,68.2950005731545,2|0,1:0|0:0,0:0:0:0:
207,221,58255,2,0,P|240:218|270:201,1,68.2950005731545,2|0,1:0|0:0,0:0:0:0:
309,86,58592,1,10,0:0:0:0:
309,86,58760,1,2,0:0:0:0:
371,184,58929,1,2,1:0:0:0:
371,184,59097,1,2,0:0:0:0:
441,52,59266,6,0,P|400:95|380:187,1,136.590001146309,6|0,1:0|1:0,0:0:0:0:
508,358,59940,2,0,P|472:339|427:336,1,68.2950005731545,8|0,0:0|0:0,0:0:0:0:
329,372,60277,2,0,P|290:386|246:378,1,68.2950005731545,0|0,1:0|0:0,0:0:0:0:
117,257,60614,6,0,P|139:305|147:359,1,91.0600007642059,2|2,1:0|0:0,0:0:0:0:
224,364,60951,2,0,P|233:313|253:269,1,91.0600007642059,0|0,1:0|0:0,0:0:0:0:
302,213,61288,1,10,0:0:0:0:
393,322,61457,1,0,1:0:0:0:
436,144,61625,1,14,0:0:0:0:
372,304,61794,1,2,0:0:0:0:
288,328,61962,6,0,B|208:335|248:280|152:287,1,120.889997601975,6|4,0:0|0:0,0:0:0:0:
42,102,62637,2,0,L|38:72,3,30.2224994004936,8|8|8|8,3:0|3:0|3:0|3:0,0:0:0:0:
110,149,62974,1,8,0:0:0:0:
110,149,63311,6,0,L|216:132,1,83.9949974366761,14|2,0:0|0:0,0:0:0:0:
390,248,63648,1,10,0:0:0:0:
326,73,63816,1,0,1:0:0:0:
186,252,63985,2,0,P|177:282|175:347,1,83.9949974366761,8|0,0:0|1:0,0:0:0:0:
358,165,64322,6,0,P|438:171|476:243,1,167.989994873352,10|10,0:0|0:0,0:0:0:0:
296,292,64828,1,2,1:0:0:0:
177,106,64996,2,0,P|137:82|81:89,1,83.9949974366761,10|0,0:0|1:0,0:0:0:0:
43,328,65333,1,10,0:0:0:0:
116,174,65502,1,2,1:0:0:0:
208,371,65670,1,10,0:0:0:0:
104,205,65839,1,2,1:0:0:0:
315,116,66007,6,0,B|421:139|344:194|479:214,1,167.989994873352,14|8,0:0|0:0,0:0:0:0:
287,248,66513,1,2,1:0:0:0:
145,83,66681,2,0,L|154:-1,1,83.9949974366761,10|0,0:0|1:0,0:0:0:0:
265,239,67019,2,0,L|274:322,1,83.9949974366761,8|0,0:0|1:0,0:0:0:0:
447,207,67356,5,8,0:0:0:0:
281,129,67524,1,0,1:0:0:0:
414,298,67693,2,0,L|423:214,1,83.9949974366761,8|0,0:0|1:0,0:0:0:0:
306,34,68030,1,10,0:0:0:0:
454,119,68198,1,2,1:0:0:0:
268,225,68367,1,10,0:0:0:0:
366,94,68535,1,2,1:0:0:0:
418,316,68704,6,0,P|371:289|230:259,1,167.989994873352,14|10,0:0|0:0,0:0:0:0:
111,365,69210,1,0,1:0:0:0:
141,162,69378,2,0,P|161:196|167:262,1,83.9949974366761,8|0,0:0|1:0,0:0:0:0:
329,70,69715,2,0,P|309:104|303:170,1,83.9949974366761,10|0,0:0|1:0,0:0:0:0:
372,341,70052,5,10,0:0:0:0:
251,219,70221,1,2,1:0:0:0:
390,359,70389,2,0,P|434:342|482:334,1,83.9949974366761,10|0,0:0|1:0,0:0:0:0:
391,159,70726,1,10,0:0:0:0:
289,312,70895,1,2,1:0:0:0:
235,105,71064,1,10,0:0:0:0:
313,283,71232,1,2,1:0:0:0:
366,66,71401,6,0,P|410:52|461:63,1,83.9949974366761,14|0,0:0|1:0,0:0:0:0:
299,252,71738,2,0,P|257:256|218:242,1,83.9949974366761,8|0,0:0|1:0,0:0:0:0:
105,73,72075,1,8,0:0:0:0:
28,233,72243,2,0,P|22:185|13:142,1,83.9949974366761,0|8,1:0|0:0,0:0:0:0:
144,268,72580,1,0,1:0:0:0:
223,85,72749,6,0,P|266:70|321:66,1,83.9949974366761,12|0,0:0|1:0,0:0:0:0:
380,284,73086,2,0,P|336:281|297:268,1,83.9949974366761,8|0,0:0|1:0,0:0:0:0:
445,169,73423,2,0,P|467:123|472:75,1,83.9949974366761,10|10,3:0|0:0,0:0:0:0:
407,42,73676,1,8,0:0:0:0:
407,42,73760,2,0,P|382:57|339:57,3,41.9974987183381,10|8|8|8,0:0|0:0|0:0|0:0,0:0:0:0:
306,9,74097,6,0,P|262:0|194:28,1,83.9949974366761,14|2,0:0|0:0,0:0:0:0:
147,205,74434,1,10,0:0:0:0:
264,85,74602,1,0,1:0:0:0:
349,297,74771,2,0,P|393:306|461:278,1,83.9949974366761,8|0,0:0|1:0,0:0:0:0:
272,117,75108,6,0,P|307:188|324:283,1,167.989994873352,10|10,0:0|0:0,0:0:0:0:
361,91,75614,1,2,1:0:0:0:
234,222,75783,2,0,P|189:222|142:197,1,83.9949974366761,10|0,0:0|1:0,0:0:0:0:
84,15,76119,1,10,0:0:0:0:
205,143,76288,1,2,1:0:0:0:
2,179,76457,1,10,0:0:0:0:
125,92,76625,1,2,1:0:0:0:
199,304,76794,6,0,P|248:336|361:284,1,167.989994873352,14|8,0:0|0:0,0:0:0:0:
389,181,77299,1,2,1:0:0:0:
216,77,77468,2,0,P|233:112|237:166,1,83.9949974366761,10|0,0:0|1:0,0:0:0:0:
114,315,77805,2,0,P|118:273|136:235,1,83.9949974366761,8|0,0:0|1:0,0:0:0:0:
360,243,78142,5,8,0:0:0:0:
215,178,78310,1,0,1:0:0:0:
354,325,78479,2,0,P|400:325|437:300,1,83.9949974366761,8|0,0:0|1:0,0:0:0:0:
465,118,78816,1,10,0:0:0:0:
437,265,78984,1,2,1:0:0:0:
339,72,79153,1,10,0:0:0:0:
460,153,79321,1,2,1:0:0:0:
285,267,79490,6,0,B|179:246|255:198|125:171,1,167.989994873352,14|10,0:0|0:0,0:0:0:0:
298,169,79996,1,0,1:0:0:0:
134,269,80165,2,0,P|90:287|43:287,1,83.9949974366761,8|0,0:0|1:0,0:0:0:0:
3,95,80502,2,0,P|44:97|83:114,1,83.9949974366761,10|0,0:0|1:0,0:0:0:0:
150,293,80838,5,10,0:0:0:0:
186,131,81007,1,2,1:0:0:0:
262,326,81176,2,0,P|305:348|354:345,1,83.9949974366761,10|0,0:0|1:0,0:0:0:0:
305,159,81512,1,10,0:0:0:0:
368,326,81681,1,2,1:0:0:0:
395,118,81850,1,10,0:0:0:0:
357,296,82018,1,2,1:0:0:0:
292,127,82187,6,0,P|254:97|184:89,1,83.9949974366761,14|0,0:0|1:0,0:0:0:0:
133,275,82524,2,0,P|174:267|204:235,1,83.9949974366761,8|0,0:0|1:0,0:0:0:0:
240,45,82861,1,8,0:0:0:0:
53,144,83030,1,0,1:0:0:0:
275,164,83198,1,8,0:0:0:0:
51,272,83366,1,0,1:0:0:0:
256,362,83535,6,0,P|263:274|280:189,1,167.989994873352,8|8,0:0|0:0,0:0:0:0:
387,151,84041,1,8,0:0:0:0:
234,83,84210,1,10,0:0:0:0:
299,272,84378,1,10,0:0:0:0:
260,64,84547,1,10,0:0:0:0:
180,258,84715,1,10,0:0:0:0:
409,142,84884,6,0,L|401:239,1,76.1450018009148,14|0,0:0|0:0,0:0:0:0:
266,370,85221,2,0,L|259:294,1,76.1450018009148,10|0,0:0|1:0,0:0:0:0:
155,161,85558,1,10,0:0:0:0:
139,354,85726,2,0,L|145:278,1,76.1450018009148,2|8,1:0|0:0,0:0:0:0:
166,57,86064,6,0,P|97:72|55:162,1,152.29000360183,2|2,1:0|1:0,0:0:0:0:
254,190,86570,1,10,0:0:0:0:
81,229,86738,1,2,1:0:0:0:
277,295,86906,1,10,0:0:0:0:
110,218,87075,1,2,1:0:0:0:
267,87,87243,2,0,L|369:101,1,76.1450018009148,10|2,0:0|1:0,0:0:0:0:
444,245,87580,6,0,P|430:279|425:329,1,76.1450018009148,14|0,0:0|1:0,0:0:0:0:
279,184,87917,2,0,P|293:218|298:268,1,76.1450018009148,10|0,0:0|1:0,0:0:0:0:
412,140,88255,1,10,0:0:0:0:
452,330,88423,2,0,P|457:292|471:257,1,76.1450018009148,2|8,1:0|0:0,0:0:0:0:
423,56,88760,6,0,P|378:62|345:91,1,76.1450018009148,2|8,1:0|0:0,0:0:0:0:
387,239,89098,1,2,1:0:0:0:
275,89,89266,1,10,0:0:0:0:
246,250,89434,1,2,1:0:0:0:
169,43,89603,2,0,P|131:17|70:17,1,76.1450018009148,10|2,0:0|1:0,0:0:0:0:
245,215,89940,2,0,P|281:206|312:183,1,76.1450018009148,10|2,0:0|1:0,0:0:0:0:
96,102,90278,6,0,P|109:138|109:207,1,76.1450018009148,14|0,0:0|1:0,0:0:0:0:
25,341,90614,2,0,P|28:303|41:267,1,76.1450018009148,10|0,0:0|1:0,0:0:0:0:
216,197,90952,1,10,0:0:0:0:
136,343,91120,2,0,P|123:307|119:269,1,76.1450018009148,2|8,1:0|0:0,0:0:0:0:
283,140,91457,6,0,B|378:161|304:203|434:231,1,152.29000360183,2|2,1:0|1:0,0:0:0:0:
249,244,91963,1,10,0:0:0:0:
412,145,92132,1,2,1:0:0:0:
224,61,92300,1,10,0:0:0:0:
387,161,92469,1,2,1:0:0:0:
221,262,92637,2,0,L|130:243,1,76.1450018009148,10|2,0:0|1:0,0:0:0:0:
25,88,92974,6,0,P|15:43|18:-5,1,76.1450018009148,14|0,0:0|1:0,0:0:0:0:
212,161,93311,2,0,P|222:116|219:68,1,76.1450018009148,10|0,0:0|1:0,0:0:0:0:
56,127,93648,1,10,0:0:0:0:
208,257,93816,2,0,P|250:253|288:225,1,76.1450018009148,2|8,1:0|0:0,0:0:0:0:
134,144,94154,1,2,1:0:0:0:
91,329,94322,6,0,P|58:347|20:350,1,76.1450018009148,8|2,0:0|1:0,0:0:0:0:
30,142,94659,2,0,P|67:144|100:163,1,76.1450018009148,8|2,0:0|0:0,0:0:0:0:
277,331,94996,2,0,P|314:329|347:310,1,76.1450018009148,2|8,1:0|0:0,0:0:0:0:
282,250,95249,1,8,0:0:0:0:
282,250,95333,2,0,L|275:209,3,38.0725009004574,8|8|8|8,0:0|0:0|0:0|0:0,0:0:0:0:
314,147,95670,6,0,P|349:118|393:111,1,76.1450018009148,14|0,0:0|0:0,0:0:0:0:
277,331,96007,2,0,P|240:320|212:294,1,76.1450018009148,10|0,0:0|1:0,0:0:0:0:
237,93,96344,1,10,0:0:0:0:
405,221,96513,2,0,P|441:210|469:184,1,76.1450018009148,2|8,1:0|0:0,0:0:0:0:
210,70,96850,6,0,P|141:85|99:175,1,152.29000360183,2|2,1:0|1:0,0:0:0:0:
269,190,97356,1,10,0:0:0:0:
81,229,97524,1,2,1:0:0:0:
277,295,97692,1,10,0:0:0:0:
110,218,97861,1,2,1:0:0:0:
267,87,98029,2,0,L|369:101,1,76.1450018009148,10|2,0:0|1:0,0:0:0:0:
454,256,98366,6,0,P|440:290|435:340,1,76.1450018009148,14|0,0:0|1:0,0:0:0:0:
279,184,98704,2,0,P|293:218|298:268,1,76.1450018009148,10|0,0:0|1:0,0:0:0:0:
412,140,99041,1,10,0:0:0:0:
452,330,99209,2,0,P|457:292|471:257,1,76.1450018009148,2|8,1:0|0:0,0:0:0:0:
423,56,99546,6,0,P|378:62|345:91,1,76.1450018009148,2|8,1:0|0:0,0:0:0:0:
387,239,99884,1,2,1:0:0:0:
275,89,100052,1,10,0:0:0:0:
246,250,100220,1,2,1:0:0:0:
169,43,100389,2,0,P|131:17|70:17,1,76.1450018009148,10|2,0:0|1:0,0:0:0:0:
245,215,100726,2,0,P|281:206|312:183,1,76.1450018009148,10|2,0:0|1:0,0:0:0:0:
96,102,101064,6,0,P|109:138|109:207,1,76.1450018009148,14|0,0:0|1:0,0:0:0:0:
25,341,101400,2,0,P|28:303|41:267,1,76.1450018009148,10|0,0:0|1:0,0:0:0:0:
216,197,101738,1,10,0:0:0:0:
136,343,101906,2,0,P|123:307|119:269,1,76.1450018009148,2|8,1:0|0:0,0:0:0:0:
271,126,102243,6,0,P|237:211|237:281,1,152.29000360183,2|2,1:0|1:0,0:0:0:0:
165,106,102749,2,0,P|133:80|78:70,1,76.1450018009148,10|2,0:0|1:0,0:0:0:0:
270,220,103086,2,0,P|306:208|334:184,1,76.1450018009148,10|2,0:0|1:0,0:0:0:0:
405,27,103423,1,10,0:0:0:0:
365,166,103592,1,2,1:0:0:0:
192,25,103760,6,0,P|212:65|213:106,1,76.1450018009148,14|0,0:0|1:0,0:0:0:0:
111,245,104097,2,0,P|115:207|133:174,1,76.1450018009148,10|0,0:0|1:0,0:0:0:0:
287,314,104434,1,14,0:0:0:0:
365,166,104603,2,0,P|395:143|432:134,1,76.1450018009148,2|8,1:0|0:0,0:0:0:0:
385,301,104940,1,2,1:0:0:0:
251,176,105108,6,0,L|263:73,1,76.1450018009148,12|2,0:0|0:0,0:0:0:0:
176,239,105452,1,10,0:0:0:0:
363,274,105625,1,8,0:0:0:0:
160,272,105797,1,10,0:0:0:0:
334,193,105970,1,8,0:0:0:0:
130,144,106142,1,10,0:0:0:0:
339,277,106314,1,8,0:0:0:0:
64,320,106487,6,0,B|160:320|384:320|128:32|384:32|488:32,1,565.2,14|0,0:0|0:0,0:0:0:0:
