osu file format v14

[General]
AudioFilename: audio.mp3
AudioLeadIn: 0
PreviewTime: 62637
Countdown: 0
SampleSet: Soft
StackLeniency: 0.7
Mode: 0
LetterboxInBreaks: 0
WidescreenStoryboard: 1

[Editor]
DistanceSpacing: 1
BeatDivisor: 4
GridSize: 32
TimelineZoom: 1.5

[Metadata]
Title:Yume wa Jikuu o Koete
TitleUnicode:夢は時空を越えて
Artist:KISIDA KYODAN & THE AKEBOSI ROCKETS
ArtistUnicode:岸田教団&THE明星ロケッツ
Creator:SMOKELIND
Version:Kowari's Lunatic
Source:東方夢時空 ~ Pantasmagria of Dim.Dream
Tags:Japanese JP Video Game J-Rock JRock Rock Ichigo TH ZUN Touhou 東方Project 3 Reitaisai 4 C85 Comiket 85 A Dream Transcending Across Space-time Fantasy Incident Yumemi Okazaki 岡崎 夢美 幻想事変 KISHIDA KYOUDAN AND AKEBOSHI Kowari iljaaz Reform Kujinn Xenon- Xehn Xen
BeatmapID:2099839
BeatmapSetID:1002336

[Difficulty]
HPDrainRate:4.8
CircleSize:3.8
OverallDifficulty:8
ApproachRate:9
SliderMultiplier:1.72
SliderTickRate:1

[Events]
//Background and Video events
0,0,"Nya.jpg",0,0
//Break Periods
//Storyboard Layer 0 (Background)
//Storyboard Layer 1 (Fail)
//Storyboard Layer 2 (Pass)
//Storyboard Layer 3 (Foreground)
//Storyboard Layer 4 (Overlay)
//Storyboard Sound Samples

[TimingPoints]
46,337.078651685393,4,2,7,77,1,0
6682,337.078651685393,4,2,7,77,1,0
8030,-111.111111111111,4,2,7,77,0,0
18816,-90.9090909090909,4,2,7,87,0,0
29603,-125,4,2,7,57,0,0
51176,-125,4,2,7,67,0,0
61962,-125,4,2,7,77,0,0
63311,-90.9090909090909,4,2,7,97,0,0
84884,-90.9090909090909,4,2,7,87,0,0
105108,344.827586206897,4,2,7,87,1,0

[Colours]
Combo1 : 188,121,255
Combo2 : 255,121,188
Combo3 : 255,121,121
Combo4 : 121,121,255

[HitObjects]
177,309,6682,6,0,P|131:309|78:284,1,86,8|0,0:0|1:0,0:0:0:0:
288,149,7019,1,8,0:0:0:0:
345,306,7187,1,0,1:0:0:0:
200,139,7356,2,0,P|153:130|97:144,1,86,8|0,0:0|1:0,0:0:0:0:
266,314,7693,1,8,3:0:0:0:
266,314,8030,6,0,B|180:319|220:277|95:282,1,154.799995275879,4|8,1:0|0:0,0:0:0:0:
272,167,8535,1,0,3:0:0:0:
272,167,8704,2,0,P|251:214|241:255,1,77.3999976379395,0|0,1:0|1:0,0:0:0:0:
115,122,9041,1,10,0:0:0:0:
115,122,9378,6,0,P|186:95|290:87,1,154.799995275879,2|8,1:0|0:0,0:0:0:0:
329,222,9884,2,0,P|309:182|367:72,1,154.799995275879,0|2,1:0|1:0,0:0:0:0:
461,71,10389,1,10,0:0:0:0:
461,71,10726,6,0,P|394:63|289:18,1,154.799995275879,2|8,1:0|0:0,0:0:0:0:
219,165,11232,1,0,3:0:0:0:
219,165,11316,1,0,3:0:0:0:
219,165,11401,2,0,P|275:157|317:124,1,77.3999976379395,0|0,1:0|1:0,0:0:0:0:
162,79,11738,1,10,0:0:0:0:
162,79,11906,1,0,0:0:0:0:
130,242,12075,6,0,P|83:262|42:268,1,77.3999976379395,2|0,1:0|1:0,0:0:0:0:
118,144,12412,1,10,0:0:0:0:
200,301,12580,1,0,3:0:0:0:
200,301,12665,1,0,3:0:0:0:
200,301,12749,2,0,P|245:322|298:324,1,77.3999976379395,0|0,1:0|1:0,0:0:0:0:
328,138,13086,2,0,P|307:185|298:221,1,77.3999976379395,10|0,0:0|0:0,0:0:0:0:
439,330,13423,6,0,P|413:261|408:228,1,77.3999976379395,6|0,1:0|0:0,0:0:0:0:
336,139,13760,2,0,P|325:180|307:219,1,77.3999976379395,10|0,0:0|3:0,0:0:0:0:
279,237,14013,1,0,3:0:0:0:
279,237,14097,2,0,P|226:211|180:206,1,77.3999976379395,2|2,1:0|1:0,0:0:0:0:
82,289,14434,1,10,0:0:0:0:
124,146,14603,1,0,0:0:0:0:
190,293,14771,6,0,P|173:343|162:380,1,77.3999976379395,2|0,1:0|0:0,0:0:0:0:
48,236,15108,2,0,P|65:286|76:323,1,77.3999976379395,10|2,0:0|1:0,0:0:0:0:
133,154,15446,1,2,0:0:0:0:
133,154,15614,1,2,1:0:0:0:
191,278,15783,2,0,P|242:298|288:294,1,77.3999976379395,10|0,0:0|0:0,0:0:0:0:
305,117,16120,6,0,P|273:172|259:211,1,77.3999976379395,2|2,1:0|0:0,0:0:0:0:
188,327,16457,2,0,P|170:287|147:251,1,77.3999976379395,8|0,0:0|3:0,0:0:0:0:
126,231,16710,1,0,3:0:0:0:
126,231,16794,2,0,P|79:253|31:253,1,77.3999976379395,2|0,1:0|1:0,0:0:0:0:
25,90,17131,1,10,0:0:0:0:
25,90,17468,6,0,P|75:114|116:120,1,77.3999976379395,2|0,1:0|3:0,0:0:0:0:
139,104,17721,1,8,0:0:0:0:
139,104,17805,2,0,P|132:69|130:43,3,38.6999988189698,8|0|8|8,0:0|3:0|0:0|0:0,0:0:0:0:
193,6,18142,1,4,1:0:0:0:
193,6,18479,1,0,0:0:0:0:
246,180,18816,6,0,P|311:166|376:159,1,94.600002886963,14|0,0:0|0:0,0:0:0:0:
211,342,19153,2,0,P|146:328|81:321,1,94.600002886963,10|0,0:0|1:0,0:0:0:0:
224,172,19490,1,10,0:0:0:0:
321,319,19659,2,0,P|393:303|434:296,1,94.600002886963,2|8,1:0|0:0,0:0:0:0:
174,239,19996,6,0,P|143:189|143:144,1,94.600002886963,2|8,1:0|0:0,0:0:0:0:
265,48,20333,1,2,1:0:0:0:
290,205,20502,2,0,P|270:273|263:312,1,94.600002886963,10|2,0:0|1:0,0:0:0:0:
278,321,20755,1,0,1:0:0:0:
279,321,20839,1,10,0:0:0:0:
392,197,21007,1,2,1:0:0:0:
295,97,21176,2,0,P|235:89|195:100,1,94.600002886963,10|2,0:0|1:0,0:0:0:0:
119,257,21513,6,0,P|103:204|80:158,1,94.600002886963,14|0,0:0|1:0,0:0:0:0:
222,6,21850,2,0,P|202:48|189:94,1,94.600002886963,10|0,0:0|1:0,0:0:0:0:
24,217,22187,1,10,0:0:0:0:
27,51,22356,2,0,P|89:45|127:69,1,94.600002886963,2|8,1:0|0:0,0:0:0:0:
217,235,22693,6,0,P|189:309|182:340,1,94.600002886963,2|8,1:0|0:0,0:0:0:0:
320,138,23030,2,0,P|306:92|288:49,1,94.600002886963,2|10,1:0|0:0,0:0:0:0:
164,178,23367,1,2,1:0:0:0:
164,178,23451,1,0,1:0:0:0:
164,178,23535,1,10,0:0:0:0:
315,237,23704,1,2,1:0:0:0:
205,95,23873,2,0,P|142:89|112:103,1,94.600002886963,10|2,0:0|1:0,0:0:0:0:
214,278,24210,6,0,P|235:212|256:169,1,94.600002886963,14|0,0:0|1:0,0:0:0:0:
29,121,24547,2,0,P|47:164|60:209,1,94.600002886963,10|0,0:0|1:0,0:0:0:0:
138,345,24884,1,10,0:0:0:0:
167,159,25052,2,0,P|215:117|260:108,1,94.600002886963,2|8,1:0|0:0,0:0:0:0:
320,289,25389,6,0,P|256:269|206:263,1,94.600002886963,2|8,1:0|0:0,0:0:0:0:
406,178,25726,1,2,1:0:0:0:
398,360,25895,1,10,0:0:0:0:
311,203,26064,1,2,1:0:0:0:
311,203,26148,1,0,1:0:0:0:
311,203,26232,1,10,0:0:0:0:
449,283,26401,1,2,1:0:0:0:
470,109,26569,2,0,P|416:91|369:96,1,94.600002886963,10|2,0:0|1:0,0:0:0:0:
231,218,26906,6,0,P|249:289|256:335,1,94.600002886963,14|0,0:0|1:0,0:0:0:0:
365,98,27243,2,0,P|374:51|386:6,1,94.600002886963,10|0,0:0|1:0,0:0:0:0:
376,222,27580,1,10,0:0:0:0:
263,79,27749,2,0,P|204:74|143:114,1,94.600002886963,2|8,1:0|0:0,0:0:0:0:
111,247,28086,1,2,0:0:0:0:
236,166,28255,6,0,P|209:241|197:314,1,141.900004330444,10|0,0:0|0:0,0:0:0:0:
207,334,28592,1,10,0:0:0:0:
80,216,28760,1,8,0:0:0:0:
298,243,28929,1,10,0:0:0:0:
88,356,29097,1,10,0:0:0:0:
152,122,29266,1,10,0:0:0:0:
291,354,29603,6,0,P|366:343|416:285,1,137.6,6|8,1:0|0:0,0:0:0:0:
312,200,30108,1,0,0:0:0:0:
312,200,30277,2,0,P|327:261|329:289,1,68.8,2|0,1:0|0:0,0:0:0:0:
414,155,30614,2,0,P|419:121|429:88,1,68.8,10|0,0:0|0:0,0:0:0:0:
322,12,30951,6,0,P|272:18|222:97,2,137.6,2|10|2,1:0|0:0|1:0,0:0:0:0:
431,131,31794,1,0,1:0:0:0:
414,25,31962,1,10,0:0:0:0:
293,172,32299,6,0,P|246:161|196:155,1,68.8,2|0,1:0|0:0,0:0:0:0:
131,69,32637,2,0,P|164:63|198:54,1,68.8,10|0,0:0|0:0,0:0:0:0:
104,161,32974,1,2,1:0:0:0:
104,161,33142,1,0,1:0:0:0:
24,57,33311,2,0,P|45:9|64:-5,1,68.8,8|2,0:0|0:0,0:0:0:0:
128,148,33648,6,0,P|103:212|86:289,1,137.6,2|8,1:0|0:0,0:0:0:0:
207,343,34153,1,0,0:0:0:0:
207,343,34322,2,0,P|198:298|197:268,1,68.8,2|0,1:0|1:0,0:0:0:0:
279,171,34659,1,8,0:0:0:0:
279,171,34996,6,0,P|321:197|350:209,1,68.8,6|0,1:0|0:0,0:0:0:0:
347,312,35333,2,0,P|395:300|424:288,1,68.8,10|0,0:0|0:0,0:0:0:0:
506,207,35670,1,2,1:0:0:0:
506,207,35839,1,0,1:0:0:0:
353,182,36007,2,0,P|361:123|376:102,1,68.8,8|0,0:0|0:0,0:0:0:0:
403,279,36344,6,0,P|354:266|314:260,1,68.8,2|0,1:0|0:0,0:0:0:0:
198,173,36681,2,0,P|231:166|264:156,1,68.8,10|0,0:0|0:0,0:0:0:0:
399,103,37019,1,2,1:0:0:0:
399,103,37187,1,0,1:0:0:0:
307,16,37356,1,10,0:0:0:0:
307,16,37693,6,0,B|216:14|255:63|152:52,2,137.6,2|8|0,1:0|0:0|1:0,0:0:0:0:
356,135,38535,1,0,1:0:0:0:
458,30,38704,2,0,P|444:68|433:122,1,68.8,8|0,0:0|0:0,0:0:0:0:
407,232,39041,6,0,P|444:247|487:253,1,68.8,0|0,1:0|0:0,0:0:0:0:
349,127,39378,2,0,P|315:133|283:147,1,68.8,8|0,0:0|3:0,0:0:0:0:
260,169,39631,1,0,3:0:0:0:
260,169,39715,1,0,1:0:0:0:
338,274,39884,1,8,0:0:0:0:
277,61,40052,2,0,P|228:48|171:52,1,103.2,8|0,0:0|0:0,0:0:0:0:
150,71,40389,6,0,P|159:120|163:155,1,68.8,6|0,1:0|0:0,0:0:0:0:
242,267,40726,2,0,P|246:232|253:199,1,68.8,8|0,0:0|0:0,0:0:0:0:
103,212,41064,1,2,1:0:0:0:
103,212,41232,1,0,1:0:0:0:
180,331,41401,2,0,P|221:350|260:350,1,68.8,10|0,0:0|0:0,0:0:0:0:
320,185,41738,6,0,P|268:196|238:200,1,68.8,2|0,1:0|0:0,0:0:0:0:
374,307,42075,2,0,P|426:318|456:322,1,68.8,10|0,0:0|0:0,0:0:0:0:
283,276,42412,1,2,1:0:0:0:
283,276,42580,1,0,1:0:0:0:
400,154,42749,2,0,P|413:190|409:222,1,68.8,10|0,0:0|0:0,0:0:0:0:
243,96,43086,6,0,P|283:58|378:68,1,137.6,2|10,1:0|0:0,0:0:0:0:
303,166,43592,1,0,0:0:0:0:
175,77,43760,2,0,P|192:112|204:155,1,68.8,2|0,1:0|1:0,0:0:0:0:
268,261,44097,2,0,P|278:228|293:197,1,68.8,8|0,0:0|0:0,0:0:0:0:
120,191,44434,6,0,P|146:248|168:339,1,137.6,2|8,1:0|0:0,0:0:0:0:
54,284,44940,1,0,0:0:0:0:
192,220,45108,1,2,1:0:0:0:
103,369,45277,1,0,1:0:0:0:
75,208,45446,2,0,P|42:194|-6:192,1,68.8,8|0,0:0|0:0,0:0:0:0:
177,302,45783,6,0,P|232:294|278:225,1,137.6,2|10,1:0|0:0,0:0:0:0:
170,118,46288,1,0,0:0:0:0:
170,118,46457,2,0,P|135:130|102:138,1,68.8,2|0,1:0|1:0,0:0:0:0:
277,230,46794,2,0,P|242:218|209:210,1,68.8,8|0,0:0|0:0,0:0:0:0:
333,45,47131,6,0,P|366:81|344:175,1,137.6,2|10,1:0|0:0,0:0:0:0:
208,212,47637,1,0,0:0:0:0:
208,212,47805,2,0,P|230:166|236:135,1,68.8,2|0,1:0|1:0,0:0:0:0:
290,293,48142,1,10,0:0:0:0:
290,293,48479,6,0,B|377:296|331:258|451:258,1,137.6,2|8,1:0|0:0,0:0:0:0:
287,149,48985,1,0,0:0:0:0:
287,149,49153,2,0,P|310:191|318:224,1,68.8,0|0,1:0|1:0,0:0:0:0:
336,369,49490,1,8,0:0:0:0:
336,369,49828,5,0,1:0:0:0:
205,272,49996,1,0,1:0:0:0:
378,284,50165,2,0,P|417:268|451:247,1,68.8,8|0,0:0|0:0,0:0:0:0:
251,343,50502,1,8,0:0:0:0:
332,176,50670,1,0,3:0:0:0:
332,176,50755,1,0,3:0:0:0:
332,176,50839,2,0,P|340:152|342:124,3,34.4,8|8|8|8,3:0|3:0|3:0|3:0,0:0:0:0:
329,99,51176,6,0,P|278:116|248:116,1,68.8,6|0,1:0|0:0,0:0:0:0:
137,18,51513,2,0,P|170:22|202:35,1,68.8,2|0,1:0|0:0,0:0:0:0:
163,175,51850,2,0,P|151:124|140:96,1,68.8,10|2,0:0|0:0,0:0:0:0:
253,100,52187,1,2,1:0:0:0:
220,241,52356,5,8,3:0:0:0:
220,241,52440,1,8,3:0:0:0:
220,241,52524,2,0,P|184:258|150:261,1,68.8,10|0,3:0|0:0,0:0:0:0:
27,167,52861,2,0,P|60:171|91:187,1,68.8,2|0,1:0|0:0,0:0:0:0:
76,335,53198,2,0,P|67:297|53:259,1,68.8,10|2,0:0|0:0,0:0:0:0:
209,215,53535,1,2,1:0:0:0:
158,367,53704,1,8,0:0:0:0:
136,171,53873,5,10,0:0:0:0:
251,306,54041,1,8,0:0:0:0:
328,222,54210,2,0,P|345:192|352:159,1,68.8,2|0,1:0|0:0,0:0:0:0:
236,320,54547,2,0,P|241:353|258:383,1,68.8,10|2,0:0|0:0,0:0:0:0:
395,380,54884,1,2,1:0:0:0:
395,380,55052,1,8,0:0:0:0:
417,232,55221,5,2,1:0:0:0:
417,232,55389,1,2,0:0:0:0:
276,293,55558,2,0,P|231:278|200:268,1,68.8,2|2,1:0|0:0,0:0:0:0:
311,144,55895,2,0,P|328:185|319:218,1,68.8,8|2,0:0|0:0,0:0:0:0:
320,228,56148,1,8,0:0:0:0:
320,228,56232,1,2,1:0:0:0:
203,139,56401,1,8,0:0:0:0:
306,52,56569,6,0,P|356:64|388:70,1,68.8,6|0,1:0|0:0,0:0:0:0:
203,152,56906,2,0,P|153:164|121:170,1,68.8,2|0,1:0|0:0,0:0:0:0:
57,32,57243,1,10,0:0:0:0:
167,70,57412,1,2,0:0:0:0:
62,221,57580,2,0,P|43:181|51:142,1,68.8,2|0,1:0|0:0,0:0:0:0:
191,226,57917,6,0,P|178:275|175:315,1,68.8,2|0,1:0|0:0,0:0:0:0:
277,138,58255,2,0,P|264:89|261:49,1,68.8,2|0,1:0|0:0,0:0:0:0:
306,225,58592,1,10,0:0:0:0:
306,225,58760,1,2,0:0:0:0:
189,157,58929,1,2,1:0:0:0:
365,122,59097,1,2,0:0:0:0:
264,303,59266,6,0,B|194:307|224:270|118:268,2,137.6,6|0|8,1:0|1:0|0:0,0:0:0:0:
366,252,60108,1,0,0:0:0:0:
366,252,60277,2,0,P|352:211|345:174,1,68.8,0|0,1:0|0:0,0:0:0:0:
440,74,60614,6,0,P|392:75|335:26,2,91.7333333333333,2|2|2,1:0|0:0|0:0,0:0:0:0:
276,2,61288,1,10,0:0:0:0:
331,180,61457,1,0,1:0:0:0:
411,1,61625,1,14,0:0:0:0:
207,147,61962,6,0,P|226:186|251:295,1,137.6,6|4,0:0|0:0,0:0:0:0:
91,351,62637,1,8,3:0:0:0:
91,351,62721,1,8,3:0:0:0:
91,351,62805,2,0,P|106:322|111:303,1,34.4,8|8,3:0|3:0,0:0:0:0:
121,232,62974,1,8,0:0:0:0:
121,232,63311,5,14,0:0:0:0:
1,287,63479,1,2,0:0:0:0:
80,135,63648,2,0,P|140:135|186:148,1,94.600002886963,10|0,0:0|1:0,0:0:0:0:
238,301,63985,2,0,P|189:309|140:307,1,94.600002886963,8|0,0:0|1:0,0:0:0:0:
276,119,64322,2,0,P|259:172|252:214,1,94.600002886963,10|0,0:0|1:0,0:0:0:0:
135,69,64659,5,10,0:0:0:0:
166,218,64828,1,2,1:0:0:0:
239,43,64996,2,0,P|295:31|337:41,1,94.600002886963,10|0,0:0|1:0,0:0:0:0:
379,205,65333,1,10,0:0:0:0:
187,130,65502,1,2,1:0:0:0:
393,86,65670,1,10,0:0:0:0:
291,223,65839,5,2,1:0:0:0:
291,223,65923,1,0,3:0:0:0:
291,223,66007,2,0,P|279:162|229:26,1,189.200005773926,14|8,0:0|0:0,0:0:0:0:
183,185,66513,1,2,1:0:0:0:
357,83,66681,1,10,0:0:0:0:
161,15,66850,1,0,1:0:0:0:
267,160,67019,1,8,0:0:0:0:
270,36,67187,1,0,1:0:0:0:
121,116,67356,6,0,P|98:161|100:207,1,94.600002886963,8|0,0:0|1:0,0:0:0:0:
247,312,67693,2,0,P|235:253|212:226,1,94.600002886963,8|0,0:0|1:0,0:0:0:0:
33,309,68030,1,10,0:0:0:0:
176,351,68198,1,2,1:0:0:0:
71,199,68367,1,10,0:0:0:0:
98,372,68535,1,2,1:0:0:0:
176,164,68704,5,14,0:0:0:0:
98,348,68873,1,2,1:0:0:0:
9,139,69041,2,0,P|31:80|39:31,1,94.600002886963,10|0,0:0|1:0,0:0:0:0:
208,185,69378,1,8,0:0:0:0:
51,236,69547,1,0,1:0:0:0:
166,75,69715,2,0,P|224:66|267:79,1,94.600002886963,10|0,0:0|1:0,0:0:0:0:
199,288,70052,5,10,0:0:0:0:
106,153,70221,1,2,1:0:0:0:
307,203,70389,2,0,P|288:274|282:318,1,94.600002886963,10|0,0:0|1:0,0:0:0:0:
296,314,70642,1,0,1:0:0:0:
296,314,70726,1,10,0:0:0:0:
216,164,70895,1,2,1:0:0:0:
387,248,71064,1,10,0:0:0:0:
187,265,71232,1,2,1:0:0:0:
317,106,71401,6,0,P|379:124|421:157,1,94.600002886963,14|0,0:0|1:0,0:0:0:0:
199,178,71738,1,8,0:0:0:0:
270,27,71906,1,0,1:0:0:0:
317,201,72075,2,0,P|296:266|293:312,1,94.600002886963,8|0,0:0|1:0,0:0:0:0:
137,144,72412,1,8,0:0:0:0:
303,116,72580,1,0,1:0:0:0:
171,256,72749,5,8,0:0:0:0:
197,63,72917,1,0,1:0:0:0:
312,225,73086,2,0,P|373:243|416:231,1,94.600002886963,8|0,0:0|0:0,0:0:0:0:
470,130,73423,2,0,P|457:98|451:71,3,47.3000014434815,10|0|10|8,3:0|3:0|0:0|0:0,0:0:0:0:
388,11,73760,2,0,P|381:33|371:55,3,47.3000014434815,10|8|8|8,0:0|0:0|0:0|0:0,0:0:0:0:
283,122,74097,5,14,0:0:0:0:
309,1,74266,1,2,0:0:0:0:
376,183,74434,2,0,P|322:214|270:215,1,94.600002886963,10|0,0:0|1:0,0:0:0:0:
153,87,74771,2,0,P|199:95|238:121,1,94.600002886963,8|0,0:0|1:0,0:0:0:0:
192,304,75108,2,0,P|179:230|168:193,1,94.600002886963,10|0,0:0|1:0,0:0:0:0:
316,111,75446,5,10,0:0:0:0:
279,266,75614,1,2,1:0:0:0:
221,88,75783,2,0,P|168:63|117:63,1,94.600002886963,10|0,0:0|1:0,0:0:0:0:
4,221,76120,1,10,0:0:0:0:
60,22,76288,1,2,1:0:0:0:
146,219,76457,1,10,0:0:0:0:
0,115,76625,1,2,1:0:0:0:
196,42,76794,6,0,B|312:34|260:91|382:84,1,189.200005773926,14|8,0:0|0:0,0:0:0:0:
237,147,77299,1,2,1:0:0:0:
439,34,77468,2,0,P|420:93|413:157,1,94.600002886963,10|0,0:0|1:0,0:0:0:0:
354,289,77805,2,0,P|345:242|329:197,1,94.600002886963,8|0,0:0|1:0,0:0:0:0:
184,97,78142,5,8,0:0:0:0:
259,264,78311,1,0,1:0:0:0:
325,76,78479,1,8,0:0:0:0:
163,197,78648,1,0,1:0:0:0:
156,6,78816,5,10,0:0:0:0:
274,148,78985,1,2,1:0:0:0:
74,211,79153,1,10,0:0:0:0:
187,77,79322,1,2,1:0:0:0:
222,279,79490,5,14,0:0:0:0:
117,127,79659,1,2,1:0:0:0:
37,306,79828,2,0,P|101:319|136:307,1,94.600002886963,10|0,0:0|1:0,0:0:0:0:
276,189,80165,2,0,P|212:176|177:188,1,94.600002886963,8|0,0:0|1:0,0:0:0:0:
316,355,80502,2,0,P|330:293|345:250,1,94.600002886963,10|0,0:0|1:0,0:0:0:0:
153,149,80839,5,10,0:0:0:0:
226,307,81007,1,2,1:0:0:0:
316,115,81176,2,0,P|376:96|437:101,1,94.600002886963,10|0,0:0|1:0,0:0:0:0:
429,113,81429,1,0,1:0:0:0:
429,113,81513,1,10,0:0:0:0:
303,217,81681,1,2,1:0:0:0:
279,20,81850,1,10,0:0:0:0:
394,198,82019,1,2,1:0:0:0:
217,113,82187,6,0,P|157:102|117:105,1,94.600002886963,14|0,0:0|1:0,0:0:0:0:
301,285,82524,2,0,P|347:274|394:275,1,94.600002886963,8|0,0:0|1:0,0:0:0:0:
297,97,82861,1,8,0:0:0:0:
179,286,83030,1,0,1:0:0:0:
325,194,83198,1,8,0:0:0:0:
106,204,83367,1,0,1:0:0:0:
260,361,83535,6,0,P|283:308|290:262,1,94.600002886963,8|0,0:0|1:0,0:0:0:0:
149,113,83873,1,8,0:0:0:0:
196,284,84041,1,8,0:0:0:0:
279,68,84210,1,10,0:0:0:0:
97,189,84378,1,10,0:0:0:0:
355,225,84547,1,10,0:0:0:0:
196,49,84715,1,10,0:0:0:0:
162,307,84884,6,0,P|101:325|54:323,1,94.600002886963,14|0,0:0|0:0,0:0:0:0:
256,175,85221,2,0,P|303:177|347:193,1,94.600002886963,10|0,0:0|1:0,0:0:0:0:
174,290,85558,1,10,0:0:0:0:
127,101,85726,2,0,P|70:82|18:79,1,94.600002886963,2|8,1:0|0:0,0:0:0:0:
241,201,86064,6,0,P|274:142|277:107,1,94.600002886963,2|8,1:0|0:0,0:0:0:0:
129,55,86401,1,2,1:0:0:0:
158,259,86569,2,0,P|216:285|264:301,1,94.600002886963,10|2,0:0|1:0,0:0:0:0:
276,308,86822,1,0,1:0:0:0:
276,308,86906,1,10,0:0:0:0:
193,130,87075,1,2,1:0:0:0:
86,276,87243,1,10,0:0:0:0:
240,212,87412,1,2,1:0:0:0:
67,83,87580,6,0,P|82:149|91:197,1,94.600002886963,14|0,0:0|1:0,0:0:0:0:
184,369,87917,2,0,P|193:322|204:276,1,94.600002886963,10|0,0:0|1:0,0:0:0:0:
268,103,88255,1,10,0:0:0:0:
135,244,88423,2,0,P|90:258|29:253,1,94.600002886963,2|8,1:0|0:0,0:0:0:0:
236,106,88760,6,0,P|292:133|338:181,1,94.600002886963,2|8,1:0|0:0,0:0:0:0:
143,204,89097,1,2,1:0:0:0:
194,24,89266,1,10,0:0:0:0:
238,196,89434,1,2,1:0:0:0:
355,38,89603,2,0,P|412:27|459:27,1,94.600002886963,10|2,0:0|1:0,0:0:0:0:
316,192,89940,2,0,P|270:182|223:181,1,94.600002886963,10|2,0:0|1:0,0:0:0:0:
453,144,90277,6,0,P|470:210|473:262,1,94.600002886963,14|0,0:0|1:0,0:0:0:0:
265,95,90614,2,0,P|271:48|284:2,1,94.600002886963,10|0,0:0|1:0,0:0:0:0:
387,211,90951,1,10,0:0:0:0:
356,68,91120,1,2,1:0:0:0:
289,252,91288,1,8,0:0:0:0:
190,77,91457,6,0,P|134:63|97:67,1,94.600002886963,2|8,1:0|0:0,0:0:0:0:
275,267,91794,1,2,1:0:0:0:
336,88,91962,1,10,0:0:0:0:
180,183,92131,1,2,1:0:0:0:
180,183,92215,1,0,1:0:0:0:
180,183,92299,2,0,P|191:248|191:297,1,94.600002886963,10|2,0:0|1:0,0:0:0:0:
332,115,92637,1,10,0:0:0:0:
149,80,92805,1,2,1:0:0:0:
295,230,92974,6,0,P|363:231|402:213,1,94.600002886963,14|0,0:0|1:0,0:0:0:0:
236,44,93311,2,0,P|168:43|129:61,1,94.600002886963,10|0,0:0|1:0,0:0:0:0:
110,234,93648,1,10,0:0:0:0:
210,144,93816,1,2,1:0:0:0:
21,182,93985,1,8,0:0:0:0:
165,322,94153,6,0,P|184:261|202:224,1,94.600002886963,2|8,1:0|0:0,0:0:0:0:
65,101,94490,1,2,1:0:0:0:
11,290,94659,2,0,P|50:329|96:335,1,94.600002886963,8|2,0:0|0:0,0:0:0:0:
153,161,94996,1,2,1:0:0:0:
245,308,95165,1,8,0:0:0:0:
245,308,95249,1,8,0:0:0:0:
245,308,95333,2,0,P|254:327|264:361,3,47.3000014434815,8|8|8|8,0:0|0:0|0:0|0:0,0:0:0:0:
276,220,95670,6,0,P|328:200|377:199,1,94.600002886963,14|0,0:0|0:0,0:0:0:0:
151,344,96007,2,0,P|104:340|60:321,1,94.600002886963,10|0,0:0|1:0,0:0:0:0:
198,157,96344,1,10,0:0:0:0:
305,373,96513,2,0,P|323:314|341:279,1,94.600002886963,2|8,1:0|0:0,0:0:0:0:
332,90,96850,6,0,P|264:74|217:85,1,94.600002886963,2|8,1:0|0:0,0:0:0:0:
386,200,97187,1,2,1:0:0:0:
223,244,97356,1,10,0:0:0:0:
358,107,97524,1,2,1:0:0:0:
358,107,97608,1,0,1:0:0:0:
358,107,97693,2,0,P|383:47|383:7,1,94.600002886963,10|2,0:0|1:0,0:0:0:0:
245,219,98030,2,0,P|250:265|271:307,1,94.600002886963,10|2,0:0|1:0,0:0:0:0:
465,201,98367,6,0,P|392:195|358:184,1,94.600002886963,14|0,0:0|1:0,0:0:0:0:
257,338,98704,2,0,P|303:327|350:326,1,94.600002886963,10|0,0:0|1:0,0:0:0:0:
230,144,99041,1,10,0:0:0:0:
165,334,99210,2,0,P|140:278|141:237,1,94.600002886963,2|8,1:0|0:0,0:0:0:0:
259,123,99547,6,0,P|313:150|355:158,1,94.600002886963,2|8,1:0|0:0,0:0:0:0:
221,21,99884,1,2,1:0:0:0:
148,193,100052,1,10,0:0:0:0:
276,101,100221,1,2,1:0:0:0:
103,68,100389,2,0,P|49:99|30:138,1,94.600002886963,10|2,0:0|1:0,0:0:0:0:
166,286,100726,2,0,P|220:255|239:216,1,94.600002886963,10|2,0:0|1:0,0:0:0:0:
191,30,101064,6,0,P|187:88|175:142,1,94.600002886963,14|0,0:0|1:0,0:0:0:0:
329,186,101401,1,10,0:0:0:0:
285,41,101569,1,0,1:0:0:0:
259,248,101738,2,0,P|306:268|362:270,1,94.600002886963,10|2,0:0|1:0,0:0:0:0:
368,90,102075,1,8,0:0:0:0:
179,167,102243,6,0,P|150:228|151:270,1,94.600002886963,2|8,1:0|0:0,0:0:0:0:
310,345,102580,1,2,1:0:0:0:
310,345,102665,1,0,0:0:0:0:
310,345,102749,1,10,0:0:0:0:
274,165,102917,1,2,1:0:0:0:
199,331,103086,2,0,P|142:348|103:348,1,94.600002886963,10|2,0:0|1:0,0:0:0:0:
346,219,103423,2,0,P|393:221|437:236,1,94.600002886963,10|2,0:0|1:0,0:0:0:0:
201,227,103760,6,0,P|185:158|186:122,1,94.600002886963,14|0,0:0|1:0,0:0:0:0:
361,257,104097,2,0,P|358:304|344:349,1,94.600002886963,10|0,0:0|1:0,0:0:0:0:
277,161,104434,1,14,0:0:0:0:
446,153,104603,2,0,P|469:208|477:248,1,94.600002886963,2|8,1:0|0:0,0:0:0:0:
342,79,104940,6,0,P|281:62|226:64,1,94.600002886963,2|12,1:0|0:0,0:0:0:0:
89,85,105280,1,2,0:0:0:0:
271,162,105452,1,10,0:0:0:0:
85,56,105625,1,8,0:0:0:0:
199,267,105797,1,10,0:0:0:0:
256,34,105970,1,8,0:0:0:0:
36,180,106142,1,10,0:0:0:0:
297,186,106314,1,8,0:0:0:0:
141,0,106487,1,6,1:0:0:0:
