osu file format v14

[General]
AudioFilename: audio.mp3
AudioLeadIn: 0
PreviewTime: 62637
Countdown: 0
SampleSet: Soft
StackLeniency: 0.7
Mode: 0
LetterboxInBreaks: 0
WidescreenStoryboard: 1

[Editor]
DistanceSpacing: 1.4
BeatDivisor: 4
GridSize: 32
TimelineZoom: 1.2

[Metadata]
Title:Yume wa Jikuu o Koete
TitleUnicode:夢は時空を越えて
Artist:KISIDA KYODAN & THE AKEBOSI ROCKETS
ArtistUnicode:岸田教団&THE明星ロケッツ
Creator:SMOKELIND
Version:Hard
Source:東方夢時空 ~ Pantasmagria of Dim.Dream
Tags:Japanese JP Video Game J-Rock JRock Rock Ichigo TH ZUN Touhou 東方Project 3 Reitaisai 4 C85 Comiket 85 A Dream Transcending Across Space-time Fantasy Incident Yumemi Okazaki 岡崎 夢美 幻想事変 KISHIDA KYOUDAN AND AKEBOSHI Kowari iljaaz Reform Kujinn Xenon- Xehn Xen
BeatmapID:2101239
BeatmapSetID:1002336

[Difficulty]
HPDrainRate:4
CircleSize:3.4
OverallDifficulty:5.7
ApproachRate:7.7
SliderMultiplier:1.27
SliderTickRate:1

[Events]
//Background and Video events
0,0,"Nya.jpg",0,0
//Break Periods
//Storyboard Layer 0 (Background)
//Storyboard Layer 1 (Fail)
//Storyboard Layer 2 (Pass)
//Storyboard Layer 3 (Foreground)
//Storyboard Layer 4 (Overlay)
//Storyboard Sound Samples

[TimingPoints]
46,337.078651685393,4,2,7,77,1,0
6682,337.078651685393,4,2,7,77,1,0
6682,-114.942528735632,4,2,7,77,0,0
8030,-114.942528735632,4,2,7,77,0,0
18816,-103.092783505155,4,2,7,87,0,0
29603,-129.87012987013,4,2,7,57,0,0
51176,-114.942528735632,4,2,7,67,0,0
61962,-114.942528735632,4,2,7,77,0,0
63311,-93.4579439252336,4,2,7,97,0,0
84884,-103.092783505155,4,2,7,87,0,0
105108,344.827586206897,4,2,7,87,1,0
105108,-103.092783505155,4,2,7,87,0,0
106487,-100,4,2,7,77,0,0
106659,-1000,4,2,7,7,0,0

[Colours]
Combo1 : 188,121,255
Combo2 : 255,121,188
Combo3 : 255,121,121
Combo4 : 121,121,255

[HitObjects]
45,81,6682,6,0,L|108:87,1,55.2450004636345,8|0,0:0|1:0,0:0:0:0:
156,139,7019,2,0,L|210:133,1,55.2450004636345,8|0,0:0|1:0,0:0:0:0:
259,73,7356,2,0,L|313:78,1,55.2450004636345,8|0,0:0|1:0,0:0:0:0:
391,79,7693,1,8,3:0:0:0:
404,234,8030,6,0,P|345:247|279:269,1,110.490000927269,4|8,1:0|0:0,0:0:0:0:
252,324,8535,1,0,3:0:0:0:
252,324,8704,2,0,P|218:319|184:317,1,55.2450004636345,0|0,1:0|1:0,0:0:0:0:
128,353,9041,2,0,P|94:358|60:360,1,55.2450004636345,10|0,0:0|0:0,0:0:0:0:
34,292,9378,6,0,P|56:235|60:162,1,110.490000927269,2|8,1:0|0:0,0:0:0:0:
16,124,9884,1,0,1:0:0:0:
16,124,10052,2,0,P|22:95|35:66,1,55.2450004636345,0|2,0:0|1:0,0:0:0:0:
109,71,10389,2,0,P|146:51|183:45,1,55.2450004636345,10|0,0:0|0:0,0:0:0:0:
228,80,10726,6,0,P|211:130|199:201,2,110.490000927269,2|8|0,1:0|0:0|1:0,0:0:0:0:
305,59,11569,1,0,1:0:0:0:
305,59,11738,2,0,P|333:75|378:82,1,55.2450004636345,10|0,0:0|0:0,0:0:0:0:
422,118,12075,6,0,P|405:152|396:192,1,55.2450004636345,2|0,1:0|1:0,0:0:0:0:
342,220,12412,2,0,P|359:254|368:294,1,55.2450004636345,10|0,0:0|3:0,0:0:0:0:
325,337,12749,1,0,1:0:0:0:
325,337,12917,1,0,1:0:0:0:
399,357,13086,2,0,P|424:346|456:337,1,55.2450004636345,10|0,0:0|0:0,0:0:0:0:
476,264,13423,6,0,P|467:232|466:199,1,55.2450004636345,6|0,1:0|0:0,0:0:0:0:
417,149,13760,2,0,P|426:117|427:84,1,55.2450004636345,10|0,0:0|3:0,0:0:0:0:
364,50,14097,1,2,1:0:0:0:
364,50,14266,1,2,1:0:0:0:
303,97,14434,2,0,P|273:110|238:115,1,55.2450004636345,10|0,0:0|0:0,0:0:0:0:
196,59,14771,6,0,P|165:49|140:47,1,55.2450004636345,2|0,1:0|0:0,0:0:0:0:
73,83,15108,2,0,P|83:114|85:139,1,55.2450004636345,10|2,0:0|1:0,0:0:0:0:
28,190,15446,1,2,0:0:0:0:
28,190,15614,1,2,1:0:0:0:
90,235,15783,2,0,P|80:266|78:291,1,55.2450004636345,10|0,0:0|0:0,0:0:0:0:
118,354,16120,6,0,P|147:338|193:330,1,55.2450004636345,2|2,1:0|0:0,0:0:0:0:
235,293,16457,2,0,P|264:309|310:317,1,55.2450004636345,8|0,0:0|3:0,0:0:0:0:
350,272,16794,1,2,1:0:0:0:
350,272,16962,1,0,1:0:0:0:
364,195,17131,2,0,P|387:181|414:173,1,55.2450004636345,10|0,0:0|0:0,0:0:0:0:
475,220,17468,6,0,L|483:256,3,27.6225002318172,2|8|0|8,1:0|3:0|3:0|0:0,0:0:0:0:
446,265,17805,2,0,L|454:301,3,27.6225002318172,8|0|8|8,0:0|3:0|0:0|0:0,0:0:0:0:
418,311,18142,1,4,1:0:0:0:
418,311,18816,6,0,P|382:313|334:323,1,61.595001456791,14|0,0:0|0:0,0:0:0:0:
280,360,19153,2,0,P|249:358|219:351,1,61.595001456791,10|0,0:0|1:0,0:0:0:0:
150,298,19490,1,10,0:0:0:0:
150,298,19659,2,0,L|141:237,1,61.595001456791,2|8,1:0|0:0,0:0:0:0:
214,190,19996,6,0,L|222:129,1,61.595001456791,2|8,1:0|0:0,0:0:0:0:
229,42,20333,1,2,1:0:0:0:
229,42,20502,2,0,B|308:54|268:102|380:102,1,123.190002913582,10|10,0:0|0:0,0:0:0:0:
413,62,21007,1,2,1:0:0:0:
413,62,21176,2,0,P|426:101|429:153,1,61.595001456791,10|2,0:0|1:0,0:0:0:0:
411,205,21513,6,0,P|347:239|319:265,1,61.595001456791,14|0,0:0|1:0,0:0:0:0:
300,298,21850,2,0,P|236:264|208:238,1,61.595001456791,10|0,0:0|1:0,0:0:0:0:
191,202,22187,1,10,0:0:0:0:
191,202,22356,2,0,P|127:236|99:262,1,61.595001456791,2|8,1:0|0:0,0:0:0:0:
67,282,22693,6,0,P|48:214|34:172,1,61.595001456791,2|8,1:0|0:0,0:0:0:0:
95,148,23030,1,2,1:0:0:0:
95,148,23198,2,0,P|102:118|111:88,1,61.595001456791,10|2,0:0|1:0,0:0:0:0:
183,40,23535,2,0,P|216:52|259:57,1,61.595001456791,10|2,0:0|1:0,0:0:0:0:
322,23,23873,1,10,0:0:0:0:
322,23,24041,1,2,1:0:0:0:
391,73,24210,6,0,P|417:151|419:180,1,61.595001456791,14|0,0:0|1:0,0:0:0:0:
356,195,24547,2,0,P|320:211|255:224,1,61.595001456791,10|0,0:0|1:0,0:0:0:0:
247,287,24884,1,10,0:0:0:0:
247,287,25052,2,0,P|276:296|304:309,1,61.595001456791,2|8,1:0|0:0,0:0:0:0:
368,366,25389,6,0,P|395:352|425:343,1,61.595001456791,2|8,1:0|0:0,0:0:0:0:
474,272,25726,1,2,1:0:0:0:
474,272,25895,2,0,P|483:234|489:190,1,61.595001456791,10|2,0:0|1:0,0:0:0:0:
430,145,26232,2,0,P|421:107|415:63,1,61.595001456791,10|2,0:0|1:0,0:0:0:0:
350,30,26569,1,10,0:0:0:0:
350,30,26738,1,2,1:0:0:0:
286,87,26906,6,0,P|260:80|208:75,1,61.595001456791,14|0,0:0|1:0,0:0:0:0:
169,141,27243,2,0,P|139:148|108:152,1,61.595001456791,10|0,0:0|1:0,0:0:0:0:
72,230,27580,1,10,0:0:0:0:
72,230,27749,2,0,P|102:233|132:241,1,61.595001456791,2|8,1:0|0:0,0:0:0:0:
195,300,28086,6,0,P|224:292|255:288,1,61.595001456791,2|10,0:0|0:0,0:0:0:0:
328,336,28423,1,2,0:0:0:0:
328,336,28592,2,0,P|349:301|354:263,1,61.595001456791,10|8,0:0|0:0,0:0:0:0:
325,199,28929,1,10,0:0:0:0:
325,199,29097,1,10,0:0:0:0:
374,128,29266,1,10,0:0:0:0:
268,41,29603,6,0,P|229:64|166:83,2,97.789998060196,6|8|2,1:0|0:0|1:0,0:0:0:0:
351,30,30446,1,0,0:0:0:0:
351,30,30614,2,0,L|414:42,1,48.894999030098,10|0,0:0|0:0,0:0:0:0:
422,118,30951,2,0,L|359:130,1,48.894999030098,2|0,1:0|0:0,0:0:0:0:
335,200,31288,2,0,L|398:212,1,48.894999030098,10|0,0:0|0:0,0:0:0:0:
406,288,31625,2,0,L|343:300,1,48.894999030098,2|0,1:0|1:0,0:0:0:0:
298,355,31962,2,0,L|249:345,1,48.894999030098,10|0,0:0|0:0,0:0:0:0:
167,334,32299,6,0,P|161:301|155:265,1,48.894999030098,2|0,1:0|0:0,0:0:0:0:
99,226,32637,2,0,P|104:193|111:157,1,48.894999030098,10|0,0:0|0:0,0:0:0:0:
155,110,32974,2,0,P|180:124|260:149,1,97.789998060196,2|8,1:0|0:0,0:0:0:0:
328,149,33479,1,2,0:0:0:0:
328,149,33648,2,0,P|311:207|299:257,2,97.789998060196,2|8|2,1:0|0:0|1:0,0:0:0:0:
387,90,34490,1,0,1:0:0:0:
387,90,34659,2,0,P|350:69|326:65,1,48.894999030098,8|0,0:0|0:0,0:0:0:0:
261,73,34996,6,0,P|237:84|200:92,1,48.894999030098,6|0,1:0|0:0,0:0:0:0:
162,26,35333,2,0,P|140:14|116:8,1,48.894999030098,10|0,0:0|0:0,0:0:0:0:
56,65,35670,2,0,P|85:122|103:172,1,97.789998060196,2|8,1:0|0:0,0:0:0:0:
53,224,36176,1,0,0:0:0:0:
53,224,36344,2,0,P|43:246|37:285,1,48.894999030098,2|0,1:0|0:0,0:0:0:0:
74,345,36681,2,0,P|100:334|137:326,1,48.894999030098,10|0,0:0|0:0,0:0:0:0:
200,352,37019,2,0,P|222:361|245:368,1,48.894999030098,2|0,1:0|1:0,0:0:0:0:
300,305,37356,2,0,P|322:295|345:288,1,48.894999030098,10|0,0:0|0:0,0:0:0:0:
418,330,37693,6,0,P|430:277|452:221,1,97.789998060196,2|8,1:0|0:0,0:0:0:0:
423,156,38198,2,0,P|455:148|482:151,2,48.894999030098,0|0|0,0:0|1:0|1:0,0:0:0:0:
363,213,38704,2,0,P|338:212|315:205,1,48.894999030098,8|0,0:0|0:0,0:0:0:0:
275,132,39041,2,0,P|249:119|176:136,1,97.789998060196,0|8,1:0|0:0,0:0:0:0:
141,200,39547,1,0,3:0:0:0:
143,214,39631,1,0,3:0:0:0:
145,228,39715,2,0,P|143:257|136:293,1,48.894999030098,0|8,1:0|0:0,0:0:0:0:
109,354,40052,2,0,P|134:365|173:369,1,48.894999030098,8|0,0:0|0:0,0:0:0:0:
206,303,40389,6,0,P|251:274|300:262,1,97.789998060196,6|8,1:0|0:0,0:0:0:0:
366,303,40895,1,0,0:0:0:0:
366,303,41064,2,0,P|370:271|381:237,1,48.894999030098,2|0,1:0|1:0,0:0:0:0:
439,202,41401,2,0,P|435:177|430:153,1,48.894999030098,10|0,0:0|0:0,0:0:0:0:
378,88,41738,2,0,P|355:103|322:113,1,48.894999030098,2|0,1:0|0:0,0:0:0:0:
278,48,42075,2,0,P|257:34|234:25,1,48.894999030098,10|0,0:0|0:0,0:0:0:0:
178,86,42412,2,0,P|155:101|122:111,1,48.894999030098,2|0,1:0|1:0,0:0:0:0:
78,46,42749,2,0,P|57:32|34:23,1,48.894999030098,10|0,0:0|0:0,0:0:0:0:
1,100,43086,6,0,P|12:125|22:165,1,48.894999030098,2|0,1:0|0:0,0:0:0:0:
93,181,43423,2,0,P|82:206|72:246,1,48.894999030098,10|0,0:0|0:0,0:0:0:0:
94,307,43760,2,0,P|140:284|202:275,1,97.789998060196,2|8,1:0|0:0,0:0:0:0:
255,319,44266,1,0,0:0:0:0:
255,319,44434,2,0,P|301:342|363:351,2,97.789998060196,2|8|2,1:0|0:0|1:0,0:0:0:0:
257,235,45277,1,0,1:0:0:0:
257,235,45446,2,0,P|267:205|274:172,1,48.894999030098,8|0,0:0|0:0,0:0:0:0:
252,107,45783,6,0,P|225:98|185:91,1,48.894999030098,2|0,1:0|0:0,0:0:0:0:
137,45,46120,2,0,P|113:50|90:58,1,48.894999030098,10|0,0:0|0:0,0:0:0:0:
29,115,46457,2,0,P|11:88|1:50,2,48.894999030098,2|0|8,1:0|1:0|0:0,0:0:0:0:
106,143,46962,1,0,0:0:0:0:
106,143,47131,2,0,P|96:169|92:207,1,48.894999030098,2|0,1:0|0:0,0:0:0:0:
171,216,47468,2,0,P|181:242|185:280,1,48.894999030098,10|0,0:0|0:0,0:0:0:0:
184,346,47805,2,0,P|207:341|230:332,1,48.894999030098,2|0,1:0|1:0,0:0:0:0:
273,261,48142,2,0,P|296:265|319:274,1,48.894999030098,10|0,0:0|0:0,0:0:0:0:
382,329,48479,6,0,P|407:284|401:217,1,97.789998060196,2|8,1:0|0:0,0:0:0:0:
362,168,48985,1,0,0:0:0:0:
362,168,49153,2,0,P|336:159|296:152,1,48.894999030098,0|0,1:0|1:0,0:0:0:0:
252,99,49490,2,0,P|226:108|186:115,1,48.894999030098,8|0,0:0|0:0,0:0:0:0:
124,90,49828,1,0,1:0:0:0:
124,90,49996,1,0,1:0:0:0:
65,148,50165,2,0,P|73:171|84:207,1,48.894999030098,8|0,0:0|0:0,0:0:0:0:
144,247,50502,2,0,P|136:270|125:306,1,48.894999030098,8|0,0:0|3:0,0:0:0:0:
186,353,50839,2,0,L|214:346,3,24.447499515049,8|8|8|8,3:0|3:0|3:0|3:0,0:0:0:0:
243,313,51176,6,0,P|279:318|319:329,1,55.2450004636345,6|0,1:0|0:0,0:0:0:0:
375,293,51513,2,0,P|359:228|351:171,1,110.490000927269,2|10,1:0|0:0,0:0:0:0:
291,120,52019,1,2,0:0:0:0:
295,124,52187,2,0,P|260:105|227:103,1,55.2450004636345,2|8,1:0|3:0,0:0:0:0:
207,121,52440,5,8,3:0:0:0:
204,136,52524,2,0,P|231:184|245:246,2,110.490000927269,10|2|10,3:0|1:0|0:0,0:0:0:0:
119,110,53367,1,2,0:0:0:0:
123,114,53535,2,0,P|84:98|46:94,1,55.2450004636345,2|8,1:0|0:0,0:0:0:0:
18,160,53873,5,10,0:0:0:0:
18,160,54041,1,8,0:0:0:0:
92,197,54210,2,0,P|114:245|128:305,1,110.490000927269,2|10,1:0|0:0,0:0:0:0:
190,353,54715,1,2,0:0:0:0:
190,353,54884,2,0,P|227:329|247:322,1,55.2450004636345,2|8,1:0|0:0,0:0:0:0:
319,338,55221,6,0,P|348:347|389:351,2,55.2450004636345,2|2|2,1:0|0:0|1:0,0:0:0:0:
284,257,55726,1,2,0:0:0:0:
288,261,55895,2,0,P|304:230|308:195,1,55.2450004636345,8|2,0:0|0:0,0:0:0:0:
288,172,56148,1,8,0:0:0:0:
279,159,56232,2,0,P|244:156|203:148,1,55.2450004636345,2|8,1:0|0:0,0:0:0:0:
145,127,56569,6,0,P|128:68|119:5,2,110.490000927269,6|2|10,1:0|1:0|0:0,0:0:0:0:
84,183,57412,1,2,0:0:0:0:
84,183,57580,2,0,P|71:222|65:256,1,55.2450004636345,2|0,1:0|0:0,0:0:0:0:
100,312,57917,6,0,P|129:296|160:289,1,55.2450004636345,2|0,1:0|0:0,0:0:0:0:
208,349,58255,2,0,P|237:365|268:372,1,55.2450004636345,2|0,1:0|0:0,0:0:0:0:
297,297,58592,2,0,P|286:264|284:227,2,55.2450004636345,10|2|2,0:0|0:0|1:0,0:0:0:0:
343,365,59097,5,2,0:0:0:0:
343,365,59266,2,0,P|374:338|445:294,1,110.490000927269,6|0,1:0|1:0,0:0:0:0:
426,218,59771,1,0,0:0:0:0:
426,218,59940,2,0,P|375:203|300:188,1,110.490000927269,8|0,0:0|1:0,0:0:0:0:
156,159,60614,6,0,L|169:67,1,73.6600006181793,2|2,1:0|0:0,0:0:0:0:
215,59,60951,2,0,P|262:42|337:61,1,110.490000927269,0|10,1:0|0:0,0:0:0:0:
388,99,61457,1,0,1:0:0:0:
392,103,61625,2,0,P|379:130|367:166,1,55.2450004636345,14|2,0:0|0:0,0:0:0:0:
417,222,61962,5,6,0:0:0:0:
286,309,62299,1,4,0:0:0:0:
167,208,62637,2,0,L|171:180,3,27.6225002318172,8|8|8|8,3:0|3:0|3:0|3:0,0:0:0:0:
198,153,62974,5,8,0:0:0:0:
198,153,63311,6,0,P|233:163|279:168,1,67.9449979264832,14|2,0:0|0:0,0:0:0:0:
319,64,63648,2,0,P|351:54|385:49,1,67.9449979264832,10|0,0:0|1:0,0:0:0:0:
475,79,63985,2,0,P|465:111|460:145,1,67.9449979264832,8|0,0:0|1:0,0:0:0:0:
379,195,64322,2,0,P|388:227|393:261,1,67.9449979264832,10|0,0:0|1:0,0:0:0:0:
340,340,64659,5,10,0:0:0:0:
267,278,64828,1,2,1:0:0:0:
190,334,64996,2,0,P|155:360|106:360,1,67.9449979264832,10|0,0:0|1:0,0:0:0:0:
52,310,65333,1,10,0:0:0:0:
130,255,65502,1,2,1:0:0:0:
55,196,65670,1,10,0:0:0:0:
138,149,65839,1,2,1:0:0:0:
67,85,66007,6,0,P|126:43|197:47,1,135.889995852966,14|8,0:0|0:0,0:0:0:0:
237,124,66513,1,2,1:0:0:0:
322,164,66681,2,0,P|351:147|394:139,1,67.9449979264832,10|0,0:0|1:0,0:0:0:0:
446,66,67019,2,0,P|417:49|374:41,1,67.9449979264832,8|0,0:0|1:0,0:0:0:0:
293,72,67356,2,0,P|263:89|230:96,1,67.9449979264832,8|0,0:0|1:0,0:0:0:0:
168,24,67693,2,0,P|138:6|105:0,1,67.9449979264832,8|0,0:0|1:0,0:0:0:0:
35,63,68030,1,10,0:0:0:0:
118,108,68198,1,2,1:0:0:0:
44,168,68367,1,10,0:0:0:0:
126,214,68535,1,2,1:0:0:0:
59,282,68704,6,0,P|91:297|134:302,1,67.9449979264832,14|2,0:0|1:0,0:0:0:0:
208,259,69041,2,0,P|238:244|271:238,1,67.9449979264832,10|0,0:0|1:0,0:0:0:0:
341,302,69378,2,0,P|371:317|404:323,1,67.9449979264832,8|0,0:0|1:0,0:0:0:0:
483,269,69715,2,0,P|498:238|504:205,1,67.9449979264832,10|0,0:0|1:0,0:0:0:0:
468,116,70052,5,10,0:0:0:0:
386,66,70221,1,2,1:0:0:0:
340,149,70389,2,0,P|306:168|266:171,1,67.9449979264832,10|0,0:0|1:0,0:0:0:0:
209,105,70726,1,10,0:0:0:0:
153,182,70895,1,2,1:0:0:0:
117,93,71064,2,0,P|83:74|43:71,1,67.9449979264832,10|2,0:0|1:0,0:0:0:0:
11,155,71401,6,0,P|33:204|62:292,1,135.889995852966,14|8,0:0|0:0,0:0:0:0:
131,342,71906,1,0,1:0:0:0:
197,273,72075,2,0,L|271:260,1,67.9449979264832,8|0,0:0|1:0,0:0:0:0:
310,177,72412,2,0,L|236:164,1,67.9449979264832,8|0,0:0|1:0,0:0:0:0:
182,91,72749,6,0,L|341:61,2,135.889995852966,12|8|10,0:0|0:0|3:0,0:0:0:0:
92,58,73592,1,10,0:0:0:0:
85,69,73676,1,8,0:0:0:0:
81,82,73760,2,0,L|72:140,3,33.9724989632416,10|8|8|8,0:0|0:0|0:0|0:0,0:0:0:0:
41,149,74097,6,0,P|59:211|63:241,1,67.9449979264832,14|2,0:0|0:0,0:0:0:0:
140,265,74434,2,0,P|147:231|158:199,1,67.9449979264832,10|0,0:0|1:0,0:0:0:0:
211,120,74771,2,0,P|246:144|297:153,1,67.9449979264832,8|0,0:0|1:0,0:0:0:0:
332,79,75108,2,0,P|359:58|391:47,1,67.9449979264832,10|0,0:0|1:0,0:0:0:0:
476,90,75446,5,10,0:0:0:0:
414,161,75614,1,2,1:0:0:0:
472,236,75783,2,0,P|487:270|490:312,1,67.9449979264832,10|0,0:0|1:0,0:0:0:0:
407,346,76120,1,10,0:0:0:0:
360,263,76288,1,2,1:0:0:0:
290,328,76457,1,10,0:0:0:0:
228,255,76625,1,2,1:0:0:0:
144,300,76794,6,0,P|129:238|107:164,1,135.889995852966,14|8,0:0|0:0,0:0:0:0:
52,92,77299,1,2,1:0:0:0:
147,86,77468,2,0,P|179:70|215:59,1,67.9449979264832,10|0,0:0|1:0,0:0:0:0:
256,143,77805,2,0,P|288:153|318:168,1,67.9449979264832,8|0,0:0|1:0,0:0:0:0:
401,216,78142,2,0,P|379:250|370:293,1,67.9449979264832,8|0,0:0|1:0,0:0:0:0:
294,332,78479,2,0,P|283:299|264:271,1,67.9449979264832,8|0,0:0|1:0,0:0:0:0:
178,229,78816,1,10,0:0:0:0:
240,156,78985,1,2,1:0:0:0:
159,106,79153,1,10,0:0:0:0:
221,34,79322,1,2,1:0:0:0:
304,78,79490,6,0,L|387:93,1,67.9449979264832,14|2,0:0|1:0,0:0:0:0:
430,165,79828,2,0,L|347:180,1,67.9449979264832,10|0,0:0|1:0,0:0:0:0:
304,252,80165,2,0,L|316:318,1,67.9449979264832,8|0,0:0|1:0,0:0:0:0:
411,325,80503,2,0,L|423:258,1,67.9449979264832,10|0,0:0|1:0,0:0:0:0:
430,165,80839,5,10,0:0:0:0:
354,108,81007,1,2,1:0:0:0:
276,163,81176,2,0,P|240:153|191:145,1,67.9449979264832,10|0,0:0|1:0,0:0:0:0:
119,177,81513,1,10,0:0:0:0:
154,265,81681,1,2,1:0:0:0:
58,262,81850,1,10,0:0:0:0:
82,354,82019,1,2,1:0:0:0:
174,376,82187,6,0,P|212:358|304:343,1,135.889995852966,14|8,0:0|0:0,0:0:0:0:
397,362,82693,1,0,1:0:0:0:
363,273,82861,2,0,P|341:235|335:198,1,67.9449979264832,8|0,0:0|1:0,0:0:0:0:
407,148,83198,2,0,P|429:110|435:73,1,67.9449979264832,8|0,0:0|1:0,0:0:0:0:
359,26,83535,6,0,P|314:56|211:74,1,135.889995852966,8|8,0:0|0:0,0:0:0:0:
143,49,84041,1,8,0:0:0:0:
83,123,84210,1,10,0:0:0:0:
170,160,84378,1,10,0:0:0:0:
100,225,84547,1,10,0:0:0:0:
187,261,84715,1,10,0:0:0:0:
120,316,84884,6,0,L|54:325,1,61.595001456791,14|0,0:0|0:0,0:0:0:0:
187,261,85221,2,0,L|253:270,1,61.595001456791,10|0,0:0|1:0,0:0:0:0:
296,340,85558,1,10,0:0:0:0:
296,340,85726,2,0,L|357:331,1,61.595001456791,2|8,1:0|0:0,0:0:0:0:
423,275,86064,6,0,P|430:237|447:198,1,61.595001456791,2|8,1:0|0:0,0:0:0:0:
487,144,86401,1,2,1:0:0:0:
487,144,86569,2,0,P|438:176|351:189,1,123.190002913582,10|10,0:0|0:0,0:0:0:0:
318,125,87075,1,2,1:0:0:0:
318,125,87243,2,0,P|276:105|235:103,1,61.595001456791,10|2,0:0|1:0,0:0:0:0:
191,153,87580,6,0,P|199:181|205:214,1,61.595001456791,14|0,0:0|1:0,0:0:0:0:
275,262,87917,2,0,P|280:231|288:202,1,61.595001456791,10|0,0:0|1:0,0:0:0:0:
352,142,88255,1,10,0:0:0:0:
352,142,88423,2,0,P|346:111|338:82,1,61.595001456791,2|8,1:0|0:0,0:0:0:0:
256,52,88760,6,0,P|225:68|189:74,1,61.595001456791,2|8,1:0|0:0,0:0:0:0:
117,45,89097,1,2,1:0:0:0:
117,45,89266,2,0,P|99:73|88:116,1,61.595001456791,10|2,0:0|1:0,0:0:0:0:
41,170,89603,2,0,P|59:198|70:241,1,61.595001456791,10|2,0:0|1:0,0:0:0:0:
40,306,89940,2,0,P|58:321|107:330,1,61.595001456791,10|2,0:0|1:0,0:0:0:0:
153,267,90277,6,0,P|171:252|220:243,1,61.595001456791,14|0,0:0|1:0,0:0:0:0:
267,303,90614,2,0,P|285:318|334:327,1,61.595001456791,10|0,0:0|1:0,0:0:0:0:
390,276,90951,1,10,0:0:0:0:
390,276,91120,2,0,P|397:234|406:204,1,61.595001456791,2|8,1:0|0:0,0:0:0:0:
474,167,91457,6,0,P|466:137|461:106,1,61.595001456791,2|8,1:0|0:0,0:0:0:0:
416,32,91794,1,2,1:0:0:0:
416,32,91962,2,0,P|363:11|290:0,1,123.190002913582,10|10,0:0|0:0,0:0:0:0:
222,41,92468,1,2,1:0:0:0:
222,41,92637,2,0,P|210:75|210:110,1,61.595001456791,10|2,0:0|1:0,0:0:0:0:
265,165,92974,6,0,P|258:195|247:223,1,61.595001456791,14|0,0:0|1:0,0:0:0:0:
170,264,93311,2,0,P|139:270|111:281,1,61.595001456791,10|0,0:0|1:0,0:0:0:0:
63,353,93648,1,10,0:0:0:0:
63,353,93816,2,0,P|91:363|121:370,1,61.595001456791,2|8,1:0|0:0,0:0:0:0:
208,361,94153,6,0,P|236:350|266:344,1,61.595001456791,2|8,1:0|0:0,0:0:0:0:
352,354,94490,1,2,1:0:0:0:
352,354,94659,2,0,L|371:268,1,61.595001456791,8|2,0:0|0:0,0:0:0:0:
439,249,94996,2,0,L|420:163,1,61.595001456791,2|8,1:0|0:0,0:0:0:0:
396,156,95249,1,8,0:0:0:0:
386,148,95333,2,0,L|393:104,3,30.7975007283955,8|8|8|8,0:0|0:0|0:0|0:0,0:0:0:0:
360,86,95670,6,0,P|332:104|285:113,1,61.595001456791,14|0,0:0|0:0,0:0:0:0:
245,49,96007,2,0,P|217:31|170:22,1,61.595001456791,10|0,0:0|1:0,0:0:0:0:
120,74,96344,1,10,0:0:0:0:
120,74,96513,2,0,P|143:102|151:142,1,61.595001456791,2|8,1:0|0:0,0:0:0:0:
83,180,96850,6,0,P|60:208|52:248,1,61.595001456791,2|8,1:0|0:0,0:0:0:0:
89,310,97187,1,2,1:0:0:0:
89,310,97356,2,0,P|127:327|213:320,1,123.190002913582,10|10,0:0|0:0,0:0:0:0:
251,248,97861,1,2,1:0:0:0:
251,248,98030,2,0,P|292:216|328:213,1,61.595001456791,10|2,0:0|1:0,0:0:0:0:
378,250,98367,6,0,L|397:182,1,61.595001456791,14|0,0:0|1:0,0:0:0:0:
477,167,98704,2,0,L|458:99,1,61.595001456791,10|0,0:0|1:0,0:0:0:0:
394,51,99041,1,10,0:0:0:0:
394,51,99210,2,0,L|326:70,1,61.595001456791,2|8,1:0|0:0,0:0:0:0:
273,128,99547,6,0,L|213:111,1,61.595001456791,2|8,1:0|0:0,0:0:0:0:
128,93,99884,1,2,1:0:0:0:
128,93,100052,2,0,P|139:124|146:165,1,61.595001456791,10|2,0:0|1:0,0:0:0:0:
212,205,100389,2,0,P|200:236|194:277,1,61.595001456791,10|2,0:0|1:0,0:0:0:0:
164,344,100726,2,0,P|112:324|85:326,1,61.595001456791,10|2,0:0|1:0,0:0:0:0:
21,341,101064,6,0,P|28:317|38:278,1,61.595001456791,14|0,0:0|1:0,0:0:0:0:
46,195,101401,2,0,P|38:171|29:132,1,61.595001456791,10|0,0:0|1:0,0:0:0:0:
57,53,101738,1,10,0:0:0:0:
57,53,101906,2,0,P|92:65|128:67,1,61.595001456791,2|8,1:0|0:0,0:0:0:0:
188,115,102243,6,0,P|223:103|259:101,1,61.595001456791,2|8,1:0|0:0,0:0:0:0:
327,133,102580,1,2,1:0:0:0:
327,133,102749,2,0,P|317:166|314:207,1,61.595001456791,10|2,0:0|1:0,0:0:0:0:
391,230,103086,2,0,P|400:259|404:289,1,61.595001456791,10|2,0:0|1:0,0:0:0:0:
350,357,103423,2,0,P|323:332|283:323,1,61.595001456791,10|2,0:0|1:0,0:0:0:0:
214,309,103760,6,0,P|180:328|146:337,1,61.595001456791,14|0,0:0|1:0,0:0:0:0:
75,359,104097,2,0,P|45:349|19:333,1,61.595001456791,10|0,0:0|1:0,0:0:0:0:
28,247,104434,1,14,0:0:0:0:
28,247,104603,2,0,P|41:213|44:180,1,61.595001456791,2|8,1:0|0:0,0:0:0:0:
21,99,104940,5,2,1:0:0:0:
25,103,105108,2,0,P|61:66|93:57,1,61.595001456791,12|2,0:0|0:0,0:0:0:0:
149,93,105452,1,10,0:0:0:0:
173,175,105625,1,8,0:0:0:0:
242,124,105797,1,10,0:0:0:0:
286,198,105970,1,8,0:0:0:0:
342,133,106142,2,0,L|405:121,1,61.595001456791,10|8,0:0|0:0,0:0:0:0:
463,182,106487,1,6,1:0:0:0:
