osu file format v14

[General]
AudioFilename: audio.mp3
AudioLeadIn: 0
PreviewTime: 54570
Countdown: 0
SampleSet: Normal
StackLeniency: 0.7
Mode: 3
LetterboxInBreaks: 0
SpecialStyle: 0
WidescreenStoryboard: 0

[Editor]
DistanceSpacing: 1.2
BeatDivisor: 4
GridSize: 16
TimelineZoom: 1.1

[Metadata]
Title:Tenkyou no Alderamin -TV-size
TitleUnicode:天鏡のアルデラミン -TV-size
Artist:KISIDA KYODAN & THE AKEBOSI ROCKETS
ArtistUnicode:岸田教団&THE明星ロケッツ
Creator:Maxus
Version:Easy
Source:ねじ巻き精霊戦記 天鏡のアルデラミン
Tags:Dellvangel Alderamin on the Sky Bokuto Uno Military Fantasy Forces Fight 1st Opening Season
BeatmapID:1144019
BeatmapSetID:501877

[Difficulty]
HPDrainRate:7
CircleSize:4
OverallDifficulty:7
ApproachRate:5
SliderMultiplier:1.4
SliderTickRate:1

[Events]
//Background and Video events
0,0,"Tenkyou+no+Alderamin.jpg",0,0
//Break Periods
//Storyboard Layer 0 (Background)
//Storyboard Layer 1 (Fail)
//Storyboard Layer 2 (Pass)
//Storyboard Layer 3 (Foreground)
//Storyboard Sound Samples

[TimingPoints]
53,304.568527918782,4,1,1,30,1,0
54875,-100,4,1,1,30,0,1
64012,-100,4,1,1,30,0,0
64621,-100,4,1,1,30,0,1
73149,-100,4,1,1,30,0,0

[HitObjects]
448,192,53,128,2,205:0:0:0:0:
64,192,205,1,12,0:0:0:0:
320,192,509,1,12,0:0:0:0:
192,192,814,1,0,0:0:0:0:
320,192,966,1,2,0:0:0:0:
448,192,1271,1,0,0:0:0:0:
64,192,1423,1,0,0:0:0:0:
320,192,1728,1,0,0:0:0:0:
192,192,1880,1,2,0:0:0:0:
320,192,2184,128,2,2641:0:0:0:0:
192,192,2641,1,12,0:0:0:0:
448,192,2946,1,12,0:0:0:0:
64,192,3250,128,2,3707:0:0:0:0:
320,192,3707,1,6,0:0:0:0:
448,192,4012,128,2,4316:0:0:0:0:
64,192,4316,1,6,0:0:0:0:
192,192,5230,1,2,0:0:0:0:
320,192,5382,1,6,0:0:0:0:
448,192,5687,128,2,6144:0:0:0:0:
64,192,6144,1,2,0:0:0:0:
192,192,6144,1,4,0:0:0:0:
320,192,6601,1,8,0:0:0:0:
192,192,6905,1,2,0:0:0:0:
448,192,7210,1,8,0:0:0:0:
64,192,7514,1,2,0:0:0:0:
448,192,7819,1,8,0:0:0:0:
192,192,8124,1,2,0:0:0:0:
320,192,8428,1,8,0:0:0:0:
64,192,8580,1,12,0:0:0:0:
448,192,8733,1,2,0:0:0:0:
192,192,9037,1,8,0:0:0:0:
448,192,9342,1,2,0:0:0:0:
64,192,9646,1,8,0:0:0:0:
320,192,9951,1,2,0:0:0:0:
64,192,10256,1,8,0:0:0:0:
448,192,10560,128,2,11017:0:0:0:0:
192,192,11017,1,2,0:0:0:0:
64,192,11017,1,4,0:0:0:0:
320,192,11474,1,8,0:0:0:0:
64,192,11778,1,2,0:0:0:0:
192,192,12083,1,8,0:0:0:0:
448,192,12388,1,2,0:0:0:0:
320,192,12692,1,8,0:0:0:0:
64,192,12997,1,2,0:0:0:0:
448,192,13301,1,8,0:0:0:0:
192,192,13454,1,6,0:0:0:0:
320,192,13606,1,2,0:0:0:0:
64,192,13910,1,8,0:0:0:0:
192,192,14215,1,2,0:0:0:0:
448,192,14520,1,8,0:0:0:0:
320,192,14672,1,10,0:0:0:0:
64,192,14976,1,10,0:0:0:0:
448,192,15281,1,10,0:0:0:0:
192,192,15585,1,10,0:0:0:0:
320,192,15890,1,4,0:0:0:0:
448,192,15890,1,8,0:0:0:0:
64,192,16195,1,2,0:0:0:0:
448,192,16347,1,8,0:0:0:0:
320,192,16651,1,2,0:0:0:0:
64,192,16804,1,2,0:0:0:0:
448,192,16956,1,8,0:0:0:0:
192,192,17108,1,2,0:0:0:0:
448,192,17413,1,2,0:0:0:0:
64,192,17565,1,8,0:0:0:0:
192,192,17870,1,2,0:0:0:0:
320,192,18022,1,2,0:0:0:0:
64,192,18174,1,8,0:0:0:0:
192,192,18327,1,4,0:0:0:0:
448,192,18631,1,2,0:0:0:0:
320,192,18783,1,8,0:0:0:0:
192,192,19088,1,2,0:0:0:0:
320,192,19240,1,2,0:0:0:0:
448,192,19393,1,8,0:0:0:0:
64,192,19545,1,2,0:0:0:0:
320,192,19849,1,2,0:0:0:0:
192,192,20002,1,8,0:0:0:0:
448,192,20306,1,2,0:0:0:0:
320,192,20459,1,2,0:0:0:0:
64,192,20611,1,8,0:0:0:0:
448,192,20763,1,6,0:0:0:0:
192,192,21068,1,2,0:0:0:0:
320,192,21220,1,8,0:0:0:0:
64,192,21525,1,2,0:0:0:0:
192,192,21677,1,2,0:0:0:0:
448,192,21829,1,8,0:0:0:0:
64,192,21981,1,2,0:0:0:0:
64,192,22286,1,2,0:0:0:0:
448,192,22438,1,8,0:0:0:0:
192,192,22743,1,2,0:0:0:0:
448,192,22895,1,2,0:0:0:0:
64,192,23047,1,8,0:0:0:0:
320,192,23200,1,6,0:0:0:0:
192,192,23504,1,2,0:0:0:0:
448,192,23657,1,8,0:0:0:0:
320,192,23961,1,2,0:0:0:0:
64,192,24113,1,2,0:0:0:0:
192,192,24266,1,8,0:0:0:0:
448,192,24418,1,2,0:0:0:0:
320,192,24723,1,2,0:0:0:0:
320,192,25027,1,2,0:0:0:0:
64,192,25179,1,8,0:0:0:0:
448,192,25484,1,8,0:0:0:0:
192,192,25636,1,2,0:0:0:0:
64,192,25636,1,4,0:0:0:0:
320,192,25941,1,2,0:0:0:0:
448,192,26093,1,8,0:0:0:0:
64,192,26398,1,0,0:0:0:0:
320,192,26550,1,2,0:0:0:0:
448,192,26702,1,8,0:0:0:0:
192,192,26855,1,2,0:0:0:0:
320,192,27159,1,2,0:0:0:0:
64,192,27311,1,8,0:0:0:0:
448,192,27768,1,2,0:0:0:0:
320,192,27921,1,8,0:0:0:0:
64,192,28073,1,2,0:0:0:0:
192,192,28377,1,2,0:0:0:0:
320,192,28530,1,8,0:0:0:0:
448,192,28987,1,2,0:0:0:0:
192,192,29139,1,8,0:0:0:0:
320,192,29291,1,2,0:0:0:0:
64,192,29596,1,2,0:0:0:0:
448,192,29748,1,8,0:0:0:0:
320,192,30205,1,2,0:0:0:0:
64,192,30357,1,8,0:0:0:0:
448,192,30509,1,6,0:0:0:0:
320,192,30814,1,2,0:0:0:0:
192,192,30966,1,8,0:0:0:0:
448,192,31423,1,2,0:0:0:0:
64,192,31575,1,8,0:0:0:0:
448,192,31728,1,2,0:0:0:0:
320,192,32032,1,2,0:0:0:0:
192,192,32184,1,8,0:0:0:0:
64,192,32641,1,2,0:0:0:0:
448,192,32794,1,2,0:0:0:0:
64,192,32946,1,8,0:0:0:0:
192,192,33250,1,2,0:0:0:0:
320,192,33403,1,8,0:0:0:0:
192,192,33707,1,2,0:0:0:0:
64,192,33860,1,2,0:0:0:0:
448,192,34012,1,8,0:0:0:0:
320,192,34164,1,6,0:0:0:0:
192,192,34469,1,8,0:0:0:0:
448,192,34621,1,8,0:0:0:0:
320,192,34773,1,2,0:0:0:0:
64,192,34926,1,2,0:0:0:0:
192,192,35078,1,2,0:0:0:0:
448,192,35382,1,6,0:0:0:0:
320,192,35382,1,0,0:0:0:0:
64,192,35687,1,2,0:0:0:0:
320,192,35839,1,2,0:0:0:0:
192,192,36144,1,8,0:0:0:0:
448,192,36448,1,2,0:0:0:0:
192,192,36601,1,2,0:0:0:0:
64,192,36905,1,2,0:0:0:0:
320,192,37058,1,8,0:0:0:0:
192,192,37210,1,2,0:0:0:0:
320,192,37362,1,8,0:0:0:0:
64,192,37514,1,2,0:0:0:0:
448,192,37819,1,6,0:0:0:0:
192,192,38276,1,2,0:0:0:0:
320,192,38580,1,8,0:0:0:0:
64,192,38733,1,2,0:0:0:0:
192,192,39037,1,8,0:0:0:0:
448,192,39190,1,8,0:0:0:0:
64,192,39342,1,10,0:0:0:0:
448,192,39646,1,10,0:0:0:0:
64,192,40256,1,6,0:0:0:0:
192,192,40256,1,0,0:0:0:0:
320,192,40560,1,2,0:0:0:0:
192,192,40712,1,2,0:0:0:0:
448,192,41017,1,8,0:0:0:0:
64,192,41322,1,2,0:0:0:0:
320,192,41474,1,8,0:0:0:0:
192,192,41778,1,2,0:0:0:0:
448,192,41931,1,8,0:0:0:0:
64,192,42083,1,2,0:0:0:0:
448,192,42235,1,8,0:0:0:0:
192,192,42388,1,2,0:0:0:0:
320,192,42692,1,6,0:0:0:0:
448,192,42997,1,2,0:0:0:0:
192,192,43149,1,8,0:0:0:0:
64,192,43454,1,2,0:0:0:0:
320,192,43606,1,2,0:0:0:0:
64,192,43758,1,8,0:0:0:0:
448,192,43910,1,6,0:0:0:0:
320,192,44215,1,2,0:0:0:0:
192,192,44367,1,8,0:0:0:0:
448,192,44672,128,2,45281:0:0:0:0:
64,192,45281,1,2,0:0:0:0:
192,192,45281,1,4,0:0:0:0:
320,192,45738,1,0,0:0:0:0:
192,192,46195,1,0,0:0:0:0:
448,192,46651,1,0,0:0:0:0:
64,192,47108,1,0,0:0:0:0:
320,192,47413,1,0,0:0:0:0:
192,192,47717,1,0,0:0:0:0:
320,192,48022,1,0,0:0:0:0:
448,192,48327,1,0,0:0:0:0:
64,192,48631,1,0,0:0:0:0:
320,192,48936,1,0,0:0:0:0:
320,192,49240,1,0,0:0:0:0:
192,192,49545,1,0,0:0:0:0:
448,192,49697,1,2,0:0:0:0:
64,192,49849,1,2,0:0:0:0:
320,192,50154,1,6,0:0:0:0:
192,192,50611,1,2,0:0:0:0:
448,192,50763,1,8,0:0:0:0:
320,192,51220,1,2,0:0:0:0:
64,192,51372,1,2,0:0:0:0:
64,192,51677,1,2,0:0:0:0:
448,192,51981,1,8,0:0:0:0:
192,192,52134,1,2,0:0:0:0:
448,192,52286,1,8,0:0:0:0:
64,192,52438,1,6,0:0:0:0:
320,192,52743,1,2,0:0:0:0:
192,192,52895,1,8,0:0:0:0:
448,192,53200,1,8,0:0:0:0:
64,192,53504,1,8,0:0:0:0:
448,192,53657,1,6,0:0:0:0:
64,192,54875,1,2,0:0:0:0:
448,192,54875,1,4,0:0:0:0:
192,192,55179,1,2,0:0:0:0:
320,192,55332,1,8,0:0:0:0:
448,192,55636,1,2,0:0:0:0:
64,192,55789,1,2,0:0:0:0:
192,192,55941,1,8,0:0:0:0:
448,192,56093,1,2,0:0:0:0:
320,192,56398,1,2,0:0:0:0:
192,192,56550,1,8,0:0:0:0:
64,192,56855,1,2,0:0:0:0:
320,192,57007,1,2,0:0:0:0:
448,192,57159,1,8,0:0:0:0:
64,192,57311,1,6,0:0:0:0:
192,192,57616,1,2,0:0:0:0:
448,192,57768,1,8,0:0:0:0:
320,192,58073,1,2,0:0:0:0:
64,192,58225,1,2,0:0:0:0:
192,192,58377,1,8,0:0:0:0:
448,192,58530,1,2,0:0:0:0:
320,192,58834,1,2,0:0:0:0:
64,192,58987,1,8,0:0:0:0:
448,192,59291,128,2,59748:0:0:0:0:
192,192,59748,128,6,60053:0:0:0:0:
320,192,60053,1,2,0:0:0:0:
448,192,60205,1,8,0:0:0:0:
64,192,60509,1,0,0:0:0:0:
320,192,60966,128,2,61271:0:0:0:0:
192,192,61271,1,2,0:0:0:0:
448,192,61423,1,8,0:0:0:0:
64,192,61728,1,2,0:0:0:0:
448,192,61880,1,2,0:0:0:0:
320,192,62032,1,8,0:0:0:0:
192,192,62184,1,6,0:0:0:0:
448,192,62489,1,2,0:0:0:0:
64,192,62641,1,8,0:0:0:0:
320,192,62794,1,2,0:0:0:0:
192,192,62946,128,2,63403:0:0:0:0:
448,192,63403,1,6,0:0:0:0:
320,192,63707,128,2,64012:0:0:0:0:
64,192,64012,1,2,0:0:0:0:
448,192,64316,128,2,64621:0:0:0:0:
192,192,64621,1,2,0:0:0:0:
64,192,64621,1,4,0:0:0:0:
320,192,64926,1,2,0:0:0:0:
64,192,65078,1,8,0:0:0:0:
448,192,65382,1,2,0:0:0:0:
192,192,65535,1,2,0:0:0:0:
320,192,65687,1,8,0:0:0:0:
448,192,65839,1,2,0:0:0:0:
64,192,66144,1,2,0:0:0:0:
320,192,66296,1,8,0:0:0:0:
448,192,66601,1,2,0:0:0:0:
64,192,66753,1,2,0:0:0:0:
192,192,66905,1,8,0:0:0:0:
320,192,67058,1,6,0:0:0:0:
448,192,67362,1,2,0:0:0:0:
64,192,67514,1,8,0:0:0:0:
320,192,67819,1,2,0:0:0:0:
192,192,67971,1,2,0:0:0:0:
448,192,68124,1,8,0:0:0:0:
64,192,68276,1,2,0:0:0:0:
320,192,68428,1,8,0:0:0:0:
64,192,68580,1,2,0:0:0:0:
320,192,68733,1,8,0:0:0:0:
192,192,69037,128,2,69494:0:0:0:0:
448,192,69494,128,6,69799:0:0:0:0:
64,192,69799,1,2,0:0:0:0:
320,192,69951,1,8,0:0:0:0:
192,192,70256,1,2,0:0:0:0:
64,192,70712,128,2,71017:0:0:0:0:
192,192,71017,1,2,0:0:0:0:
448,192,71169,1,8,0:0:0:0:
320,192,71474,1,2,0:0:0:0:
192,192,71626,1,2,0:0:0:0:
64,192,71778,1,8,0:0:0:0:
448,192,71931,1,12,0:0:0:0:
320,192,72235,1,2,0:0:0:0:
64,192,72388,1,8,0:0:0:0:
448,192,72540,1,2,0:0:0:0:
192,192,72692,1,2,0:0:0:0:
320,192,72844,1,2,0:0:0:0:
448,192,72997,1,8,0:0:0:0:
64,192,73149,128,6,73758:0:0:0:0:
448,192,74367,1,4,0:0:0:0:
320,192,74367,1,2,0:0:0:0:
192,192,74672,1,2,0:0:0:0:
320,192,74824,1,8,0:0:0:0:
64,192,74976,1,2,0:0:0:0:
448,192,75281,1,2,0:0:0:0:
192,192,75433,1,8,0:0:0:0:
320,192,75585,1,2,0:0:0:0:
64,192,75890,1,2,0:0:0:0:
448,192,76042,1,8,0:0:0:0:
192,192,76195,1,2,0:0:0:0:
320,192,76499,1,2,0:0:0:0:
448,192,76651,1,8,0:0:0:0:
64,192,76804,1,6,0:0:0:0:
320,192,77108,1,2,0:0:0:0:
64,192,77261,1,8,0:0:0:0:
448,192,77413,1,2,0:0:0:0:
192,192,77717,1,2,0:0:0:0:
448,192,77870,1,8,0:0:0:0:
64,192,78022,1,2,0:0:0:0:
448,192,78327,1,2,0:0:0:0:
192,192,78479,1,8,0:0:0:0:
320,192,78631,1,2,0:0:0:0:
192,192,78936,1,2,0:0:0:0:
64,192,79088,1,8,0:0:0:0:
448,192,79240,1,6,0:0:0:0:
320,192,79545,1,2,0:0:0:0:
64,192,79697,1,8,0:0:0:0:
192,192,79849,1,2,0:0:0:0:
192,192,80154,1,2,0:0:0:0:
448,192,80306,1,8,0:0:0:0:
320,192,80459,1,2,0:0:0:0:
448,192,80763,1,2,0:0:0:0:
64,192,80915,1,8,0:0:0:0:
192,192,81068,1,2,0:0:0:0:
320,192,81372,1,2,0:0:0:0:
192,192,81525,1,8,0:0:0:0:
320,192,81677,1,6,0:0:0:0:
448,192,81981,1,2,0:0:0:0:
64,192,82134,1,8,0:0:0:0:
320,192,82286,1,2,0:0:0:0:
64,192,82438,1,8,0:0:0:0:
448,192,82591,1,2,0:0:0:0:
64,192,82743,1,8,0:0:0:0:
192,192,82895,1,4,0:0:0:0:
320,192,83200,1,2,0:0:0:0:
448,192,83352,1,8,0:0:0:0:
64,192,83504,1,2,0:0:0:0:
320,192,83809,1,2,0:0:0:0:
192,192,83961,1,8,0:0:0:0:
448,192,84113,1,10,0:0:0:0:
64,192,84418,1,10,0:0:0:0:
448,192,84723,1,10,0:0:0:0:
64,192,85027,1,10,0:0:0:0:
448,192,85332,128,12,88987:0:0:0:0:
320,192,85332,1,2,0:0:0:0:
