osu file format v14

[General]
AudioFilename: audio.mp3
AudioLeadIn: 0
PreviewTime: 54570
Countdown: 0
SampleSet: Normal
StackLeniency: 0.7
Mode: 3
LetterboxInBreaks: 0
SpecialStyle: 0
WidescreenStoryboard: 0

[Editor]
DistanceSpacing: 1.2
BeatDivisor: 4
GridSize: 16
TimelineZoom: 1.8

[Metadata]
Title:Tenkyou no Alderamin -TV-size
TitleUnicode:天鏡のアルデラミン -TV-size
Artist:KISIDA KYODAN & THE AKEBOSI ROCKETS
ArtistUnicode:岸田教団&THE明星ロケッツ
Creator:Maxus
Version:Imperial Knights
Source:ねじ巻き精霊戦記 天鏡のアルデラミン
Tags:Dellvangel Alderamin on the Sky Bokuto Uno Military Fantasy Forces Fight 1st Opening Season
BeatmapID:1068025
BeatmapSetID:501877

[Difficulty]
HPDrainRate:9
CircleSize:4
OverallDifficulty:8.5
ApproachRate:5
SliderMultiplier:1.4
SliderTickRate:1

[Events]
//Background and Video events
0,0,"Tenkyou+no+Alderamin.jpg",0,0
//Break Periods
//Storyboard Layer 0 (Background)
//Storyboard Layer 1 (Fail)
//Storyboard Layer 2 (Pass)
//Storyboard Layer 3 (Foreground)
//Storyboard Sound Samples

[TimingPoints]
53,304.568527918782,4,1,1,30,1,0
14672,-66.6666666666667,4,1,1,30,0,0
14824,-83.3333333333333,4,1,1,30,0,0
14900,-125,4,1,1,30,0,0
14976,-66.6666666666667,4,1,1,30,0,0
15129,-83.3333333333333,4,1,1,30,0,0
15205,-125,4,1,1,30,0,0
15281,-66.6666666666667,4,1,1,30,0,0
15433,-83.3333333333333,4,1,1,30,0,0
15509,-125,4,1,1,30,0,0
15585,-66.6666666666667,4,1,1,30,0,0
15738,-83.3333333333333,4,1,1,30,0,0
15814,-125,4,1,1,30,0,0
15890,-100,4,1,1,30,0,0
39342,-80,4,1,1,30,0,0
39570,-133.333333333333,4,1,1,30,0,0
39646,-80,4,1,1,30,0,0
39875,-133.333333333333,4,1,1,30,0,0
39951,-100,4,1,1,30,0,0
45281,-111.111111111111,4,1,1,30,0,0
47413,-105.263157894737,4,1,1,30,0,0
50154,-100,4,1,1,30,0,0
54875,-100,4,1,1,30,0,1
63403,-76.9230769230769,4,1,1,30,0,1
63555,-142.857142857143,4,1,1,30,0,1
63707,-100,4,1,1,30,0,1
64012,-76.9230769230769,4,1,1,30,0,0
64164,-142.857142857143,4,1,1,30,0,0
64316,-100,4,1,1,30,0,0
64621,-100,4,1,1,30,0,1
73149,-76.9230769230769,4,1,1,30,0,0
73301,-86.9565217391304,4,1,1,30,0,0
73454,-100,4,1,1,30,0,0
73606,-117.647058823529,4,1,1,30,0,0
73758,-133.333333333333,4,1,1,30,0,0
73910,-117.647058823529,4,1,1,30,0,0
74063,-111.111111111111,4,1,1,30,0,0
74215,-105.263157894737,4,1,1,30,0,0
74367,-100,4,1,1,30,0,0
84113,-71.4285714285714,4,1,1,30,0,0
84342,-166.666666666667,4,1,1,30,0,0
84418,-71.4285714285714,4,1,1,30,0,0
84646,-166.666666666667,4,1,1,30,0,0
84723,-71.4285714285714,4,1,1,30,0,0
84951,-166.666666666667,4,1,1,30,0,0
85027,-71.4285714285714,4,1,1,30,0,0
85256,-166.666666666667,4,1,1,30,0,0
85332,-100,4,1,1,30,0,0

[HitObjects]
192,192,53,5,0,0:0:0:0:
64,192,53,1,2,0:0:0:0:
448,192,129,1,0,0:0:0:0:
320,192,129,1,2,0:0:0:0:
448,192,205,1,0,0:0:0:0:
192,192,205,1,8,0:0:0:0:
64,192,205,1,4,0:0:0:0:
448,192,509,1,8,0:0:0:0:
64,192,509,1,0,0:0:0:0:
320,192,509,1,4,0:0:0:0:
192,192,814,128,0,966:0:0:0:0:
320,192,966,128,0,1118:0:0:0:0:
64,192,966,1,2,0:0:0:0:
448,192,1118,128,0,1271:0:0:0:0:
64,192,1271,128,0,1423:0:0:0:0:
192,192,1423,128,0,1575:0:0:0:0:
320,192,1575,128,0,1728:0:0:0:0:
448,192,1575,1,2,0:0:0:0:
64,192,1728,128,0,1880:0:0:0:0:
192,192,1880,128,0,2032:0:0:0:0:
448,192,1880,1,2,0:0:0:0:
320,192,2032,128,0,2184:0:0:0:0:
448,192,2184,128,0,2337:0:0:0:0:
64,192,2184,1,2,0:0:0:0:
192,192,2337,128,0,2489:0:0:0:0:
320,192,2337,1,2,0:0:0:0:
64,192,2489,128,0,2641:0:0:0:0:
448,192,2489,1,2,0:0:0:0:
320,192,2641,1,4,0:0:0:0:
192,192,2641,1,8,0:0:0:0:
448,192,2641,1,0,0:0:0:0:
320,192,2946,1,8,0:0:0:0:
64,192,2946,1,0,0:0:0:0:
192,192,2946,1,4,0:0:0:0:
192,192,3250,1,2,0:0:0:0:
64,192,3250,1,0,0:0:0:0:
448,192,3327,1,0,0:0:0:0:
320,192,3327,1,2,0:0:0:0:
192,192,3403,1,2,0:0:0:0:
64,192,3403,1,0,0:0:0:0:
448,192,3479,1,0,0:0:0:0:
320,192,3479,1,2,0:0:0:0:
192,192,3555,1,2,0:0:0:0:
64,192,3555,1,0,0:0:0:0:
448,192,3631,1,0,0:0:0:0:
320,192,3631,1,2,0:0:0:0:
448,192,3707,1,4,0:0:0:0:
192,192,3707,1,2,0:0:0:0:
64,192,3707,128,0,4012:0:0:0:0:
320,192,4012,1,2,0:0:0:0:
448,192,4012,1,0,0:0:0:0:
64,192,4088,1,0,0:0:0:0:
192,192,4088,1,2,0:0:0:0:
320,192,4164,1,2,0:0:0:0:
448,192,4164,1,0,0:0:0:0:
64,192,4240,1,0,0:0:0:0:
192,192,4240,1,2,0:0:0:0:
320,192,4316,1,2,0:0:0:0:
448,192,4316,1,4,0:0:0:0:
64,192,4316,1,0,0:0:0:0:
64,192,4621,128,0,4773:0:0:0:0:
448,192,4773,128,0,4926:0:0:0:0:
192,192,4926,128,0,5078:0:0:0:0:
320,192,5078,128,0,5230:0:0:0:0:
192,192,5230,1,2,0:0:0:0:
64,192,5230,1,0,0:0:0:0:
448,192,5306,1,2,0:0:0:0:
320,192,5306,1,0,0:0:0:0:
64,192,5382,1,0,0:0:0:0:
448,192,5382,1,4,0:0:0:0:
192,192,5382,1,2,0:0:0:0:
320,192,5535,1,0,0:0:0:0:
192,192,5687,1,2,0:0:0:0:
64,192,5687,1,0,0:0:0:0:
320,192,5763,1,2,0:0:0:0:
448,192,5763,1,0,0:0:0:0:
192,192,5839,1,2,0:0:0:0:
64,192,5839,1,0,0:0:0:0:
320,192,5915,1,2,0:0:0:0:
448,192,5915,1,0,0:0:0:0:
192,192,5992,1,2,0:0:0:0:
64,192,5992,1,0,0:0:0:0:
320,192,6068,1,2,0:0:0:0:
448,192,6068,1,0,0:0:0:0:
192,192,6144,1,2,0:0:0:0:
64,192,6144,1,4,0:0:0:0:
448,192,6144,128,0,6448:0:0:0:0:
320,192,6296,1,0,0:0:0:0:
64,192,6448,128,0,6601:0:0:0:0:
192,192,6601,1,0,0:0:0:0:
320,192,6601,1,8,0:0:0:0:
448,192,6753,128,0,6905:0:0:0:0:
192,192,6905,128,0,7058:0:0:0:0:
320,192,6905,1,2,0:0:0:0:
64,192,7058,128,0,7210:0:0:0:0:
448,192,7210,128,0,7362:0:0:0:0:
320,192,7210,1,8,0:0:0:0:
192,192,7362,128,0,7514:0:0:0:0:
64,192,7514,128,2,7667:0:0:0:0:
448,192,7514,1,0,0:0:0:0:
320,192,7667,128,0,7819:0:0:0:0:
64,192,7819,1,0,0:0:0:0:
192,192,7819,128,8,7971:0:0:0:0:
448,192,7971,128,0,8276:0:0:0:0:
64,192,8124,1,2,0:0:0:0:
320,192,8124,1,0,0:0:0:0:
192,192,8276,1,0,0:0:0:0:
64,192,8428,1,0,0:0:0:0:
448,192,8428,1,8,0:0:0:0:
320,192,8580,1,4,0:0:0:0:
192,192,8580,128,8,8885:0:0:0:0:
448,192,8733,1,2,0:0:0:0:
320,192,8885,128,0,9037:0:0:0:0:
64,192,9037,1,0,0:0:0:0:
192,192,9037,1,8,0:0:0:0:
448,192,9190,128,0,9342:0:0:0:0:
192,192,9342,1,2,0:0:0:0:
64,192,9342,128,0,9494:0:0:0:0:
320,192,9494,128,0,9646:0:0:0:0:
448,192,9646,1,8,0:0:0:0:
64,192,9646,1,0,0:0:0:0:
192,192,9799,128,0,9951:0:0:0:0:
320,192,9951,1,2,0:0:0:0:
64,192,9951,1,0,0:0:0:0:
448,192,10103,128,0,10256:0:0:0:0:
320,192,10103,128,0,10256:0:0:0:0:
192,192,10256,1,8,0:0:0:0:
64,192,10256,1,0,0:0:0:0:
64,192,10408,128,0,10560:0:0:0:0:
192,192,10408,128,0,10560:0:0:0:0:
448,192,10560,1,2,0:0:0:0:
320,192,10560,1,0,0:0:0:0:
64,192,10636,1,0,0:0:0:0:
192,192,10636,1,2,0:0:0:0:
320,192,10712,1,0,0:0:0:0:
448,192,10712,1,2,0:0:0:0:
64,192,10789,1,0,0:0:0:0:
192,192,10789,1,2,0:0:0:0:
320,192,10865,1,0,0:0:0:0:
448,192,10865,1,2,0:0:0:0:
64,192,10941,1,0,0:0:0:0:
192,192,10941,1,2,0:0:0:0:
64,192,11017,1,0,0:0:0:0:
320,192,11017,1,2,0:0:0:0:
448,192,11017,128,4,11322:0:0:0:0:
192,192,11169,1,0,0:0:0:0:
320,192,11322,128,0,11474:0:0:0:0:
448,192,11474,1,0,0:0:0:0:
64,192,11474,1,8,0:0:0:0:
64,192,11626,128,0,11778:0:0:0:0:
192,192,11778,5,2,0:0:0:0:
320,192,11778,128,0,11931:0:0:0:0:
448,192,11931,128,0,12083:0:0:0:0:
64,192,12083,128,0,12235:0:0:0:0:
192,192,12083,1,8,0:0:0:0:
320,192,12235,128,0,12388:0:0:0:0:
448,192,12388,128,0,12540:0:0:0:0:
64,192,12388,1,2,0:0:0:0:
192,192,12540,128,0,12692:0:0:0:0:
320,192,12692,1,8,0:0:0:0:
64,192,12692,128,0,12844:0:0:0:0:
448,192,12844,128,0,13149:0:0:0:0:
64,192,12997,1,0,0:0:0:0:
320,192,12997,1,2,0:0:0:0:
192,192,13149,1,0,0:0:0:0:
320,192,13301,1,0,0:0:0:0:
448,192,13301,1,8,0:0:0:0:
192,192,13454,1,4,0:0:0:0:
64,192,13454,128,2,13758:0:0:0:0:
448,192,13606,1,2,0:0:0:0:
320,192,13758,128,0,13910:0:0:0:0:
64,192,13910,1,0,0:0:0:0:
192,192,13910,1,8,0:0:0:0:
448,192,14063,128,0,14215:0:0:0:0:
320,192,14215,128,0,14367:0:0:0:0:
64,192,14215,1,2,0:0:0:0:
192,192,14367,128,0,14520:0:0:0:0:
448,192,14520,1,8,0:0:0:0:
64,192,14520,128,0,14672:0:0:0:0:
192,192,14672,1,0,0:0:0:0:
320,192,14672,1,8,0:0:0:0:
448,192,14672,1,2,0:0:0:0:
64,192,14976,128,0,15129:0:0:0:0:
192,192,14976,128,8,15129:0:0:0:0:
448,192,14976,128,2,15129:0:0:0:0:
64,192,15281,128,0,15433:0:0:0:0:
192,192,15281,128,8,15433:0:0:0:0:
448,192,15281,128,2,15433:0:0:0:0:
64,192,15585,128,0,15738:0:0:0:0:
192,192,15585,128,8,15738:0:0:0:0:
448,192,15585,128,2,15738:0:0:0:0:
320,192,15890,1,4,0:0:0:0:
64,192,15890,1,0,0:0:0:0:
448,192,15890,128,8,16195:0:0:0:0:
192,192,16195,1,0,0:0:0:0:
320,192,16195,1,2,0:0:0:0:
64,192,16347,1,0,0:0:0:0:
192,192,16347,1,8,0:0:0:0:
448,192,16347,1,0,0:0:0:0:
320,192,16499,1,0,0:0:0:0:
448,192,16575,1,2,0:0:0:0:
192,192,16575,1,0,0:0:0:0:
64,192,16651,1,0,0:0:0:0:
320,192,16651,1,2,0:0:0:0:
448,192,16804,1,2,0:0:0:0:
192,192,16804,1,0,0:0:0:0:
64,192,16956,1,0,0:0:0:0:
192,192,16956,1,0,0:0:0:0:
320,192,16956,1,8,0:0:0:0:
448,192,17108,1,2,0:0:0:0:
320,192,17108,1,0,0:0:0:0:
64,192,17261,1,0,0:0:0:0:
192,192,17261,1,2,0:0:0:0:
320,192,17413,1,2,0:0:0:0:
64,192,17413,1,0,0:0:0:0:
192,192,17565,1,0,0:0:0:0:
448,192,17565,1,8,0:0:0:0:
320,192,17565,1,0,0:0:0:0:
64,192,17717,1,0,0:0:0:0:
192,192,17794,1,0,0:0:0:0:
320,192,17794,1,2,0:0:0:0:
64,192,17870,1,0,0:0:0:0:
448,192,17870,1,2,0:0:0:0:
320,192,18022,1,2,0:0:0:0:
448,192,18022,1,0,0:0:0:0:
64,192,18174,1,0,0:0:0:0:
320,192,18174,1,8,0:0:0:0:
192,192,18174,1,0,0:0:0:0:
64,192,18327,128,4,18631:0:0:0:0:
192,192,18327,1,0,0:0:0:0:
448,192,18327,1,2,0:0:0:0:
192,192,18631,1,0,0:0:0:0:
320,192,18631,1,2,0:0:0:0:
448,192,18783,128,0,18936:0:0:0:0:
64,192,18783,1,0,0:0:0:0:
320,192,18783,1,8,0:0:0:0:
192,192,18936,1,0,0:0:0:0:
64,192,19012,1,0,0:0:0:0:
320,192,19012,1,2,0:0:0:0:
192,192,19088,1,0,0:0:0:0:
448,192,19088,1,2,0:0:0:0:
192,192,19240,1,0,0:0:0:0:
320,192,19240,1,2,0:0:0:0:
64,192,19393,1,0,0:0:0:0:
320,192,19393,1,0,0:0:0:0:
448,192,19393,1,8,0:0:0:0:
64,192,19545,1,0,0:0:0:0:
192,192,19545,1,2,0:0:0:0:
192,192,19697,1,0,0:0:0:0:
448,192,19697,1,2,0:0:0:0:
64,192,19849,1,0,0:0:0:0:
320,192,19849,1,2,0:0:0:0:
64,192,20002,1,0,0:0:0:0:
192,192,20002,1,0,0:0:0:0:
448,192,20002,1,8,0:0:0:0:
320,192,20154,1,0,0:0:0:0:
192,192,20230,1,0,0:0:0:0:
448,192,20230,1,2,0:0:0:0:
64,192,20306,1,0,0:0:0:0:
320,192,20306,1,2,0:0:0:0:
64,192,20459,1,0,0:0:0:0:
192,192,20459,1,2,0:0:0:0:
64,192,20611,1,0,0:0:0:0:
320,192,20611,1,0,0:0:0:0:
448,192,20611,1,8,0:0:0:0:
320,192,20763,1,0,0:0:0:0:
448,192,20763,1,2,0:0:0:0:
192,192,20763,128,4,21068:0:0:0:0:
64,192,21068,1,0,0:0:0:0:
448,192,21068,1,2,0:0:0:0:
64,192,21220,1,0,0:0:0:0:
192,192,21220,1,0,0:0:0:0:
320,192,21220,1,8,0:0:0:0:
448,192,21372,1,0,0:0:0:0:
192,192,21448,1,0,0:0:0:0:
320,192,21448,1,2,0:0:0:0:
64,192,21525,1,0,0:0:0:0:
448,192,21525,1,2,0:0:0:0:
64,192,21677,1,0,0:0:0:0:
192,192,21677,1,2,0:0:0:0:
320,192,21829,1,0,0:0:0:0:
448,192,21829,1,8,0:0:0:0:
192,192,21829,1,0,0:0:0:0:
320,192,21981,1,2,0:0:0:0:
64,192,21981,1,0,0:0:0:0:
192,192,22134,1,0,0:0:0:0:
448,192,22134,1,2,0:0:0:0:
320,192,22286,1,0,0:0:0:0:
448,192,22286,1,2,0:0:0:0:
64,192,22438,1,0,0:0:0:0:
192,192,22438,1,0,0:0:0:0:
320,192,22438,1,8,0:0:0:0:
448,192,22591,1,0,0:0:0:0:
192,192,22667,1,2,0:0:0:0:
64,192,22667,1,0,0:0:0:0:
320,192,22743,1,2,0:0:0:0:
448,192,22743,1,0,0:0:0:0:
64,192,22895,1,0,0:0:0:0:
320,192,22895,1,2,0:0:0:0:
64,192,23047,1,0,0:0:0:0:
192,192,23047,1,8,0:0:0:0:
448,192,23047,1,0,0:0:0:0:
320,192,23200,1,2,0:0:0:0:
192,192,23200,1,0,0:0:0:0:
448,192,23200,128,4,23504:0:0:0:0:
64,192,23504,1,0,0:0:0:0:
192,192,23504,1,2,0:0:0:0:
64,192,23657,128,0,23809:0:0:0:0:
320,192,23657,1,0,0:0:0:0:
448,192,23657,1,8,0:0:0:0:
320,192,23809,1,0,0:0:0:0:
192,192,23885,1,2,0:0:0:0:
448,192,23885,1,0,0:0:0:0:
64,192,23961,1,0,0:0:0:0:
320,192,23961,1,2,0:0:0:0:
448,192,24113,1,2,0:0:0:0:
192,192,24113,128,0,24266:0:0:0:0:
64,192,24266,1,0,0:0:0:0:
448,192,24266,1,0,0:0:0:0:
320,192,24266,1,8,0:0:0:0:
64,192,24418,128,0,24570:0:0:0:0:
320,192,24418,128,0,24570:0:0:0:0:
448,192,24418,128,2,24570:0:0:0:0:
448,192,24723,128,0,25027:0:0:0:0:
192,192,24723,1,2,0:0:0:0:
320,192,24875,128,0,25179:0:0:0:0:
64,192,24875,1,2,0:0:0:0:
192,192,25027,128,2,25332:0:0:0:0:
64,192,25179,128,8,25484:0:0:0:0:
448,192,25179,1,4,0:0:0:0:
448,192,25332,128,0,25636:0:0:0:0:
192,192,25484,1,0,0:0:0:0:
320,192,25484,128,8,25636:0:0:0:0:
192,192,25636,1,4,0:0:0:0:
64,192,25636,1,2,0:0:0:0:
192,192,25941,1,0,0:0:0:0:
320,192,25941,1,2,0:0:0:0:
64,192,26093,1,0,0:0:0:0:
320,192,26093,1,0,0:0:0:0:
448,192,26093,1,8,0:0:0:0:
448,192,26245,1,0,0:0:0:0:
192,192,26322,1,0,0:0:0:0:
320,192,26398,1,0,0:0:0:0:
64,192,26550,1,0,0:0:0:0:
192,192,26550,1,2,0:0:0:0:
448,192,26702,1,8,0:0:0:0:
320,192,26702,1,0,0:0:0:0:
192,192,26702,1,0,0:0:0:0:
64,192,26855,1,0,0:0:0:0:
320,192,26855,1,2,0:0:0:0:
448,192,27007,1,0,0:0:0:0:
192,192,27159,1,0,0:0:0:0:
320,192,27159,1,2,0:0:0:0:
64,192,27311,1,0,0:0:0:0:
192,192,27311,1,0,0:0:0:0:
448,192,27311,1,8,0:0:0:0:
64,192,27464,1,0,0:0:0:0:
320,192,27540,1,0,0:0:0:0:
192,192,27616,1,0,0:0:0:0:
320,192,27768,1,0,0:0:0:0:
448,192,27768,1,2,0:0:0:0:
64,192,27921,1,0,0:0:0:0:
192,192,27921,1,0,0:0:0:0:
320,192,27921,1,8,0:0:0:0:
448,192,28073,128,2,28377:0:0:0:0:
64,192,28073,1,0,0:0:0:0:
192,192,28225,1,0,0:0:0:0:
64,192,28377,128,2,28682:0:0:0:0:
320,192,28377,1,0,0:0:0:0:
192,192,28530,128,0,28682:0:0:0:0:
448,192,28530,1,8,0:0:0:0:
448,192,28682,128,0,28987:0:0:0:0:
320,192,28682,1,0,0:0:0:0:
320,192,28834,128,0,28987:0:0:0:0:
64,192,28987,128,0,29291:0:0:0:0:
192,192,28987,1,2,0:0:0:0:
448,192,29139,128,8,29291:0:0:0:0:
320,192,29139,1,0,0:0:0:0:
192,192,29291,1,0,0:0:0:0:
320,192,29291,128,2,29443:0:0:0:0:
64,192,29443,128,0,29748:0:0:0:0:
448,192,29596,1,2,0:0:0:0:
192,192,29596,128,0,29748:0:0:0:0:
448,192,29748,128,8,29900:0:0:0:0:
320,192,29748,1,0,0:0:0:0:
64,192,29900,128,0,30205:0:0:0:0:
192,192,29976,1,0,0:0:0:0:
320,192,30053,1,0,0:0:0:0:
192,192,30205,128,0,30357:0:0:0:0:
448,192,30205,1,2,0:0:0:0:
320,192,30357,1,8,0:0:0:0:
448,192,30357,1,0,0:0:0:0:
64,192,30509,1,0,0:0:0:0:
192,192,30509,1,4,0:0:0:0:
448,192,30509,128,2,30966:0:0:0:0:
192,192,30814,1,0,0:0:0:0:
320,192,30814,1,2,0:0:0:0:
64,192,30966,1,0,0:0:0:0:
192,192,30966,1,0,0:0:0:0:
320,192,30966,1,8,0:0:0:0:
448,192,31118,1,0,0:0:0:0:
192,192,31195,1,0,0:0:0:0:
320,192,31271,1,0,0:0:0:0:
64,192,31423,1,0,0:0:0:0:
448,192,31423,1,2,0:0:0:0:
192,192,31575,1,0,0:0:0:0:
320,192,31575,1,0,0:0:0:0:
448,192,31575,1,8,0:0:0:0:
192,192,31728,1,2,0:0:0:0:
64,192,31728,128,0,32184:0:0:0:0:
320,192,31880,1,0,0:0:0:0:
192,192,32032,1,2,0:0:0:0:
448,192,32032,1,0,0:0:0:0:
320,192,32184,1,0,0:0:0:0:
192,192,32184,1,0,0:0:0:0:
448,192,32184,1,8,0:0:0:0:
64,192,32337,1,0,0:0:0:0:
320,192,32413,1,0,0:0:0:0:
192,192,32489,1,0,0:0:0:0:
448,192,32641,1,2,0:0:0:0:
64,192,32641,1,0,0:0:0:0:
192,192,32794,1,0,0:0:0:0:
320,192,32794,1,2,0:0:0:0:
64,192,32946,1,0,0:0:0:0:
448,192,32946,128,0,33250:0:0:0:0:
192,192,32946,1,8,0:0:0:0:
320,192,33098,1,0,0:0:0:0:
64,192,33250,1,0,0:0:0:0:
320,192,33250,1,2,0:0:0:0:
64,192,33403,1,0,0:0:0:0:
448,192,33403,1,0,0:0:0:0:
192,192,33403,1,8,0:0:0:0:
320,192,33555,128,0,33860:0:0:0:0:
448,192,33707,1,2,0:0:0:0:
192,192,33707,1,0,0:0:0:0:
64,192,33860,1,0,0:0:0:0:
192,192,33860,1,2,0:0:0:0:
64,192,34012,1,0,0:0:0:0:
320,192,34012,1,0,0:0:0:0:
448,192,34012,1,8,0:0:0:0:
64,192,34164,128,0,34469:0:0:0:0:
192,192,34164,1,4,0:0:0:0:
448,192,34164,1,2,0:0:0:0:
192,192,34469,1,0,0:0:0:0:
320,192,34469,1,0,0:0:0:0:
448,192,34469,1,8,0:0:0:0:
64,192,34621,1,0,0:0:0:0:
192,192,34621,1,0,0:0:0:0:
320,192,34621,1,8,0:0:0:0:
320,192,34773,1,2,0:0:0:0:
448,192,34773,1,0,0:0:0:0:
64,192,34926,1,0,0:0:0:0:
448,192,34926,1,2,0:0:0:0:
192,192,35078,1,0,0:0:0:0:
320,192,35078,1,2,0:0:0:0:
192,192,35230,1,0,0:0:0:0:
448,192,35382,1,2,0:0:0:0:
320,192,35382,1,4,0:0:0:0:
64,192,35382,128,0,35687:0:0:0:0:
448,192,35687,128,0,35839:0:0:0:0:
192,192,35687,1,2,0:0:0:0:
320,192,35839,1,2,0:0:0:0:
64,192,35839,1,0,0:0:0:0:
192,192,35992,128,0,36144:0:0:0:0:
64,192,36144,1,8,0:0:0:0:
320,192,36144,128,0,36296:0:0:0:0:
448,192,36296,128,0,36448:0:0:0:0:
192,192,36448,128,0,36601:0:0:0:0:
64,192,36448,1,2,0:0:0:0:
320,192,36601,128,0,36753:0:0:0:0:
448,192,36601,1,2,0:0:0:0:
192,192,36753,1,0,0:0:0:0:
64,192,36905,128,0,37058:0:0:0:0:
320,192,36905,1,2,0:0:0:0:
192,192,37058,1,8,0:0:0:0:
448,192,37058,128,0,37362:0:0:0:0:
320,192,37210,1,2,0:0:0:0:
64,192,37210,1,0,0:0:0:0:
192,192,37362,1,8,0:0:0:0:
64,192,37362,128,0,37514:0:0:0:0:
320,192,37514,1,0,0:0:0:0:
448,192,37514,1,2,0:0:0:0:
192,192,37667,128,0,37819:0:0:0:0:
64,192,37819,1,0,0:0:0:0:
320,192,37819,128,2,38124:0:0:0:0:
448,192,37819,1,4,0:0:0:0:
64,192,38124,1,0,0:0:0:0:
192,192,38124,128,2,38276:0:0:0:0:
448,192,38276,128,0,38428:0:0:0:0:
320,192,38276,1,2,0:0:0:0:
64,192,38428,128,0,38580:0:0:0:0:
320,192,38580,128,8,38733:0:0:0:0:
192,192,38580,1,0,0:0:0:0:
448,192,38733,128,2,38885:0:0:0:0:
64,192,38733,1,0,0:0:0:0:
192,192,38885,128,0,39037:0:0:0:0:
64,192,39037,1,0,0:0:0:0:
448,192,39037,1,8,0:0:0:0:
320,192,39190,1,8,0:0:0:0:
192,192,39190,1,0,0:0:0:0:
64,192,39342,128,0,39494:0:0:0:0:
320,192,39342,128,2,39494:0:0:0:0:
448,192,39342,128,8,39494:0:0:0:0:
320,192,39646,128,2,39799:0:0:0:0:
448,192,39646,128,8,39799:0:0:0:0:
192,192,39646,128,0,39799:0:0:0:0:
64,192,39951,128,0,40256:0:0:0:0:
192,192,40256,1,0,0:0:0:0:
320,192,40256,1,2,0:0:0:0:
448,192,40256,128,4,40560:0:0:0:0:
192,192,40560,128,0,40712:0:0:0:0:
320,192,40560,1,2,0:0:0:0:
448,192,40712,1,2,0:0:0:0:
64,192,40712,128,0,40865:0:0:0:0:
192,192,40865,1,0,0:0:0:0:
320,192,40865,128,0,41017:0:0:0:0:
64,192,41017,1,8,0:0:0:0:
448,192,41017,1,0,0:0:0:0:
320,192,41169,128,0,41322:0:0:0:0:
64,192,41322,1,2,0:0:0:0:
192,192,41322,128,0,41474:0:0:0:0:
320,192,41474,1,8,0:0:0:0:
448,192,41474,128,0,41626:0:0:0:0:
192,192,41626,1,0,0:0:0:0:
64,192,41778,1,2,0:0:0:0:
320,192,41778,128,0,41931:0:0:0:0:
192,192,41931,1,8,0:0:0:0:
448,192,41931,128,0,42235:0:0:0:0:
320,192,42083,1,2,0:0:0:0:
192,192,42235,1,8,0:0:0:0:
64,192,42235,128,0,42540:0:0:0:0:
448,192,42388,1,2,0:0:0:0:
320,192,42388,1,0,0:0:0:0:
192,192,42540,128,0,42692:0:0:0:0:
64,192,42692,1,0,0:0:0:0:
320,192,42692,1,4,0:0:0:0:
448,192,42692,1,2,0:0:0:0:
192,192,42997,1,0,0:0:0:0:
320,192,42997,1,2,0:0:0:0:
64,192,43149,1,0,0:0:0:0:
192,192,43149,1,0,0:0:0:0:
448,192,43149,1,8,0:0:0:0:
320,192,43301,1,0,0:0:0:0:
448,192,43454,1,2,0:0:0:0:
64,192,43454,1,0,0:0:0:0:
192,192,43606,5,0,0:0:0:0:
320,192,43606,1,2,0:0:0:0:
64,192,43758,1,0,0:0:0:0:
448,192,43758,1,8,0:0:0:0:
320,192,43758,1,0,0:0:0:0:
192,192,43910,1,4,0:0:0:0:
64,192,43910,1,0,0:0:0:0:
448,192,43910,1,2,0:0:0:0:
192,192,44063,1,0,0:0:0:0:
448,192,44215,1,2,0:0:0:0:
320,192,44215,1,0,0:0:0:0:
64,192,44367,1,0,0:0:0:0:
192,192,44367,1,8,0:0:0:0:
320,192,44367,1,0,0:0:0:0:
448,192,44520,1,0,0:0:0:0:
192,192,44672,1,0,0:0:0:0:
64,192,44672,1,2,0:0:0:0:
448,192,44748,1,0,0:0:0:0:
320,192,44748,1,2,0:0:0:0:
192,192,44824,1,0,0:0:0:0:
64,192,44824,1,2,0:0:0:0:
448,192,44900,1,0,0:0:0:0:
320,192,44900,1,2,0:0:0:0:
192,192,44976,1,0,0:0:0:0:
64,192,44976,1,2,0:0:0:0:
448,192,45053,1,0,0:0:0:0:
320,192,45053,1,2,0:0:0:0:
64,192,45129,1,2,0:0:0:0:
192,192,45129,1,0,0:0:0:0:
320,192,45205,1,2,0:0:0:0:
448,192,45205,1,0,0:0:0:0:
192,192,45281,1,0,0:0:0:0:
64,192,45281,1,2,0:0:0:0:
448,192,45281,128,4,45738:0:0:0:0:
64,192,45890,1,0,0:0:0:0:
192,192,46195,128,0,46499:0:0:0:0:
448,192,46195,1,0,0:0:0:0:
320,192,46499,128,0,47108:0:0:0:0:
64,192,46499,1,0,0:0:0:0:
448,192,46804,1,0,0:0:0:0:
192,192,47108,128,0,47413:0:0:0:0:
64,192,47108,1,0,0:0:0:0:
64,192,47413,128,0,48022:0:0:0:0:
448,192,47413,1,0,0:0:0:0:
448,192,47717,1,0,0:0:0:0:
320,192,47717,1,0,0:0:0:0:
320,192,48022,1,0,0:0:0:0:
448,192,48022,1,0,0:0:0:0:
192,192,48327,128,0,48631:0:0:0:0:
320,192,48327,1,0,0:0:0:0:
448,192,48327,1,0,0:0:0:0:
448,192,48631,128,0,48936:0:0:0:0:
64,192,48631,1,0,0:0:0:0:
320,192,48631,1,0,0:0:0:0:
64,192,48936,128,0,49545:0:0:0:0:
320,192,48936,1,0,0:0:0:0:
192,192,48936,128,0,49088:0:0:0:0:
448,192,49088,128,0,49240:0:0:0:0:
192,192,49240,1,0,0:0:0:0:
320,192,49240,128,0,49393:0:0:0:0:
192,192,49393,128,0,49545:0:0:0:0:
448,192,49545,128,0,49849:0:0:0:0:
320,192,49545,128,0,49697:0:0:0:0:
192,192,49697,128,2,49849:0:0:0:0:
64,192,49849,128,2,50154:0:0:0:0:
320,192,49849,1,0,0:0:0:0:
320,192,50154,1,0,0:0:0:0:
448,192,50154,1,2,0:0:0:0:
192,192,50154,128,4,50763:0:0:0:0:
64,192,50459,1,0,0:0:0:0:
320,192,50611,1,0,0:0:0:0:
448,192,50611,1,2,0:0:0:0:
320,192,50763,1,8,0:0:0:0:
448,192,50763,128,0,50915:0:0:0:0:
64,192,50763,1,0,0:0:0:0:
64,192,51068,1,0,0:0:0:0:
320,192,51068,128,0,51981:0:0:0:0:
192,192,51220,1,2,0:0:0:0:
448,192,51220,1,0,0:0:0:0:
192,192,51372,1,2,0:0:0:0:
64,192,51372,1,0,0:0:0:0:
448,192,51677,1,2,0:0:0:0:
64,192,51677,1,0,0:0:0:0:
192,192,51981,1,8,0:0:0:0:
448,192,51981,1,0,0:0:0:0:
64,192,51981,128,0,52134:0:0:0:0:
192,192,52134,1,0,0:0:0:0:
320,192,52134,1,2,0:0:0:0:
64,192,52286,1,0,0:0:0:0:
320,192,52286,1,8,0:0:0:0:
448,192,52286,1,0,0:0:0:0:
448,192,52438,128,4,53657:0:0:0:0:
64,192,52438,1,0,0:0:0:0:
192,192,52438,1,2,0:0:0:0:
192,192,52743,1,0,0:0:0:0:
320,192,52743,1,2,0:0:0:0:
64,192,52895,1,0,0:0:0:0:
320,192,52895,1,8,0:0:0:0:
192,192,53047,1,2,0:0:0:0:
64,192,53047,1,0,0:0:0:0:
320,192,53200,1,8,0:0:0:0:
192,192,53200,1,0,0:0:0:0:
320,192,53352,1,2,0:0:0:0:
64,192,53352,1,0,0:0:0:0:
64,192,53504,1,0,0:0:0:0:
192,192,53504,1,8,0:0:0:0:
64,192,53657,1,0,0:0:0:0:
192,192,53657,1,4,0:0:0:0:
320,192,53657,1,2,0:0:0:0:
448,192,53809,1,0,0:0:0:0:
64,192,53961,1,0,0:0:0:0:
448,192,54113,1,0,0:0:0:0:
64,192,54266,1,0,0:0:0:0:
448,192,54570,128,0,54723:0:0:0:0:
192,192,54723,128,0,54875:0:0:0:0:
64,192,54875,1,4,0:0:0:0:
320,192,54875,128,2,55179:0:0:0:0:
448,192,54875,1,0,0:0:0:0:
64,192,55179,1,0,0:0:0:0:
192,192,55179,1,2,0:0:0:0:
320,192,55332,1,0,0:0:0:0:
64,192,55332,1,0,0:0:0:0:
448,192,55332,1,8,0:0:0:0:
448,192,55636,1,2,0:0:0:0:
192,192,55636,1,0,0:0:0:0:
64,192,55789,1,0,0:0:0:0:
320,192,55789,1,2,0:0:0:0:
448,192,55941,1,0,0:0:0:0:
320,192,55941,1,8,0:0:0:0:
192,192,55941,1,0,0:0:0:0:
64,192,56093,1,0,0:0:0:0:
448,192,56093,128,2,56398:0:0:0:0:
192,192,56398,1,2,0:0:0:0:
64,192,56398,1,0,0:0:0:0:
64,192,56550,1,0,0:0:0:0:
448,192,56550,1,8,0:0:0:0:
320,192,56550,1,0,0:0:0:0:
320,192,56855,1,2,0:0:0:0:
192,192,56855,1,0,0:0:0:0:
192,192,57007,1,0,0:0:0:0:
448,192,57007,1,2,0:0:0:0:
64,192,57159,1,0,0:0:0:0:
320,192,57159,1,0,0:0:0:0:
448,192,57159,1,8,0:0:0:0:
320,192,57311,1,4,0:0:0:0:
192,192,57311,1,0,0:0:0:0:
64,192,57311,128,2,57616:0:0:0:0:
448,192,57616,1,2,0:0:0:0:
192,192,57616,1,0,0:0:0:0:
64,192,57768,1,0,0:0:0:0:
320,192,57768,1,0,0:0:0:0:
448,192,57768,1,8,0:0:0:0:
64,192,58073,1,0,0:0:0:0:
192,192,58073,1,2,0:0:0:0:
448,192,58225,1,0,0:0:0:0:
192,192,58225,1,2,0:0:0:0:
64,192,58377,1,0,0:0:0:0:
448,192,58377,1,8,0:0:0:0:
320,192,58377,1,0,0:0:0:0:
192,192,58530,1,0,0:0:0:0:
320,192,58530,128,2,58834:0:0:0:0:
64,192,58834,1,0,0:0:0:0:
448,192,58834,1,2,0:0:0:0:
192,192,58987,1,0,0:0:0:0:
320,192,58987,1,0,0:0:0:0:
448,192,58987,1,8,0:0:0:0:
192,192,59139,1,0,0:0:0:0:
64,192,59291,5,0,0:0:0:0:
448,192,59291,1,2,0:0:0:0:
192,192,59367,1,0,0:0:0:0:
320,192,59367,1,2,0:0:0:0:
64,192,59443,1,0,0:0:0:0:
448,192,59443,1,2,0:0:0:0:
192,192,59520,1,0,0:0:0:0:
320,192,59520,1,2,0:0:0:0:
64,192,59596,1,0,0:0:0:0:
448,192,59596,1,2,0:0:0:0:
192,192,59672,1,0,0:0:0:0:
320,192,59672,1,2,0:0:0:0:
64,192,59748,1,4,0:0:0:0:
448,192,59748,128,2,60053:0:0:0:0:
320,192,60053,1,2,0:0:0:0:
64,192,60053,1,0,0:0:0:0:
192,192,60205,128,0,60357:0:0:0:0:
448,192,60205,1,8,0:0:0:0:
320,192,60205,1,0,0:0:0:0:
64,192,60509,128,0,60662:0:0:0:0:
448,192,60509,1,0,0:0:0:0:
192,192,60662,1,0,0:0:0:0:
320,192,60662,1,2,0:0:0:0:
64,192,60814,1,0,0:0:0:0:
192,192,60814,1,8,0:0:0:0:
448,192,60814,1,0,0:0:0:0:
320,192,60966,128,2,61118:0:0:0:0:
64,192,60966,1,0,0:0:0:0:
448,192,61118,1,0,0:0:0:0:
192,192,61271,1,2,0:0:0:0:
64,192,61271,128,0,61423:0:0:0:0:
448,192,61423,128,0,61575:0:0:0:0:
320,192,61423,1,8,0:0:0:0:
192,192,61423,1,0,0:0:0:0:
64,192,61728,128,0,62032:0:0:0:0:
192,192,61728,1,2,0:0:0:0:
320,192,61880,1,0,0:0:0:0:
448,192,61880,1,2,0:0:0:0:
192,192,62032,1,0,0:0:0:0:
320,192,62032,1,0,0:0:0:0:
448,192,62032,1,8,0:0:0:0:
64,192,62184,1,0,0:0:0:0:
192,192,62184,1,2,0:0:0:0:
448,192,62184,1,4,0:0:0:0:
448,192,62489,1,2,0:0:0:0:
320,192,62489,1,0,0:0:0:0:
64,192,62641,1,0,0:0:0:0:
192,192,62641,1,8,0:0:0:0:
448,192,62641,1,0,0:0:0:0:
320,192,62794,1,2,0:0:0:0:
64,192,62794,1,0,0:0:0:0:
448,192,62946,1,0,0:0:0:0:
192,192,62946,1,2,0:0:0:0:
64,192,63022,1,0,0:0:0:0:
320,192,63022,1,2,0:0:0:0:
448,192,63098,1,0,0:0:0:0:
192,192,63098,1,2,0:0:0:0:
64,192,63174,1,0,0:0:0:0:
320,192,63174,1,2,0:0:0:0:
448,192,63250,1,0,0:0:0:0:
192,192,63250,1,2,0:0:0:0:
64,192,63327,1,0,0:0:0:0:
320,192,63327,1,2,0:0:0:0:
448,192,63403,1,4,0:0:0:0:
192,192,63403,1,2,0:0:0:0:
192,192,63707,1,2,0:0:0:0:
320,192,63707,1,0,0:0:0:0:
64,192,63783,1,2,0:0:0:0:
448,192,63783,1,0,0:0:0:0:
192,192,63860,1,2,0:0:0:0:
320,192,63860,1,0,0:0:0:0:
64,192,63936,1,2,0:0:0:0:
448,192,63936,1,0,0:0:0:0:
192,192,64012,1,2,0:0:0:0:
320,192,64012,1,0,0:0:0:0:
64,192,64316,1,0,0:0:0:0:
192,192,64316,1,2,0:0:0:0:
320,192,64393,1,2,0:0:0:0:
448,192,64393,1,0,0:0:0:0:
64,192,64469,1,0,0:0:0:0:
192,192,64469,1,2,0:0:0:0:
320,192,64545,1,2,0:0:0:0:
448,192,64545,1,0,0:0:0:0:
64,192,64621,1,0,0:0:0:0:
192,192,64621,1,2,0:0:0:0:
448,192,64621,128,4,64926:0:0:0:0:
64,192,64926,1,0,0:0:0:0:
320,192,64926,1,2,0:0:0:0:
192,192,65078,1,0,0:0:0:0:
448,192,65078,1,8,0:0:0:0:
320,192,65078,1,0,0:0:0:0:
64,192,65382,1,0,0:0:0:0:
192,192,65382,1,2,0:0:0:0:
448,192,65535,1,0,0:0:0:0:
192,192,65535,1,2,0:0:0:0:
64,192,65687,1,0,0:0:0:0:
320,192,65687,1,0,0:0:0:0:
448,192,65687,1,8,0:0:0:0:
320,192,65839,1,0,0:0:0:0:
192,192,65839,128,2,66144:0:0:0:0:
64,192,66144,1,0,0:0:0:0:
448,192,66144,1,2,0:0:0:0:
320,192,66296,1,8,0:0:0:0:
448,192,66296,1,0,0:0:0:0:
192,192,66296,1,0,0:0:0:0:
320,192,66601,1,2,0:0:0:0:
64,192,66601,1,0,0:0:0:0:
320,192,66753,1,2,0:0:0:0:
192,192,66753,1,0,0:0:0:0:
64,192,66905,1,0,0:0:0:0:
192,192,66905,1,0,0:0:0:0:
448,192,66905,1,8,0:0:0:0:
64,192,67058,1,0,0:0:0:0:
320,192,67058,1,4,0:0:0:0:
448,192,67058,128,2,67362:0:0:0:0:
192,192,67362,1,2,0:0:0:0:
64,192,67362,1,0,0:0:0:0:
192,192,67514,1,0,0:0:0:0:
320,192,67514,1,0,0:0:0:0:
448,192,67514,1,8,0:0:0:0:
448,192,67819,1,0,0:0:0:0:
64,192,67819,1,2,0:0:0:0:
64,192,67971,1,0,0:0:0:0:
320,192,67971,1,2,0:0:0:0:
192,192,68124,1,0,0:0:0:0:
320,192,68124,1,0,0:0:0:0:
448,192,68124,1,8,0:0:0:0:
192,192,68276,1,2,0:0:0:0:
64,192,68276,1,0,0:0:0:0:
64,192,68428,1,0,0:0:0:0:
320,192,68428,1,0,0:0:0:0:
448,192,68428,1,8,0:0:0:0:
192,192,68580,1,0,0:0:0:0:
448,192,68580,1,2,0:0:0:0:
64,192,68733,1,0,0:0:0:0:
192,192,68733,1,0,0:0:0:0:
320,192,68733,1,8,0:0:0:0:
448,192,68885,1,0,0:0:0:0:
64,192,69037,1,0,0:0:0:0:
192,192,69037,1,2,0:0:0:0:
448,192,69113,1,0,0:0:0:0:
320,192,69113,1,2,0:0:0:0:
64,192,69190,1,0,0:0:0:0:
192,192,69190,1,2,0:0:0:0:
448,192,69266,1,0,0:0:0:0:
320,192,69266,1,2,0:0:0:0:
64,192,69342,1,0,0:0:0:0:
192,192,69342,1,2,0:0:0:0:
320,192,69418,1,2,0:0:0:0:
448,192,69418,1,0,0:0:0:0:
192,192,69494,1,2,0:0:0:0:
448,192,69494,1,0,0:0:0:0:
64,192,69494,128,4,69799:0:0:0:0:
192,192,69799,1,0,0:0:0:0:
320,192,69799,1,2,0:0:0:0:
448,192,69951,128,8,70103:0:0:0:0:
64,192,69951,1,0,0:0:0:0:
320,192,69951,1,0,0:0:0:0:
320,192,70256,1,2,0:0:0:0:
192,192,70256,128,0,70408:0:0:0:0:
64,192,70408,1,0,0:0:0:0:
448,192,70408,1,2,0:0:0:0:
64,192,70560,1,0,0:0:0:0:
448,192,70560,1,8,0:0:0:0:
320,192,70560,1,0,0:0:0:0:
320,192,70712,128,2,70865:0:0:0:0:
192,192,70712,1,0,0:0:0:0:
64,192,70865,1,0,0:0:0:0:
192,192,71017,128,0,71169:0:0:0:0:
448,192,71017,1,2,0:0:0:0:
448,192,71169,128,8,71322:0:0:0:0:
320,192,71169,1,0,0:0:0:0:
64,192,71169,1,0,0:0:0:0:
192,192,71474,1,2,0:0:0:0:
64,192,71474,128,0,71778:0:0:0:0:
320,192,71626,1,0,0:0:0:0:
448,192,71626,1,2,0:0:0:0:
320,192,71778,1,8,0:0:0:0:
192,192,71778,1,0,0:0:0:0:
448,192,71778,1,0,0:0:0:0:
64,192,71931,1,0,0:0:0:0:
192,192,71931,1,8,0:0:0:0:
448,192,71931,1,4,0:0:0:0:
320,192,72235,1,0,0:0:0:0:
448,192,72235,1,2,0:0:0:0:
192,192,72388,1,8,0:0:0:0:
320,192,72388,1,0,0:0:0:0:
64,192,72388,1,0,0:0:0:0:
192,192,72540,1,0,0:0:0:0:
448,192,72540,1,2,0:0:0:0:
320,192,72692,1,0,0:0:0:0:
448,192,72692,1,2,0:0:0:0:
64,192,72844,1,0,0:0:0:0:
320,192,72844,1,2,0:0:0:0:
64,192,72997,1,0,0:0:0:0:
192,192,72997,1,8,0:0:0:0:
448,192,72997,1,0,0:0:0:0:
192,192,73149,1,0,0:0:0:0:
448,192,73149,128,4,73758:0:0:0:0:
320,192,73149,128,2,73758:0:0:0:0:
192,192,73910,128,0,74367:0:0:0:0:
320,192,73910,128,0,74367:0:0:0:0:
448,192,74367,1,2,0:0:0:0:
64,192,74367,128,4,74824:0:0:0:0:
320,192,74672,1,0,0:0:0:0:
448,192,74672,1,2,0:0:0:0:
192,192,74824,1,0,0:0:0:0:
320,192,74824,1,0,0:0:0:0:
448,192,74824,1,8,0:0:0:0:
192,192,74976,128,0,75433:0:0:0:0:
64,192,74976,1,2,0:0:0:0:
448,192,75281,1,0,0:0:0:0:
320,192,75281,1,2,0:0:0:0:
64,192,75433,1,0,0:0:0:0:
320,192,75433,1,0,0:0:0:0:
448,192,75433,1,8,0:0:0:0:
64,192,75585,128,0,76042:0:0:0:0:
192,192,75585,1,2,0:0:0:0:
448,192,75890,1,2,0:0:0:0:
192,192,75890,1,0,0:0:0:0:
192,192,76042,1,0,0:0:0:0:
448,192,76042,1,0,0:0:0:0:
320,192,76042,1,8,0:0:0:0:
320,192,76195,128,0,76651:0:0:0:0:
64,192,76195,1,2,0:0:0:0:
192,192,76499,1,2,0:0:0:0:
448,192,76499,1,0,0:0:0:0:
64,192,76651,1,0,0:0:0:0:
192,192,76651,1,8,0:0:0:0:
448,192,76651,1,0,0:0:0:0:
192,192,76804,128,4,77261:0:0:0:0:
320,192,76804,1,2,0:0:0:0:
64,192,76804,1,0,0:0:0:0:
64,192,77108,1,0,0:0:0:0:
448,192,77108,1,2,0:0:0:0:
320,192,77261,1,0,0:0:0:0:
64,192,77261,1,0,0:0:0:0:
448,192,77261,1,8,0:0:0:0:
448,192,77413,128,0,77870:0:0:0:0:
192,192,77413,1,2,0:0:0:0:
64,192,77717,1,0,0:0:0:0:
192,192,77717,1,2,0:0:0:0:
64,192,77870,1,0,0:0:0:0:
192,192,77870,1,0,0:0:0:0:
320,192,77870,1,8,0:0:0:0:
320,192,78022,128,0,78479:0:0:0:0:
448,192,78022,1,2,0:0:0:0:
64,192,78327,1,0,0:0:0:0:
192,192,78327,1,2,0:0:0:0:
64,192,78479,1,0,0:0:0:0:
192,192,78479,1,0,0:0:0:0:
448,192,78479,1,8,0:0:0:0:
448,192,78631,128,0,79088:0:0:0:0:
320,192,78631,1,2,0:0:0:0:
64,192,78936,1,0,0:0:0:0:
320,192,78936,1,2,0:0:0:0:
192,192,79088,1,8,0:0:0:0:
64,192,79088,1,0,0:0:0:0:
320,192,79088,1,0,0:0:0:0:
64,192,79240,128,4,79697:0:0:0:0:
192,192,79240,1,0,0:0:0:0:
448,192,79240,1,2,0:0:0:0:
192,192,79545,1,0,0:0:0:0:
448,192,79545,1,2,0:0:0:0:
192,192,79697,1,0,0:0:0:0:
320,192,79697,1,0,0:0:0:0:
448,192,79697,1,8,0:0:0:0:
320,192,79849,128,0,80306:0:0:0:0:
64,192,79849,1,2,0:0:0:0:
64,192,80154,1,2,0:0:0:0:
448,192,80154,1,0,0:0:0:0:
64,192,80306,1,0,0:0:0:0:
448,192,80306,1,8,0:0:0:0:
192,192,80306,1,0,0:0:0:0:
192,192,80459,128,0,80915:0:0:0:0:
320,192,80459,1,2,0:0:0:0:
64,192,80763,1,0,0:0:0:0:
448,192,80763,1,2,0:0:0:0:
64,192,80915,1,0,0:0:0:0:
320,192,80915,1,0,0:0:0:0:
448,192,80915,1,8,0:0:0:0:
320,192,81068,128,0,81525:0:0:0:0:
192,192,81068,1,2,0:0:0:0:
64,192,81372,1,0,0:0:0:0:
192,192,81372,1,2,0:0:0:0:
64,192,81525,1,0,0:0:0:0:
192,192,81525,1,0,0:0:0:0:
448,192,81525,1,8,0:0:0:0:
320,192,81677,1,4,0:0:0:0:
64,192,81677,1,2,0:0:0:0:
448,192,81677,128,0,82134:0:0:0:0:
64,192,81981,5,0,0:0:0:0:
192,192,81981,1,2,0:0:0:0:
64,192,82134,1,0,0:0:0:0:
320,192,82134,1,8,0:0:0:0:
192,192,82134,1,0,0:0:0:0:
320,192,82286,1,0,0:0:0:0:
448,192,82286,1,2,0:0:0:0:
64,192,82438,1,0,0:0:0:0:
192,192,82438,1,0,0:0:0:0:
448,192,82438,1,8,0:0:0:0:
320,192,82591,1,2,0:0:0:0:
192,192,82591,1,0,0:0:0:0:
64,192,82743,1,0,0:0:0:0:
448,192,82743,1,8,0:0:0:0:
320,192,82743,1,0,0:0:0:0:
192,192,82895,5,0,0:0:0:0:
448,192,82895,1,4,0:0:0:0:
64,192,82895,128,2,83200:0:0:0:0:
192,192,83200,1,2,0:0:0:0:
448,192,83200,1,0,0:0:0:0:
320,192,83352,1,8,0:0:0:0:
64,192,83352,1,0,0:0:0:0:
192,192,83504,128,2,83809:0:0:0:0:
448,192,83504,1,4,0:0:0:0:
320,192,83504,1,0,0:0:0:0:
64,192,83809,1,0,0:0:0:0:
320,192,83809,1,2,0:0:0:0:
64,192,83961,1,0,0:0:0:0:
192,192,83961,1,0,0:0:0:0:
448,192,83961,1,8,0:0:0:0:
448,192,84113,128,2,84266:0:0:0:0:
320,192,84113,128,8,84266:0:0:0:0:
64,192,84113,128,0,84266:0:0:0:0:
64,192,84418,128,0,84570:0:0:0:0:
192,192,84418,128,8,84570:0:0:0:0:
320,192,84418,128,2,84570:0:0:0:0:
192,192,84723,128,8,84875:0:0:0:0:
448,192,84723,128,2,84875:0:0:0:0:
64,192,84723,128,0,84875:0:0:0:0:
320,192,85027,128,8,85179:0:0:0:0:
64,192,85027,128,0,85179:0:0:0:0:
448,192,85027,128,2,85179:0:0:0:0:
192,192,85332,128,4,88987:0:0:0:0:
320,192,85332,128,8,88987:0:0:0:0:
448,192,85332,128,2,88987:0:0:0:0:
64,192,85332,128,0,88987:0:0:0:0:
