osu file format v14

[General]
AudioFilename: audio.mp3
AudioLeadIn: 0
PreviewTime: 54903
Countdown: 0
SampleSet: Soft
StackLeniency: 0.4
Mode: 0
LetterboxInBreaks: 0
WidescreenStoryboard: 1

[Editor]
Bookmarks: 188101
DistanceSpacing: 0.8
BeatDivisor: 4
GridSize: 32
TimelineZoom: 1.4

[Metadata]
Title:Tenkyou no Alderamin (TV Size)
TitleUnicode:天鏡のアルデラミン (TV Size)
Artist:KISIDA KYODAN & THE AKEBOSI ROCKETS
ArtistUnicode:岸田教団&THE明星ロケッツ
Creator:SMOKELIND
Version:mnyui's Insane
Source:ねじ巻き精霊戦記 天鏡のアルデラミン
Tags:Japanese J-Rock JRock Rock Nejimaki Seirei Senki Ichigo Kishida Kyoudan Akeboshi reform kujinn mnyui basensorex and kowari on the Sky Anime Opening female vocal vocalist OP LIVE YOUR LIFE
BeatmapID:2537325
BeatmapSetID:1219599

[Difficulty]
HPDrainRate:4.5
CircleSize:3.8
OverallDifficulty:8
ApproachRate:9
SliderMultiplier:1.7
SliderTickRate:1

[Events]
//Background and Video events
0,0,"7.jpg",0,0
//Break Periods
2,1603,2517
2,45966,47602
//Storyboard Layer 0 (Background)
//Storyboard Layer 1 (Fail)
//Storyboard Layer 2 (Pass)
//Storyboard Layer 3 (Foreground)
//Storyboard Layer 4 (Overlay)
//Storyboard Sound Samples

[TimingPoints]
-528,304.568527918782,4,2,7,77,1,0
690,-111.111111111111,4,2,7,77,0,0
6629,-100,4,2,7,77,0,0
16375,-125,4,2,7,47,0,0
26121,-111.111111111111,4,2,7,57,0,0
43177,-100,4,2,7,57,0,0
45766,-166.666666666667,4,2,7,47,0,0
50639,-125,4,2,7,57,0,0
52923,-100,4,2,7,57,0,0
53380,-100,4,2,7,67,0,0
53685,-100,4,2,7,77,0,0
53989,-100,4,2,7,87,0,0
55360,-83.3333333333333,4,2,7,87,0,0
74395,-83.3333333333333,4,2,7,47,0,0
74852,-100,4,2,7,77,0,0
85816,-500,4,2,7,77,0,0
85969,-500,4,2,7,7,0,0
93279,-500,4,2,7,7,0,0

[Colours]
Combo1 : 255,115,0
Combo2 : 255,0,0

[HitObjects]
431,128,537,5,8,0:0:0:0:
431,128,614,1,8,0:0:0:0:
431,128,690,6,0,P|423:173|416:217,1,76.4999976654053,4|0,1:0|0:0,0:0:0:0:
239,120,994,2,0,P|231:79|225:38,1,76.4999976654053,4|0,1:0|0:0,0:0:0:0:
55,381,3126,6,0,P|46:337|39:299,1,76.4999976654053,4|0,1:0|0:0,0:0:0:0:
205,181,3431,2,0,P|197:221|189:262,1,76.4999976654053,4|0,1:0|0:0,0:0:0:0:
281,351,3735,2,0,L|321:341,3,38.2499988327027,8|8|8|8,0:0|3:0|3:0|3:0,0:0:0:0:
428,262,4040,1,8,3:0:0:0:
428,262,4116,1,8,3:0:0:0:
428,261,4192,6,0,P|420:221|411:181,1,76.4999976654053,4|0,1:0|0:0,0:0:0:0:
333,57,4497,1,8,0:0:0:0:
333,57,4573,1,8,0:0:0:0:
333,57,4649,2,0,L|344:114,1,38.2499988327027,8|8,0:0|0:0,0:0:0:0:
278,257,4801,1,4,1:0:0:0:
475,32,5715,5,0,1:0:0:0:
475,32,5791,1,0,1:0:0:0:
475,32,5867,6,0,P|464:90|453:137,1,76.4999976654053,12|0,0:0|0:0,0:0:0:0:
348,181,6172,2,0,L|331:126,1,38.2499988327027,8|8,0:0|0:0,0:0:0:0:
246,48,6324,2,0,L|233:87,1,38.2499988327027,8|8,0:0|0:0,0:0:0:0:
153,226,6477,1,8,0:0:0:0:
158,236,6553,1,8,0:0:0:0:
163,246,6629,6,0,P|101:259|51:161,1,170,6|0,1:0|0:0,0:0:0:0:
251,206,7086,2,0,P|256:248|262:290,1,85,8|2,0:0|0:0,0:0:0:0:
68,377,7390,2,0,P|73:334|79:292,1,85,2|0,1:0|0:0,0:0:0:0:
261,196,7695,1,10,0:0:0:0:
114,90,7847,2,0,P|119:132|125:174,1,85,2|0,0:0|1:0,0:0:0:0:
318,105,8152,1,2,0:0:0:0:
166,29,8304,1,10,0:0:0:0:
251,206,8456,2,0,P|293:200|335:194,1,85,2|0,0:0|1:0,0:0:0:0:
440,41,8761,2,0,P|397:35|355:29,1,85,2|0,0:0|1:0,0:0:0:0:
114,90,9065,6,0,P|183:113|251:51,1,170,14|2,0:0|0:0,0:0:0:0:
84,9,9522,1,10,0:0:0:0:
70,210,9675,2,0,P|125:198|171:189,1,85,2|0,0:0|1:0,0:0:0:0:
250,53,9979,1,2,0:0:0:0:
306,256,10131,2,0,P|251:244|205:235,1,85,10|0,0:0|0:0,0:0:0:0:
396,156,10436,1,0,1:0:0:0:
260,63,10588,2,0,P|272:118|281:164,1,85,2|8,0:0|0:0,0:0:0:0:
150,271,10893,2,0,P|108:262|66:253,1,85,2|8,0:0|0:0,0:0:0:0:
43,236,11121,1,8,0:0:0:0:
43,236,11197,2,0,L|59:187,1,42.5,10|8,0:0|0:0,0:0:0:0:
176,149,11350,2,0,L|189:189,1,42.5,8|8,0:0|0:0,0:0:0:0:
242,331,11502,6,0,B|302:316|359:302|359:302|403:350,1,170,6|0,1:0|0:0,0:0:0:0:
278,144,11959,2,0,P|289:190|300:239,1,85,8|2,0:0|0:0,0:0:0:0:
454,275,12263,2,0,P|463:233|473:192,1,85,2|0,1:0|0:0,0:0:0:0:
304,63,12568,1,10,0:0:0:0:
466,31,12720,2,0,P|456:72|446:113,1,85,2|0,0:0|1:0,0:0:0:0:
374,214,13025,1,2,0:0:0:0:
304,63,13177,1,10,0:0:0:0:
201,267,13329,6,0,P|137:253|11:231,1,170,2|2,0:0|0:0,0:0:0:0:
161,156,13786,1,0,1:0:0:0:
176,361,13939,2,0,P|217:351|259:344,1,85,14|0,0:0|1:0,0:0:0:0:
447,282,14243,1,2,0:0:0:0:
270,175,14395,2,0,P|279:216|286:258,1,85,10|2,0:0|0:0,0:0:0:0:
444,181,14700,2,0,P|451:139|460:97,1,85,2|0,1:0|0:0,0:0:0:0:
309,13,15004,1,10,0:0:0:0:
367,225,15157,5,6,1:0:0:0:
168,92,15461,1,6,1:0:0:0:
209,314,15766,1,6,1:0:0:0:
327,114,16070,1,4,1:0:0:0:
443,356,16375,6,0,P|391:344|293:328,1,136,6|0,1:0|1:0,0:0:0:0:
225,380,16832,2,0,P|217:346|208:313,1,68,8|0,0:0|3:0,0:0:0:0:
225,292,17060,1,8,3:0:0:0:
225,292,17136,2,0,P|232:258|241:225,1,68,10|0,3:0|1:0,0:0:0:0:
402,148,17441,5,8,0:0:0:0:
299,96,17593,2,0,P|315:161|331:228,1,136,2|0,1:0|1:0,0:0:0:0:
491,177,18050,2,0,P|500:135|511:93,1,68,8|0,0:0|3:0,0:0:0:0:
494,92,18279,1,8,3:0:0:0:
494,92,18355,1,8,3:0:0:0:
358,0,18507,2,0,P|366:32|373:66,1,68,2|8,1:0|0:0,0:0:0:0:
293,230,18812,6,0,B|231:206|238:266|156:234,1,136,6|0,1:0|1:0,0:0:0:0:
41,153,19268,2,0,P|53:203|58:237,1,68,8|0,0:0|3:0,0:0:0:0:
75,238,19497,1,8,3:0:0:0:
75,238,19573,2,0,P|66:270|60:304,1,68,8|2,3:0|1:0,0:0:0:0:
217,210,19878,1,10,0:0:0:0:
175,384,20030,6,0,P|168:350|161:306,1,68,2|8,1:0|3:0,0:0:0:0:
140,175,20334,1,0,1:0:0:0:
293,249,20487,2,0,P|299:215|307:171,1,68,8|0,0:0|3:0,0:0:0:0:
327,166,20715,1,8,3:0:0:0:
327,166,20791,1,8,3:0:0:0:
196,55,20944,2,0,P|201:88|208:121,1,68,2|8,1:0|0:0,0:0:0:0:
405,48,21248,6,0,P|346:34|290:108,1,136,6|0,1:0|1:0,0:0:0:0:
202,225,21705,2,0,P|168:219|135:212,1,68,8|0,0:0|3:0,0:0:0:0:
119,197,21933,1,8,3:0:0:0:
119,197,22010,2,0,P|85:203|52:209,1,68,10|0,3:0|1:0,0:0:0:0:
200,133,22314,1,8,0:0:0:0:
214,323,22466,6,0,B|263:311|304:301|304:301|335:328,1,136,2|0,1:0|1:0,0:0:0:0:
137,377,22923,2,0,P|128:336|118:300,1,68,8|0,0:0|3:0,0:0:0:0:
130,287,23152,1,8,3:0:0:0:
130,287,23228,1,8,3:0:0:0:
268,186,23380,1,2,1:0:0:0:
122,142,23532,1,8,0:0:0:0:
311,260,23685,6,0,P|323:194|334:127,1,136,6|0,1:0|1:0,0:0:0:0:
200,31,24142,2,0,P|205:64|211:97,1,68,8|0,0:0|3:0,0:0:0:0:
201,123,24370,1,8,3:0:0:0:
201,123,24446,1,8,3:0:0:0:
47,165,24598,1,0,1:0:0:0:
99,16,24751,1,10,0:0:0:0:
186,208,24903,6,0,P|176:247|165:294,1,68,6|0,1:0|0:0,0:0:0:0:
355,306,25208,1,8,3:0:0:0:
272,185,25360,1,8,3:0:0:0:
251,329,25512,1,8,3:0:0:0:
367,205,25664,6,0,P|375:160|383:125,1,68,12|2,0:0|1:0,0:0:0:0:
207,134,25969,1,8,0:0:0:0:
440,362,26121,6,0,P|468:339|433:221,1,152.999995330811,6|0,1:0|1:0,0:0:0:0:
324,309,26578,2,0,P|376:299|413:292,1,76.4999976654053,8|0,0:0|0:0,0:0:0:0:
498,155,26883,2,0,P|446:145|409:138,1,76.4999976654053,2|0,0:0|1:0,0:0:0:0:
301,26,27187,1,8,0:0:0:0:
251,246,27340,2,0,P|326:231|401:217,1,152.999995330811,2|0,1:0|1:0,0:0:0:0:
207,51,27796,2,0,P|167:82|181:191,1,152.999995330811,8|0,0:0|0:0,0:0:0:0:
313,142,28253,2,0,P|271:132|224:121,1,76.4999976654053,2|8,1:0|0:0,0:0:0:0:
52,299,28558,6,0,B|115:283|164:272|164:272|190:299,1,152.999995330811,2|2,1:0|1:0,0:0:0:0:
313,142,29015,1,10,0:0:0:0:
151,189,29167,1,2,0:0:0:0:
300,305,29319,2,0,P|305:265|309:229,1,76.4999976654053,2|2,0:0|1:0,0:0:0:0:
183,90,29624,1,10,0:0:0:0:
200,264,29776,1,2,1:0:0:0:
392,182,29928,6,0,P|397:144|402:106,1,76.4999976654053,2|0,0:0|1:0,0:0:0:0:
233,174,30233,1,10,0:0:0:0:
313,13,30385,2,0,P|317:50|321:88,1,76.4999976654053,2|0,0:0|0:0,0:0:0:0:
151,189,30690,1,2,1:0:0:0:
226,21,30842,1,10,0:0:0:0:
288,258,30994,6,0,P|344:257|390:168,1,152.999995330811,6|0,1:0|1:0,0:0:0:0:
291,104,31451,1,10,0:0:0:0:
220,309,31603,2,0,P|182:302|127:295,1,76.4999976654053,2|0,0:0|0:0,0:0:0:0:
50,170,31908,2,0,P|88:163|143:156,1,76.4999976654053,2|8,1:0|0:0,0:0:0:0:
329,28,32213,6,0,P|321:104|314:180,1,152.999995330811,2|0,1:0|1:0,0:0:0:0:
411,104,32669,1,10,0:0:0:0:
226,221,32822,2,0,P|222:182|219:144,1,76.4999976654053,2|0,0:0|0:0,0:0:0:0:
400,212,33126,2,0,P|396:250|393:288,1,76.4999976654053,2|8,1:0|0:0,0:0:0:0:
205,370,33431,1,6,1:0:0:0:
205,370,33735,5,2,1:0:0:0:
300,242,33888,1,10,0:0:0:0:
170,295,34040,2,0,P|121:290|12:279,1,152.999995330811,2|2,0:0|1:0,0:0:0:0:
201,183,34497,1,10,0:0:0:0:
86,124,34649,2,0,P|94:161|103:198,1,76.4999976654053,2|0,1:0|0:0,0:0:0:0:
292,173,34954,1,8,0:0:0:0:
147,69,35106,1,8,0:0:0:0:
182,257,35258,2,0,P|191:220|200:182,1,76.4999976654053,0|8,1:0|3:0,0:0:0:0:
332,52,35563,1,10,3:0:0:0:
332,52,35867,6,0,P|396:46|427:137,1,152.999995330811,6|2,1:0|1:0,0:0:0:0:
491,206,36324,1,0,1:0:0:0:
359,272,36477,1,2,3:0:0:0:
359,272,36553,1,0,3:0:0:0:
359,272,36629,2,0,P|312:262|265:252,1,76.4999976654053,10|2,0:0|0:0,0:0:0:0:
399,184,36934,1,2,1:0:0:0:
238,329,37086,6,0,P|211:305|228:196,1,152.999995330811,10|2,0:0|1:0,0:0:0:0:
410,107,37543,2,0,P|405:145|398:183,1,76.4999976654053,10|0,0:0|1:0,0:0:0:0:
318,359,37847,5,10,0:0:0:0:
279,138,37999,1,4,1:0:0:0:
279,138,38304,6,0,B|198:114|222:188|115:160,1,152.999995330811,6|2,1:0|0:0,0:0:0:0:
19,67,38761,2,0,P|27:104|36:141,1,76.4999976654053,2|2,1:0|0:0,0:0:0:0:
225,57,39065,1,10,0:0:0:0:
131,0,39218,2,0,P|122:37|113:74,1,76.4999976654053,2|2,1:0|0:0,0:0:0:0:
251,211,39522,5,10,0:0:0:0:
120,157,39675,1,8,0:0:0:0:
105,339,39827,2,0,P|152:331|197:323,1,76.4999976654053,6|0,1:0|0:0,0:0:0:0:
423,257,40131,2,0,P|377:234|318:314,1,152.999995330811,6|2,1:0|0:0,0:0:0:0:
314,297,40741,6,0,P|307:213|301:144,1,152.999995330811,6|2,1:0|1:0,0:0:0:0:
215,31,41197,1,2,1:0:0:0:
153,195,41350,1,2,3:0:0:0:
153,195,41426,1,0,3:0:0:0:
153,195,41502,2,0,P|203:186|254:177,1,76.4999976654053,8|2,0:0|0:0,0:0:0:0:
291,52,41807,1,2,1:0:0:0:
401,234,41959,6,0,P|350:225|299:216,1,76.4999976654053,10|0,0:0|0:0,0:0:0:0:
181,107,42263,1,2,1:0:0:0:
417,61,42416,2,0,P|408:111|399:162,1,76.4999976654053,10|0,0:0|1:0,0:0:0:0:
261,268,42720,5,10,0:0:0:0:
210,20,42873,1,4,1:0:0:0:
210,20,43177,6,0,P|155:28|96:35,1,85,6|0,1:0|0:0,0:0:0:0:
69,189,43482,2,0,P|124:197|183:204,1,85,2|8,1:0|0:0,0:0:0:0:
284,92,43786,2,0,P|276:147|269:206,1,85,2|0,0:0|1:0,0:0:0:0:
433,274,44091,1,2,1:0:0:0:
374,129,44243,1,10,0:0:0:0:
262,311,44395,6,0,B|212:297|149:281|149:281|88:331,1,170,6|2,1:0|1:0,0:0:0:0:
1,201,44852,1,10,0:0:0:0:
186,124,45004,2,0,P|190:166|196:209,1,85,2|8,0:0|0:0,0:0:0:0:
35,107,45309,1,10,0:0:0:0:
35,107,45385,1,8,0:0:0:0:
35,107,45461,2,0,L|51:30,3,42.5,8|8|10|8,0:0|0:0|0:0|0:0,0:0:0:0:
230,12,45766,5,4,1:0:0:0:
247,36,48202,6,0,P|326:40|351:69,1,101.999996887207,0|0,3:0|3:0,0:0:0:0:
314,177,48812,2,0,P|235:173|210:144,1,101.999996887207,2|2,3:0|3:0,0:0:0:0:
100,32,49421,2,0,P|123:110|132:151,1,101.999996887207,0|0,3:0|3:0,0:0:0:0:
102,278,50030,1,2,3:0:0:0:
102,278,50182,1,0,1:0:0:0:
172,341,50334,2,0,P|210:335|234:331,1,50.9999984436036,10|0,3:0|0:0,0:0:0:0:
461,230,50639,6,0,B|390:209|324:190|324:190|267:249,1,204,4|0,1:0|1:0,0:0:0:0:
125,145,51248,2,0,P|153:97|245:114,1,136,10|2,0:0|0:0,0:0:0:0:
314,157,51705,1,0,1:0:0:0:
109,237,51857,2,0,P|95:172|78:87,1,136,0|0,1:0|1:0,0:0:0:0:
279,3,52466,6,0,P|271:36|265:69,1,68,10|0,0:0|1:0,0:0:0:0:
404,122,52771,1,10,0:0:0:0:
265,227,52923,2,0,B|165:185|199:277|81:238,1,170,4|8,1:0|0:0,0:0:0:0:
204,384,53380,2,0,P|217:332|227:297,1,85,8|8,0:0|0:0,0:0:0:0:
282,138,53685,1,8,0:0:0:0:
339,308,53837,1,8,0:0:0:0:
176,152,53989,1,8,0:0:0:0:
405,70,54142,1,6,1:0:0:0:
74,83,55360,6,0,B|143:76|206:52|206:52|245:78|233:136,1,203.999993774414,6|2,1:0|1:0,0:0:0:0:
150,255,55817,2,0,P|138:193|129:149,1,101.999996887207,10|0,0:0|0:0,0:0:0:0:
338,45,56121,2,0,P|327:94|318:145,1,101.999996887207,2|0,1:0|1:0,0:0:0:0:
448,245,56426,1,10,0:0:0:0:
237,175,56578,2,0,P|247:224|256:275,1,101.999996887207,2|0,1:0|0:0,0:0:0:0:
427,236,56882,1,2,1:0:0:0:
318,145,57035,1,10,0:0:0:0:
348,320,57187,1,2,0:0:0:0:
453,140,57340,6,0,P|443:89|435:38,1,101.999996887207,2|0,1:0|1:0,0:0:0:0:
236,175,57644,1,10,0:0:0:0:
341,25,57796,2,0,P|322:135|301:245,1,203.999993774414,6|2,1:0|1:0,0:0:0:0:
149,104,58253,2,0,P|199:95|249:86,1,101.999996887207,10|2,0:0|0:0,0:0:0:0:
190,252,58558,2,0,P|139:243|89:234,1,101.999996887207,2|2,1:0|1:0,0:0:0:0:
0,140,58862,1,10,0:0:0:0:
0,374,59015,6,0,P|108:356|216:336,1,203.999993774414,2|0,1:0|1:0,0:0:0:0:
281,171,59471,1,10,0:0:0:0:
349,328,59624,1,2,0:0:0:0:
190,252,59776,2,0,L|170:182,3,50.9999984436036,8|8|8|8,0:0|0:0|0:0|0:0,0:0:0:0:
230,44,60081,1,8,0:0:0:0:
240,39,60157,1,8,0:0:0:0:
250,34,60233,6,0,P|301:22|375:165,1,203.999993774414,6|0,1:0|1:0,0:0:0:0:
137,115,60690,2,0,P|146:64|155:14,1,101.999996887207,10|0,0:0|0:0,0:0:0:0:
296,117,60994,2,0,P|304:167|314:217,1,101.999996887207,2|0,1:0|1:0,0:0:0:0:
166,284,61299,1,8,0:0:0:0:
398,355,61451,6,0,P|406:304|416:254,1,101.999996887207,2|0,1:0|0:0,0:0:0:0:
425,64,61756,1,2,1:0:0:0:
314,217,61908,2,0,P|263:208|213:198,1,101.999996887207,10|0,0:0|0:0,0:0:0:0:
132,52,62213,2,0,P|182:43|232:33,1,101.999996887207,2|0,1:0|1:0,0:0:0:0:
308,116,62517,1,8,0:0:0:0:
119,233,62669,6,0,P|107:183|97:133,1,101.999996887207,6|0,1:0|0:0,0:0:0:0:
213,198,62974,1,2,1:0:0:0:
0,309,63126,2,0,P|12:259|22:209,1,101.999996887207,10|2,0:0|1:0,0:0:0:0:
13,173,63355,1,0,1:0:0:0:
13,173,63431,1,10,0:0:0:0:
132,52,63583,2,0,L|142:101,1,50.9999984436036,2|0,1:0|1:0,0:0:0:0:
213,198,63735,2,0,L|223:148,1,50.9999984436036,10|8,3:0|3:0,0:0:0:0:
313,40,63888,6,0,P|370:22|434:134,1,203.999993774414,6|10,1:0|0:0,0:0:0:0:
452,163,64268,1,8,0:0:0:0:
452,163,64345,2,0,L|444:213,1,50.9999984436036,8|8,0:0|0:0,0:0:0:0:
338,330,64497,2,0,P|325:272|315:230,1,101.999996887207,6|0,1:0|0:0,0:0:0:0:
151,65,64801,2,0,P|139:114|128:164,1,101.999996887207,10|8,0:0|0:0,0:0:0:0:
124,208,65030,1,8,0:0:0:0:
124,208,65106,6,0,B|241:164|203:278|335:223,1,203.999993774414,6|2,1:0|1:0,0:0:0:0:
182,384,65563,2,0,P|168:321|159:275,1,101.999996887207,10|0,0:0|0:0,0:0:0:0:
40,148,65867,2,0,P|29:197|18:247,1,101.999996887207,2|0,1:0|1:0,0:0:0:0:
218,172,66172,1,10,0:0:0:0:
45,57,66324,6,0,B|124:40|190:27|190:27|225:70,1,203.999993774414,2|2,1:0|1:0,0:0:0:0:
323,221,66781,1,10,0:0:0:0:
368,60,66933,1,2,0:0:0:0:
218,172,67086,2,0,P|226:226|235:272,1,101.999996887207,2|0,1:0|1:0,0:0:0:0:
390,146,67390,1,8,0:0:0:0:
405,342,67543,6,0,P|354:333|304:324,1,101.999996887207,6|0,1:0|0:0,0:0:0:0:
218,172,67847,1,2,1:0:0:0:
152,358,67999,2,0,P|143:307|134:257,1,101.999996887207,10|2,0:0|0:0,0:0:0:0:
29,145,68304,2,0,P|20:195|11:245,1,101.999996887207,2|0,1:0|1:0,0:0:0:0:
218,172,68609,1,10,0:0:0:0:
62,65,68761,1,2,1:0:0:0:
210,282,68913,6,0,P|218:231|227:181,1,101.999996887207,8|2,0:0|1:0,0:0:0:0:
424,93,69218,1,10,0:0:0:0:
332,285,69370,1,2,1:0:0:0:
263,86,69522,6,0,L|193:77,1,50.9999984436036,8|8,0:0|0:0,0:0:0:0:
302,190,69675,2,0,L|353:184,1,50.9999984436036,8|8,0:0|0:0,0:0:0:0:
253,76,69827,2,0,L|183:67,1,50.9999984436036,8|8,0:0|0:0,0:0:0:0:
310,199,69979,6,0,P|407:187|513:174,1,203.999993774414,6|0,1:0|1:0,0:0:0:0:
404,364,70436,2,0,P|410:313|419:263,1,101.999996887207,10|0,0:0|0:0,0:0:0:0:
209,165,70741,2,0,P|217:215|224:265,1,101.999996887207,2|0,1:0|1:0,0:0:0:0:
346,118,71045,1,8,0:0:0:0:
128,79,71197,6,0,P|119:129|112:179,1,101.999996887207,2|0,1:0|0:0,0:0:0:0:
234,275,71502,1,2,1:0:0:0:
26,153,71654,2,0,P|34:203|41:253,1,101.999996887207,10|0,0:0|0:0,0:0:0:0:
218,375,71959,2,0,P|224:324|233:274,1,101.999996887207,2|2,1:0|1:0,0:0:0:0:
98,353,72263,1,10,0:0:0:0:
204,166,72416,6,0,B|316:122|288:231|404:200,1,203.999993774414,6|2,1:0|1:0,0:0:0:0:
238,253,72873,1,8,0:0:0:0:
368,117,73025,2,0,P|359:66|350:16,1,101.999996887207,2|8,1:0|3:0,0:0:0:0:
166,86,73329,1,8,3:0:0:0:
343,192,73482,1,10,0:0:0:0:
119,263,73634,1,6,1:0:0:0:
467,267,74852,6,0,P|442:326|330:324,1,170,6|0,1:0|1:0,0:0:0:0:
219,231,75309,1,8,0:0:0:0:
395,175,75461,2,0,P|388:217|383:259,1,85,2|0,1:0|0:0,0:0:0:0:
323,116,75766,1,0,1:0:0:0:
229,221,75918,2,0,P|270:211|311:202,1,85,8|0,0:0|1:0,0:0:0:0:
491,101,76223,6,0,P|449:91|408:82,1,85,2|0,0:0|1:0,0:0:0:0:
252,10,76527,2,0,P|192:48|227:146,1,170,8|0,0:0|0:0,0:0:0:0:
372,242,76984,2,0,P|387:183|401:143,1,85,2|10,1:0|0:0,0:0:0:0:
225,288,77289,6,0,B|165:272|114:260|114:260|65:307,1,170,6|0,1:0|1:0,0:0:0:0:
243,191,77746,1,8,0:0:0:0:
82,130,77898,2,0,P|91:171|101:212,1,85,2|0,1:0|0:0,0:0:0:0:
261,104,78202,1,0,1:0:0:0:
225,288,78355,1,8,0:0:0:0:
125,53,78507,6,0,P|43:48|0:116,1,170,2|0,1:0|1:0,0:0:0:0:
160,215,78964,2,0,P|169:173|178:132,1,85,8|0,0:0|1:0,0:0:0:0:
13,215,79268,2,0,P|22:256|32:298,1,85,2|0,0:0|1:0,0:0:0:0:
82,130,79573,1,8,0:0:0:0:
200,303,79725,6,0,B|301:258|264:346|379:295,1,170,4|0,1:0|1:0,0:0:0:0:
478,199,80182,1,10,0:0:0:0:
304,140,80334,2,0,P|314:181|324:222,1,85,2|0,1:0|0:0,0:0:0:0:
467,291,80639,2,0,P|476:249|487:208,1,85,0|8,1:0|0:0,0:0:0:0:
347,67,80944,6,0,P|290:51|225:154,1,170,2|0,1:0|1:0,0:0:0:0:
76,206,81400,1,8,0:0:0:0:
110,37,81553,2,0,P|120:78|130:119,1,85,2|0,1:0|0:0,0:0:0:0:
289,168,81857,2,0,P|278:209|268:250,1,85,0|8,1:0|0:0,0:0:0:0:
91,293,82162,6,0,P|36:284|6:173,1,170,6|0,1:0|1:0,0:0:0:0:
184,95,82619,1,10,0:0:0:0:
179,290,82771,1,0,1:0:0:0:
80,140,82923,6,0,P|87:98|94:56,1,85,10|0,0:0|1:0,0:0:0:0:
281,143,83228,1,10,0:0:0:0:
179,290,83380,2,0,P|171:248|164:206,1,85,6|0,1:0|0:0,0:0:0:0:
259,56,83685,1,10,3:0:0:0:
301,238,83837,1,10,0:0:0:0:
407,55,83989,6,0,P|417:139|430:223,1,170,6|10,1:0|3:0,0:0:0:0:
281,143,84446,1,10,0:0:0:0:
256,330,84598,2,0,P|226:286|107:306,1,170,6|6,1:0|1:0,0:0:0:0:
0,129,85208,2,0,P|30:85|149:105,1,170,6|6,1:0|1:0,0:0:0:0:
408,354,85817,6,0,P|409:115|48:296,1,833,6|0,1:0|0:0,0:0:0:0:
