osu file format v14

[General]
AudioFilename: audio.mp3
AudioLeadIn: 0
PreviewTime: 54903
Countdown: 0
SampleSet: Soft
StackLeniency: 0.4
Mode: 0
LetterboxInBreaks: 0
WidescreenStoryboard: 1

[Editor]
Bookmarks: 188101
DistanceSpacing: 1
BeatDivisor: 4
GridSize: 32
TimelineZoom: 2.1

[Metadata]
Title:Tenkyou no Alderamin (TV Size)
TitleUnicode:天鏡のアルデラミン (TV Size)
Artist:KISIDA KYODAN & THE AKEBOSI ROCKETS
ArtistUnicode:岸田教団&THE明星ロケッツ
Creator:SMOKELIND
Version:Reform's Expert
Source:ねじ巻き精霊戦記 天鏡のアルデラミン
Tags:Japanese J-Rock JRock Rock Nejimaki Seirei Senki Ichigo Kishida Kyoudan Akeboshi reform kujinn mnyui basensorex and kowari on the Sky Anime Opening female vocal vocalist OP LIVE YOUR LIFE
BeatmapID:2537326
BeatmapSetID:1219599

[Difficulty]
HPDrainRate:5.5
CircleSize:4
OverallDifficulty:9
ApproachRate:9.2
SliderMultiplier:1.77
SliderTickRate:1

[Events]
//Background and Video events
0,0,"7.jpg",0,0
//Break Periods
//Storyboard Layer 0 (Background)
//Storyboard Layer 1 (Fail)
//Storyboard Layer 2 (Pass)
//Storyboard Layer 3 (Foreground)
//Storyboard Layer 4 (Overlay)
//Storyboard Sound Samples

[TimingPoints]
-528,304.568527918782,4,2,7,77,1,0
690,-103.092783505155,4,2,7,77,0,0
1299,-149.253731343284,4,2,7,77,0,0
3126,-103.092783505155,4,2,7,77,0,0
6629,-103.092783505155,4,2,7,77,0,0
16375,-129.87012987013,4,2,7,47,0,0
26121,-114.942528735632,4,2,7,57,0,0
43177,-114.942528735632,4,2,7,57,0,0
45766,-212.765957446808,4,2,7,47,0,0
49421,-149.253731343283,4,2,7,47,0,0
50639,-129.87012987013,4,2,7,57,0,0
53380,-129.87012987013,4,2,7,67,0,0
53685,-129.87012987013,4,2,7,77,0,0
53989,-129.87012987013,4,2,7,87,0,0
55055,-270.270270270271,4,2,7,87,0,0
55284,-270.270270270271,4,2,7,7,0,0
55360,-93.4579439252336,4,2,7,87,0,0
74395,-212.765957446809,4,2,7,47,0,0
74852,-103.092783505155,4,2,7,77,0,0
85816,-833.333333333333,4,2,7,77,0,0
85969,-833.333333333333,4,2,7,7,0,0

[Colours]
Combo1 : 255,115,0
Combo2 : 255,0,0

[HitObjects]
122,53,537,5,8,0:0:0:0:
122,53,614,1,8,0:0:0:0:
122,53,690,2,0,P|139:114|145:213,1,128.767503045496,4|0,1:0|0:0,0:0:0:0:
167,248,994,2,0,P|173:184|190:122,1,128.767503045496,4|0,1:0|0:0,0:0:0:0:
257,71,1299,6,0,L|334:64,2,59.2949971952135,2|2|2,0:0|0:0|0:0,0:0:0:0:
330,167,1756,1,2,0:0:0:0:
330,167,1908,2,0,L|400:178,1,59.2949971952135,2|0,0:0|0:0,0:0:0:0:
265,255,2213,1,2,0:0:0:0:
265,255,2365,2,0,L|195:266,1,59.2949971952135,2|0,0:0|0:0,0:0:0:0:
300,360,2669,1,2,0:0:0:0:
354,261,2822,1,2,0:0:0:0:
421,363,2974,1,2,0:0:0:0:
463,208,3126,6,0,P|469:147|491:60,1,128.767503045496,4|0,1:0|0:0,0:0:0:0:
426,18,3431,2,0,P|440:80|447:144,1,128.767503045496,4|0,1:0|0:0,0:0:0:0:
384,207,3735,5,8,0:0:0:0:
384,207,3812,1,8,3:0:0:0:
384,207,3888,2,0,L|338:216,1,42.9225010151654,8|8,3:0|3:0,0:0:0:0:
239,80,4040,2,0,L|285:89,1,42.9225010151654,8|8,3:0|3:0,0:0:0:0:
170,221,4192,6,0,P|121:243|34:153,1,171.690004060661,4|8,1:0|0:0,0:0:0:0:
73,112,4573,1,8,0:0:0:0:
73,112,4649,2,0,L|60:47,1,42.9225010151654,8|8,0:0|0:0,0:0:0:0:
123,327,4801,1,4,1:0:0:0:
129,336,5715,5,0,1:0:0:0:
129,336,5791,1,0,1:0:0:0:
129,336,5867,2,0,P|162:379|255:352,1,128.767503045496,12|0,0:0|0:0,0:0:0:0:
293,326,6172,1,8,0:0:0:0:
293,326,6248,1,8,0:0:0:0:
293,326,6324,2,0,L|283:258,1,42.9225010151654,8|8,0:0|0:0,0:0:0:0:
175,154,6477,2,0,L|165:222,1,42.9225010151654,8|8,0:0|0:0,0:0:0:0:
436,116,6629,6,0,P|421:67|296:66,1,171.690004060661,6|0,1:0|0:0,0:0:0:0:
232,230,7086,1,8,0:0:0:0:
364,161,7238,1,2,0:0:0:0:
234,54,7390,2,0,P|248:109|253:154,1,85.8450020303307,2|0,1:0|0:0,0:0:0:0:
188,322,7695,1,10,0:0:0:0:
347,156,7847,2,0,P|333:211|328:256,1,85.8450020303307,2|0,0:0|1:0,0:0:0:0:
373,384,8152,1,2,0:0:0:0:
235,230,8304,1,10,0:0:0:0:
467,320,8456,2,0,P|495:270|443:178,1,171.690004060661,2|2,0:0|0:0,0:0:0:0:
295,336,8913,1,0,1:0:0:0:
97,151,9065,6,0,B|199:141|157:222|254:214,1,171.690004060661,14|2,0:0|0:0,0:0:0:0:
99,258,9522,1,10,0:0:0:0:
244,100,9675,1,2,0:0:0:0:
128,298,9827,2,0,P|87:319|31:306,1,85.8450020303307,0|2,1:0|0:0,0:0:0:0:
288,271,10131,1,10,0:0:0:0:
69,214,10284,2,0,P|39:171|38:124,1,85.8450020303307,0|0,0:0|1:0,0:0:0:0:
187,350,10588,5,2,0:0:0:0:
132,133,10741,2,0,P|141:89|152:32,1,85.8450020303307,8|2,0:0|0:0,0:0:0:0:
297,236,11045,1,8,0:0:0:0:
297,236,11121,1,8,0:0:0:0:
297,236,11197,2,0,L|369:218,1,42.9225010151654,10|8,0:0|0:0,0:0:0:0:
201,344,11350,2,0,L|129:326,1,42.9225010151654,8|8,0:0|0:0,0:0:0:0:
303,140,11502,6,0,P|369:132|425:234,1,171.690004060661,6|0,1:0|0:0,0:0:0:0:
178,170,11959,1,8,0:0:0:0:
292,365,12111,1,2,0:0:0:0:
133,220,12263,2,0,P|121:157|102:104,1,85.8450020303307,2|0,1:0|0:0,0:0:0:0:
76,359,12568,1,10,0:0:0:0:
216,162,12720,2,0,P|227:120|234:78,1,85.8450020303307,2|0,0:0|1:0,0:0:0:0:
273,314,13025,1,2,0:0:0:0:
131,149,13177,1,10,0:0:0:0:
310,307,13329,2,0,P|373:306|414:196,1,171.690004060661,2|2,0:0|0:0,0:0:0:0:
293,119,13786,1,0,1:0:0:0:
183,373,13939,6,0,P|173:283|149:194,1,171.690004060661,14|2,0:0|0:0,0:0:0:0:
71,302,14395,1,10,0:0:0:0:
127,108,14548,1,2,0:0:0:0:
240,263,14700,2,0,P|230:318|213:372,1,85.8450020303307,2|0,1:0|0:0,0:0:0:0:
48,197,15004,1,10,0:0:0:0:
300,83,15157,5,6,1:0:0:0:
81,41,15461,5,6,1:0:0:0:
332,195,15766,5,6,1:0:0:0:
68,291,16070,5,4,1:0:0:0:
422,341,16375,6,0,B|347:316|374:390|268:347,1,136.289997296494,6|0,1:0|1:0,0:0:0:0:
165,261,16832,1,8,0:0:0:0:
293,191,16984,1,0,3:0:0:0:
293,191,17060,1,8,3:0:0:0:
293,191,17136,2,0,P|286:232|280:282,1,68.1449986482468,10|0,3:0|1:0,0:0:0:0:
185,146,17441,1,8,0:0:0:0:
313,100,17593,6,0,P|357:93|406:83,1,68.1449986482468,2|8,1:0|3:0,0:0:0:0:
465,237,17898,1,0,1:0:0:0:
342,178,18050,1,8,0:0:0:0:
473,59,18202,1,0,3:0:0:0:
473,59,18279,1,8,3:0:0:0:
473,59,18355,2,0,P|488:98|472:149,1,68.1449986482468,8|2,3:0|1:0,0:0:0:0:
403,250,18659,1,8,0:0:0:0:
236,28,18812,6,0,L|219:187,1,136.289997296494,6|0,1:0|1:0,0:0:0:0:
101,298,19268,2,0,L|90:230,1,68.1449986482468,8|0,0:0|3:0,0:0:0:0:
85,202,19497,1,8,3:0:0:0:
85,202,19573,1,8,3:0:0:0:
201,264,19725,1,2,1:0:0:0:
43,350,19878,1,10,0:0:0:0:
191,180,20030,6,0,P|231:183|270:215,1,68.1449986482468,2|8,1:0|3:0,0:0:0:0:
192,364,20334,1,0,1:0:0:0:
128,241,20487,1,8,0:0:0:0:
269,325,20639,1,0,3:0:0:0:
269,325,20715,1,8,3:0:0:0:
269,325,20791,2,0,P|239:340|205:341,1,68.1449986482468,8|2,3:0|1:0,0:0:0:0:
312,175,21096,1,8,0:0:0:0:
461,381,21248,6,0,P|443:317|470:227,1,136.289997296494,6|0,1:0|1:0,0:0:0:0:
498,124,21705,1,8,0:0:0:0:
365,254,21857,1,0,3:0:0:0:
365,254,21933,1,8,3:0:0:0:
365,254,22010,2,0,P|357:211|343:181,1,68.1449986482468,10|0,3:0|1:0,0:0:0:0:
238,286,22314,1,8,0:0:0:0:
342,341,22466,1,2,1:0:0:0:
250,198,22619,6,0,P|202:205|171:236,1,68.1449986482468,8|0,3:0|1:0,0:0:0:0:
102,342,22923,1,8,0:0:0:0:
68,166,23076,1,0,3:0:0:0:
68,166,23152,1,8,3:0:0:0:
68,166,23228,2,0,L|82:254,1,68.1449986482468,8|2,3:0|1:0,0:0:0:0:
166,103,23532,1,8,0:0:0:0:
222,359,23685,6,0,L|239:205,1,136.289997296494,6|0,1:0|1:0,0:0:0:0:
355,120,24142,2,0,L|363:194,1,68.1449986482468,8|0,0:0|3:0,0:0:0:0:
368,208,24370,1,8,3:0:0:0:
368,208,24446,1,8,3:0:0:0:
231,110,24598,1,0,1:0:0:0:
382,29,24751,1,10,0:0:0:0:
181,259,24903,5,6,1:0:0:0:
181,259,25208,5,8,3:0:0:0:
148,154,25360,1,8,3:0:0:0:
259,292,25512,1,8,3:0:0:0:
83,233,25664,5,12,0:0:0:0:
270,154,25817,1,2,1:0:0:0:
151,335,25969,1,8,0:0:0:0:
167,91,26121,6,0,P|128:41|32:58,1,153.990001292336,6|0,1:0|1:0,0:0:0:0:
102,213,26578,2,0,P|141:199|187:195,1,76.9950006461678,8|0,0:0|0:0,0:0:0:0:
252,29,26883,1,2,0:0:0:0:
119,92,27035,1,0,1:0:0:0:
265,166,27187,1,8,0:0:0:0:
32,93,27340,6,0,P|47:146|59:267,1,153.990001292336,2|0,1:0|1:0,0:0:0:0:
203,380,27796,1,8,0:0:0:0:
154,240,27949,1,0,3:0:0:0:
154,240,28025,1,0,3:0:0:0:
154,240,28101,1,0,3:0:0:0:
83,361,28253,2,0,P|46:377|2:370,1,76.9950006461678,2|8,1:0|0:0,0:0:0:0:
240,188,28558,6,0,P|284:183|346:274,1,153.990001292336,2|2,1:0|1:0,0:0:0:0:
263,353,29015,2,0,P|254:306|245:268,1,76.9950006461678,10|2,0:0|0:0,0:0:0:0:
421,199,29319,1,2,0:0:0:0:
350,309,29472,1,2,1:0:0:0:
292,176,29624,2,0,P|301:129|310:91,1,76.9950006461678,10|2,0:0|1:0,0:0:0:0:
437,306,29928,6,0,P|475:326|511:324,1,76.9950006461678,2|0,0:0|1:0,0:0:0:0:
274,343,30233,1,10,0:0:0:0:
411,211,30385,1,2,3:0:0:0:
411,211,30461,1,0,3:0:0:0:
411,211,30537,2,0,P|427:172|421:117,1,76.9950006461678,0|2,0:0|1:0,0:0:0:0:
286,256,30842,1,10,0:0:0:0:
388,59,30994,6,0,P|445:47|514:118,1,153.990001292336,6|0,1:0|1:0,0:0:0:0:
390,208,31451,1,10,0:0:0:0:
277,77,31603,1,2,3:0:0:0:
277,77,31680,1,0,3:0:0:0:
277,77,31756,1,0,3:0:0:0:
404,188,31908,1,2,1:0:0:0:
240,253,32060,1,8,0:0:0:0:
482,138,32213,6,0,P|463:194|447:312,1,153.990001292336,2|0,1:0|1:0,0:0:0:0:
262,127,32669,1,10,0:0:0:0:
319,294,32822,1,2,3:0:0:0:
319,294,32898,1,0,3:0:0:0:
319,294,32974,1,0,3:0:0:0:
249,127,33126,1,2,1:0:0:0:
409,208,33279,1,8,0:0:0:0:
179,245,33431,6,0,P|143:203|170:107,1,153.990001292336,6|2,1:0|1:0,0:0:0:0:
285,212,33888,1,10,0:0:0:0:
117,302,34040,1,2,0:0:0:0:
237,153,34192,2,0,P|243:187|251:238,1,76.9950006461678,0|2,1:0|1:0,0:0:0:0:
91,151,34497,1,10,0:0:0:0:
333,38,34649,6,0,L|317:185,1,115.492500969252,2|0,1:0|0:0,0:0:0:0:
311,226,34954,1,8,0:0:0:0:
234,87,35106,1,8,0:0:0:0:
296,296,35258,1,0,1:0:0:0:
414,115,35411,1,8,3:0:0:0:
186,209,35563,1,10,3:0:0:0:
186,209,35867,6,0,P|251:202|313:267,1,153.990001292336,6|2,1:0|1:0,0:0:0:0:
224,289,36324,1,0,1:0:0:0:
300,180,36477,1,2,3:0:0:0:
379,333,36629,2,0,P|345:355|301:355,1,76.9950006461678,10|2,0:0|0:0,0:0:0:0:
401,197,36933,1,2,1:0:0:0:
472,353,37086,6,0,L|494:183,1,153.990001292336,10|2,0:0|1:0,0:0:0:0:
259,70,37543,1,10,0:0:0:0:
320,201,37695,1,0,1:0:0:0:
392,45,37847,1,10,0:0:0:0:
186,216,37999,1,4,1:0:0:0:
186,216,38304,6,0,P|131:227|74:135,1,153.990001292336,6|2,1:0|0:0,0:0:0:0:
176,38,38761,2,0,L|191:123,1,76.9950006461678,2|2,1:0|0:0,0:0:0:0:
83,289,39065,1,10,0:0:0:0:
220,200,39218,1,2,1:0:0:0:
73,114,39370,1,2,0:0:0:0:
210,305,39522,5,10,0:0:0:0:
293,118,39675,1,8,0:0:0:0:
127,219,39827,2,0,L|44:240,1,76.9950006461678,6|0,1:0|0:0,0:0:0:0:
309,358,40131,2,0,L|392:379,1,76.9950006461678,6|0,1:0|0:0,0:0:0:0:
383,376,40436,5,2,0:0:0:0:
383,376,40741,2,0,P|398:329|369:224,1,153.990001292336,6|2,1:0|1:0,0:0:0:0:
284,119,41197,1,2,1:0:0:0:
237,276,41350,2,0,P|194:300|153:296,1,76.9950006461678,2|8,3:0|0:0,0:0:0:0:
68,147,41654,1,2,0:0:0:0:
196,211,41807,1,2,1:0:0:0:
67,331,41959,6,0,P|50:280|61:229,1,76.9950006461678,10|0,0:0|0:0,0:0:0:0:
181,96,42263,1,2,1:0:0:0:
272,275,42416,1,10,0:0:0:0:
156,91,42568,1,0,1:0:0:0:
91,254,42720,1,10,0:0:0:0:
239,44,42873,1,4,1:0:0:0:
239,44,43177,6,0,L|269:227,1,153.990001292336,6|2,1:0|1:0,0:0:0:0:
219,331,43634,1,8,0:0:0:0:
373,199,43786,2,0,L|357:289,1,76.9950006461678,2|0,0:0|1:0,0:0:0:0:
183,189,44091,1,2,1:0:0:0:
323,109,44243,1,10,0:0:0:0:
188,284,44395,6,0,P|129:274|93:179,1,153.990001292336,6|2,1:0|1:0,0:0:0:0:
226,72,44852,1,10,0:0:0:0:
293,228,45004,1,2,0:0:0:0:
88,96,45157,1,8,0:0:0:0:
88,96,45233,1,8,0:0:0:0:
88,96,45309,2,0,L|146:85,1,38.4975003230839,2|8,3:0|0:0,0:0:0:0:
209,218,45461,1,8,0:0:0:0:
209,218,45537,1,8,0:0:0:0:
209,218,45613,2,0,L|151:207,1,38.4975003230839,10|8,0:0|0:0,0:0:0:0:
263,112,45766,6,0,B|399:75|363:224|497:186,1,249.569996191864,4|2,1:0|0:0,0:0:0:0:
446,112,46984,2,0,P|385:124|405:220,1,166.379997461243,2|2,0:0|0:0,0:0:0:0:
460,295,47898,1,2,0:0:0:0:
460,295,48202,6,0,L|401:303,1,41.5949993653107,0|0,3:0|0:0,0:0:0:0:
309,379,48507,2,0,L|368:387,1,41.5949993653107,0|0,3:0|0:0,0:0:0:0:
286,233,48812,2,0,L|227:241,1,41.5949993653107,2|0,3:0|0:0,0:0:0:0:
138,323,49116,2,0,L|197:331,1,41.5949993653107,2|0,3:0|0:0,0:0:0:0:
168,136,49421,6,0,L|157:210,1,59.2949971952135,0|0,3:0|0:0,0:0:0:0:
309,379,49725,2,0,L|300:320,1,59.2949971952135,0|0,3:0|0:0,0:0:0:0:
285,109,50030,1,2,3:0:0:0:
184,274,50182,1,0,1:0:0:0:
83,128,50334,2,0,L|69:22,1,88.9424957928202,10|0,3:0|0:0,0:0:0:0:
72,40,50639,6,0,P|123:85|205:52,1,136.289997296494,4|0,1:0|0:0,0:0:0:0:
293,10,51096,1,0,1:0:0:0:
257,179,51248,2,0,B|181:172|213:241|121:224,1,136.289997296494,10|2,0:0|0:0,0:0:0:0:
262,275,51705,1,0,1:0:0:0:
81,177,51857,6,0,L|103:261,1,68.1449986482468,0|0,1:0|0:0,0:0:0:0:
185,72,52162,2,0,L|202:6,1,68.1449986482468,0|0,1:0|0:0,0:0:0:0:
288,229,52466,1,10,0:0:0:0:
153,145,52619,1,0,1:0:0:0:
310,232,52771,1,10,0:0:0:0:
218,353,52923,6,0,P|152:355|112:303,1,136.289997296494,4|8,1:0|0:0,0:0:0:0:
344,165,53380,1,8,0:0:0:0:
186,268,53532,1,8,0:0:0:0:
363,165,53685,1,8,0:0:0:0:
184,86,53837,1,8,0:0:0:0:
333,315,53989,1,8,0:0:0:0:
427,82,54142,1,6,1:0:0:0:
88,231,55055,6,0,L|98:288,1,49.1175011991577,2|0,0:0|0:0,0:0:0:0:
20,305,55360,6,0,B|120:271|97:382|227:323,1,189.389994220276,6|2,1:0|1:0,0:0:0:0:
274,127,55817,2,0,P|220:139|195:188,1,94.694997110138,10|0,0:0|0:0,0:0:0:0:
397,250,56121,1,2,1:0:0:0:
361,89,56274,1,0,1:0:0:0:
267,204,56426,1,10,0:0:0:0:
498,153,56578,6,0,P|478:210|464:353,1,189.389994220276,2|2,1:0|1:0,0:0:0:0:
294,109,57035,1,10,0:0:0:0:
356,253,57187,1,2,0:0:0:0:
429,101,57340,2,0,P|415:46|392:6,1,94.694997110138,2|0,1:0|1:0,0:0:0:0:
280,230,57644,1,10,0:0:0:0:
85,113,57796,6,0,P|106:50|233:42,1,189.389994220276,6|2,1:0|1:0,0:0:0:0:
175,244,58253,2,0,P|133:273|82:271,1,94.694997110138,10|2,0:0|0:0,0:0:0:0:
279,112,58558,2,0,P|325:114|363:141,1,94.694997110138,2|2,1:0|1:0,0:0:0:0:
254,340,58862,1,10,0:0:0:0:
104,195,59015,6,0,P|128:256|148:381,1,189.389994220276,2|0,1:0|1:0,0:0:0:0:
229,168,59472,1,10,0:0:0:0:
56,303,59624,1,2,0:0:0:0:
90,98,59776,1,8,0:0:0:0:
106,74,59852,1,8,0:0:0:0:
130,59,59928,1,8,0:0:0:0:
157,52,60004,1,8,0:0:0:0:
185,49,60081,1,8,0:0:0:0:
213,52,60157,1,8,0:0:0:0:
239,61,60233,6,0,P|262:148|185:220,1,189.389994220276,6|0,1:0|1:0,0:0:0:0:
11,241,60690,2,0,P|50:214|100:218,1,94.694997110138,10|0,0:0|0:0,0:0:0:0:
262,362,60994,2,0,P|216:364|177:337,1,94.694997110138,2|0,1:0|1:0,0:0:0:0:
335,243,61299,1,8,0:0:0:0:
119,131,61451,6,0,P|177:113|270:198,1,189.389994220276,2|2,1:0|1:0,0:0:0:0:
125,288,61908,2,0,P|75:299|26:309,1,94.694997110138,10|0,0:0|0:0,0:0:0:0:
247,61,62213,2,0,P|297:72|346:82,1,94.694997110138,2|0,1:0|1:0,0:0:0:0:
227,259,62517,1,8,0:0:0:0:
65,34,62669,6,0,P|27:84|76:227,1,189.389994220276,6|2,1:0|1:0,0:0:0:0:
259,285,63126,1,10,0:0:0:0:
165,120,63279,1,2,1:0:0:0:
100,306,63431,1,10,0:0:0:0:
100,306,63507,1,0,1:0:0:0:
100,306,63583,2,0,L|30:323,1,47.347498555069,2|0,1:0|1:0,0:0:0:0:
276,168,63735,2,0,L|346:185,1,47.347498555069,10|8,3:0|3:0,0:0:0:0:
206,375,63888,6,0,P|199:322|192:275,1,94.694997110138,6|0,1:0|0:0,0:0:0:0:
438,198,64192,1,10,0:0:0:0:
447,224,64268,1,8,0:0:0:0:
446,252,64345,1,8,0:0:0:0:
437,279,64421,1,8,0:0:0:0:
421,302,64497,2,0,P|382:321|331:313,1,94.694997110138,6|0,1:0|0:0,0:0:0:0:
195,132,64801,2,0,L|185:68,1,47.347498555069,10|8,0:0|0:0,0:0:0:0:
201,271,64954,2,0,L|193:317,1,47.347498555069,8|8,0:0|0:0,0:0:0:0:
329,79,65106,6,0,P|388:62|467:167,1,189.389994220276,6|2,1:0|1:0,0:0:0:0:
292,276,65563,2,0,P|273:230|262:164,1,94.694997110138,10|0,0:0|0:0,0:0:0:0:
434,54,65867,1,2,1:0:0:0:
351,195,66020,1,0,1:0:0:0:
263,49,66172,1,10,0:0:0:0:
423,299,66324,6,0,P|392:353|263:359,1,189.389994220276,2|2,1:0|1:0,0:0:0:0:
84,262,66781,1,10,0:0:0:0:
219,173,66933,1,2,0:0:0:0:
126,376,67086,2,0,P|76:360|4:348,1,94.694997110138,2|0,1:0|1:0,0:0:0:0:
136,116,67390,1,8,0:0:0:0:
276,326,67543,6,0,P|322:279|295:138,1,189.389994220276,6|2,1:0|1:0,0:0:0:0:
95,188,67999,2,0,P|110:235|122:304,1,94.694997110138,10|2,0:0|0:0,0:0:0:0:
235,108,68304,2,0,P|244:61|259:16,1,94.694997110138,2|0,1:0|1:0,0:0:0:0:
352,270,68609,1,10,0:0:0:0:
137,58,68761,5,2,1:0:0:0:
367,142,68913,1,8,0:0:0:0:
134,292,69065,1,2,1:0:0:0:
346,139,69218,1,10,0:0:0:0:
262,376,69370,1,2,1:0:0:0:
91,192,69522,1,8,0:0:0:0:
123,196,69598,1,8,0:0:0:0:
155,186,69675,1,8,0:0:0:0:
182,167,69751,1,8,0:0:0:0:
202,141,69827,1,8,0:0:0:0:
216,111,69903,1,8,0:0:0:0:
224,79,69979,6,0,P|190:153|228:274,1,189.389994220276,6|0,1:0|1:0,0:0:0:0:
377,339,70436,2,0,P|392:282|383:227,1,94.694997110138,10|0,0:0|0:0,0:0:0:0:
120,96,70741,2,0,P|105:153|114:208,1,94.694997110138,2|0,1:0|1:0,0:0:0:0:
331,89,71045,1,8,0:0:0:0:
234,349,71197,6,0,P|178:362|90:274,1,189.389994220276,2|2,1:0|1:0,0:0:0:0:
363,238,71654,2,0,L|465:267,1,94.694997110138,10|0,0:0|0:0,0:0:0:0:
195,137,71959,2,0,L|93:166,1,94.694997110138,2|2,1:0|1:0,0:0:0:0:
340,17,72263,1,10,0:0:0:0:
208,264,72416,6,0,L|8:225,1,189.389994220276,6|2,1:0|1:0,0:0:0:0:
225,78,72873,1,8,0:0:0:0:
55,152,73025,1,2,1:0:0:0:
286,259,73177,2,0,P|312:203|296:147,1,94.694997110138,8|8,3:0|3:0,0:0:0:0:
132,52,73482,1,10,0:0:0:0:
205,346,73634,5,6,1:0:0:0:
205,346,74395,2,0,B|248:351|248:351|272:336|272:336|312:342,1,103.987498413277,0|0,3:0|0:0,0:0:0:0:
428,340,74852,6,0,P|368:350|316:232,1,171.690004060661,6|0,1:0|1:0,0:0:0:0:
444,192,75309,1,8,0:0:0:0:
328,80,75461,2,0,P|283:81|240:118,1,85.8450020303307,2|0,1:0|0:0,0:0:0:0:
151,287,75766,1,0,1:0:0:0:
318,192,75918,1,8,0:0:0:0:
143,102,76070,6,0,L|177:294,1,171.690004060661,0|0,1:0|1:0,0:0:0:0:
310,98,76527,2,0,L|325:2,1,85.8450020303307,8|2,0:0|1:0,0:0:0:0:
413,295,76832,1,0,0:0:0:0:
228,162,76984,1,2,1:0:0:0:
312,376,77136,1,10,0:0:0:0:
512,220,77289,6,0,P|468:171|339:192,1,171.690004060661,6|0,1:0|1:0,0:0:0:0:
140,276,77746,2,0,P|191:306|242:297,1,85.8450020303307,8|2,0:0|1:0,0:0:0:0:
157,82,78050,1,0,0:0:0:0:
59,206,78202,1,0,1:0:0:0:
224,185,78355,1,8,0:0:0:0:
91,21,78507,6,0,P|35:50|45:173,1,171.690004060661,2|0,1:0|1:0,0:0:0:0:
260,113,78964,2,0,L|249:23,1,85.8450020303307,8|0,0:0|1:0,0:0:0:0:
119,243,79268,1,2,0:0:0:0:
288,113,79421,1,0,1:0:0:0:
213,319,79573,1,8,0:0:0:0:
68,142,79725,6,0,L|100:321,1,171.690004060661,4|0,1:0|1:0,0:0:0:0:
272,226,80182,2,0,P|316:230|358:269,1,85.8450020303307,10|2,0:0|1:0,0:0:0:0:
171,364,80487,1,0,0:0:0:0:
179,211,80639,1,0,1:0:0:0:
305,330,80791,1,8,0:0:0:0:
80,192,80944,6,0,P|110:134|216:124,1,171.690004060661,2|0,1:0|1:0,0:0:0:0:
131,323,81400,2,0,P|83:311|26:298,1,85.8450020303307,8|2,0:0|1:0,0:0:0:0:
308,172,81705,1,0,0:0:0:0:
144,244,81857,1,0,1:0:0:0:
205,79,82010,1,8,0:0:0:0:
312,308,82162,6,0,P|377:343|468:276,1,171.690004060661,6|0,1:0|1:0,0:0:0:0:
406,125,82619,1,10,0:0:0:0:
225,224,82771,1,0,1:0:0:0:
432,128,82923,1,10,0:0:0:0:
236,43,83076,1,0,1:0:0:0:
379,257,83228,1,10,0:0:0:0:
331,22,83380,6,0,P|320:87|308:170,1,128.767503045496,6|0,1:0|3:0,0:0:0:0:
304,187,83685,1,10,3:0:0:0:
131,87,83837,1,10,0:0:0:0:
286,353,83989,6,0,L|432:326,1,128.767503045496,6|0,1:0|0:0,0:0:0:0:
444,327,84294,1,10,3:0:0:0:
234,190,84446,1,10,0:0:0:0:
17,364,84598,5,6,1:0:0:0:
390,168,84903,5,6,1:0:0:0:
85,51,85208,5,6,1:0:0:0:
243,366,85512,5,6,1:0:0:0:
437,52,85817,6,0,B|165:60|365:333|56:334,1,520.38001270459,6|0,1:0|0:0,0:0:0:0:
