osu file format v14

[General]
AudioFilename: audio.mp3
AudioLeadIn: 0
PreviewTime: 54903
Countdown: 0
SampleSet: Soft
StackLeniency: 0.4
Mode: 0
LetterboxInBreaks: 0
WidescreenStoryboard: 0

[Editor]
Bookmarks: 188101
DistanceSpacing: 1
BeatDivisor: 8
GridSize: 32
TimelineZoom: 1.4

[Metadata]
Title:Tenkyou no Alderamin (TV Size)
TitleUnicode:天鏡のアルデラミン (TV Size)
Artist:KISIDA KYODAN & THE AKEBOSI ROCKETS
ArtistUnicode:岸田教団&THE明星ロケッツ
Creator:SMOKELIND
Version:Expert
Source:ねじ巻き精霊戦記 天鏡のアルデラミン
Tags:Japanese J-Rock JRock Rock Nejimaki Seirei Senki Ichigo Kishida Kyoudan Akeboshi reform kujinn mnyui basensorex and kowari on the Sky Anime Opening female vocal vocalist OP LIVE YOUR LIFE
BeatmapID:2537323
BeatmapSetID:1219599

[Difficulty]
HPDrainRate:5.2
CircleSize:3.8
OverallDifficulty:9.2
ApproachRate:9.4
SliderMultiplier:1.87
SliderTickRate:1

[Events]
//Background and Video events
0,0,"7.jpg",0,0
//Break Periods
2,1603,2517
2,46070,47593
//Storyboard Layer 0 (Background)
//Storyboard Layer 1 (Fail)
//Storyboard Layer 2 (Pass)
//Storyboard Layer 3 (Foreground)
//Storyboard Layer 4 (Overlay)
//Storyboard Sound Samples

[TimingPoints]
-528,304.568527918782,4,2,7,77,1,0
690,-103.092783505155,4,2,7,77,0,0
6629,-103.092783505155,4,2,7,77,0,0
16375,-129.87012987013,4,2,7,47,0,0
26121,-114.942528735632,4,2,7,57,0,0
43177,-114.942528735632,4,2,7,57,0,0
45766,-212.765957446808,4,2,7,47,0,0
50639,-129.87012987013,4,2,7,57,0,0
53380,-129.87012987013,4,2,7,67,0,0
53685,-129.87012987013,4,2,7,77,0,0
53989,-129.87012987013,4,2,7,87,0,0
55360,-93.4579439252336,4,2,7,87,0,0
74395,-212.765957446809,4,2,7,47,0,0
74852,-103.092783505155,4,2,7,77,0,0
85816,-588.235294117657,4,2,7,77,0,0
85969,-588.235294117657,4,2,7,7,0,0

[Colours]
Combo1 : 255,115,0
Combo2 : 255,0,0

[HitObjects]
214,112,537,5,8,0:0:0:0:
214,112,614,1,8,0:0:0:0:
214,112,690,2,0,P|255:58|248:117,1,136.042503217558,4|0,1:0|0:0,0:0:0:0:
216,191,994,6,0,B|180:206|145:161|145:161|90:188|58:138,1,181.390004290077,4|0,1:0|0:0,0:0:0:0:
426,89,3126,6,0,L|404:260,1,136.042503217558,4|0,1:0|0:0,0:0:0:0:
386,307,3431,2,0,L|368:172,1,136.042503217558,4|0,1:0|0:0,0:0:0:0:
306,118,3735,6,0,L|241:134,1,45.3475010725193,8|8,0:0|3:0,0:0:0:0:
192,201,3888,2,0,L|147:190,1,45.3475010725193,8|8,3:0|3:0,0:0:0:0:
65,90,4040,5,8,3:0:0:0:
65,90,4116,1,8,3:0:0:0:
65,90,4192,2,0,P|111:42|156:122,1,181.390004290077,4|8,1:0|0:0,0:0:0:0:
67,209,4573,1,8,0:0:0:0:
67,209,4649,2,0,P|64:186|70:164,1,45.3475010725193,8|8,0:0|0:0,0:0:0:0:
206,236,4801,1,4,1:0:0:0:
475,32,5715,5,0,1:0:0:0:
475,32,5791,1,0,1:0:0:0:
475,32,5867,2,0,P|464:90|456:179,1,136.042503217558,12|0,0:0|0:0,0:0:0:0:
444,182,6172,2,0,P|427:162|391:162,1,45.3475010725193,8|8,0:0|0:0,0:0:0:0:
320,259,6324,2,0,P|341:252|354:234,1,45.3475010725193,8|8,0:0|0:0,0:0:0:0:
258,106,6477,5,8,0:0:0:0:
258,106,6553,1,8,0:0:0:0:
258,106,6629,2,0,P|289:178|289:321,1,181.390004290077,6|0,1:0|0:0,0:0:0:0:
342,37,7086,1,8,0:0:0:0:
151,172,7238,1,2,0:0:0:0:
412,303,7390,2,0,L|511:284,1,90.6950021450387,2|0,1:0|0:0,0:0:0:0:
351,65,7695,1,10,0:0:0:0:
184,311,7847,6,0,L|85:292,1,90.6950021450387,2|0,0:0|1:0,0:0:0:0:
19,63,8152,1,2,0:0:0:0:
265,174,8304,1,10,0:0:0:0:
45,161,8456,2,0,P|39:109|29:56,1,90.6950021450387,2|0,0:0|1:0,0:0:0:0:
286,186,8761,2,0,P|278:230|273:275,1,90.6950021450387,2|0,0:0|1:0,0:0:0:0:
173,66,9065,6,0,P|205:34|277:29,1,90.6950021450387,14|0,0:0|1:0,0:0:0:0:
423,221,9370,1,2,0:0:0:0:
155,169,9522,1,10,0:0:0:0:
390,43,9675,2,0,P|380:86|371:143,1,90.6950021450387,2|0,0:0|1:0,0:0:0:0:
481,317,9979,1,2,0:0:0:0:
246,180,10132,2,0,P|256:223|265:280,1,90.6950021450387,10|0,0:0|0:0,0:0:0:0:
372,131,10436,1,0,1:0:0:0:
266,370,10588,6,0,P|222:368|179:321,1,90.6950021450387,2|8,0:0|0:0,0:0:0:0:
155,107,10893,1,2,0:0:0:0:
70,335,11045,2,0,P|49:351|15:346,1,45.3475010725193,8|8,0:0|0:0,0:0:0:0:
161,134,11197,2,0,P|183:136|200:151,1,45.3475010725193,10|8,0:0|0:0,0:0:0:0:
20,271,11350,5,8,0:0:0:0:
20,271,11426,1,8,0:0:0:0:
20,271,11502,2,0,L|41:84,1,181.390004290077,6|0,1:0|0:0,0:0:0:0:
296,34,11959,1,8,0:0:0:0:
169,164,12111,1,2,0:0:0:0:
430,266,12263,2,0,L|419:148,1,90.6950021450387,2|0,1:0|0:0,0:0:0:0:
231,94,12568,1,10,0:0:0:0:
500,0,12720,6,0,L|489:118,1,90.6950021450387,2|0,0:0|1:0,0:0:0:0:
262,232,13025,5,2,0:0:0:0:
385,36,13177,1,10,0:0:0:0:
265,257,13329,2,0,P|219:238|161:231,1,90.6950021450387,2|0,0:0|1:0,0:0:0:0:
417,361,13634,2,0,P|463:342|521:335,1,90.6950021450387,2|0,0:0|1:0,0:0:0:0:
409,135,13939,6,0,P|398:177|390:240,1,90.6950021450387,14|0,0:0|1:0,0:0:0:0:
138,301,14243,1,2,0:0:0:0:
321,109,14395,1,10,0:0:0:0:
275,337,14548,1,2,0:0:0:0:
185,69,14700,2,0,P|152:40|88:33,1,90.6950021450387,2|0,1:0|0:0,0:0:0:0:
236,216,15004,1,10,0:0:0:0:
393,0,15157,6,0,L|411:151,1,136.042503217558,6|0,1:0|0:0,0:0:0:0:
420,147,15461,2,0,L|403:11,1,136.042503217558,6|0,1:0|0:0,0:0:0:0:
414,20,15766,2,0,L|432:171,1,136.042503217558,6|0,1:0|0:0,0:0:0:0:
441,167,16070,2,0,L|424:31,1,136.042503217558,4|0,1:0|0:0,0:0:0:0:
393,0,16375,6,0,P|320:0|289:64,1,143.989997143753,6|0,1:0|1:0,0:0:0:0:
346,189,16832,2,0,P|319:166|263:155,1,71.9949985718766,8|0,0:0|3:0,0:0:0:0:
262,166,17060,1,8,3:0:0:0:
262,166,17136,1,10,3:0:0:0:
193,274,17289,1,0,1:0:0:0:
110,82,17441,5,8,0:0:0:0:
110,82,17593,2,0,L|124:182,1,71.9949985718766,2|8,1:0|3:0,0:0:0:0:
26,220,17898,1,0,1:0:0:0:
229,175,18050,2,0,L|215:275,1,71.9949985718766,8|0,0:0|3:0,0:0:0:0:
237,264,18279,1,8,3:0:0:0:
237,264,18355,1,8,3:0:0:0:
381,296,18507,1,2,1:0:0:0:
297,103,18659,1,8,0:0:0:0:
200,347,18812,6,0,B|121:330|168:287|85:272,1,143.989997143753,6|0,1:0|1:0,0:0:0:0:
15,114,19268,2,0,P|52:104|85:80,1,71.9949985718766,8|0,0:0|3:0,0:0:0:0:
86,60,19497,1,8,3:0:0:0:
86,60,19573,1,8,3:0:0:0:
162,174,19725,1,2,1:0:0:0:
285,13,19878,5,10,0:0:0:0:
285,13,20030,2,0,L|374:0,1,71.9949985718766,2|8,1:0|3:0,0:0:0:0:
225,89,20334,1,0,1:0:0:0:
431,100,20487,2,0,L|342:87,1,71.9949985718766,8|0,0:0|3:0,0:0:0:0:
341,107,20715,1,8,3:0:0:0:
341,107,20791,1,8,3:0:0:0:
240,276,20944,2,0,L|168:286,1,71.9949985718766,2|8,1:0|0:0,0:0:0:0:
49,134,21248,6,0,P|122:135|137:224,1,143.989997143753,6|0,1:0|1:0,0:0:0:0:
26,307,21705,2,0,P|52:271|109:256,1,71.9949985718766,8|0,0:0|3:0,0:0:0:0:
99,267,21933,1,8,3:0:0:0:
99,267,22010,1,10,3:0:0:0:
276,375,22162,1,0,1:0:0:0:
327,151,22314,1,8,0:0:0:0:
464,366,22466,6,0,P|446:297|435:193,1,143.989997143753,2|0,1:0|1:0,0:0:0:0:
484,50,22923,2,0,P|468:83|411:95,1,71.9949985718766,8|0,0:0|3:0,0:0:0:0:
414,85,23152,1,8,3:0:0:0:
414,85,23228,1,8,3:0:0:0:
251,15,23380,1,2,1:0:0:0:
196,257,23532,1,8,0:0:0:0:
272,24,23685,6,0,L|289:191,1,143.989997143753,6|0,1:0|1:0,0:0:0:0:
112,321,24142,2,0,L|122:214,1,107.992497857815,8|8,0:0|3:0,0:0:0:0:
104,195,24446,1,8,3:0:0:0:
307,99,24598,1,0,1:0:0:0:
29,54,24751,1,10,0:0:0:0:
267,251,24903,6,0,L|391:233,1,107.992497857815,6|0,1:0|0:0,0:0:0:0:
391,217,25208,1,8,3:0:0:0:
338,95,25360,1,8,3:0:0:0:
263,279,25512,1,8,3:0:0:0:
151,51,25664,5,12,0:0:0:0:
373,109,25817,1,2,1:0:0:0:
66,93,25969,1,8,0:0:0:0:
385,11,26121,6,0,B|481:33|408:83|518:107,1,162.690001365349,6|0,1:0|1:0,0:0:0:0:
263,279,26578,2,0,P|255:239|242:200,1,81.3450006826744,8|0,0:0|0:0,0:0:0:0:
75,42,26883,2,0,P|67:81|54:120,1,81.3450006826744,2|0,0:0|1:0,0:0:0:0:
164,307,27187,1,8,0:0:0:0:
254,95,27340,6,0,P|299:101|330:206,1,162.690001365349,2|0,1:0|1:0,0:0:0:0:
164,307,27796,2,0,P|85:292|-8:279,1,162.690001365349,8|0,0:0|0:0,0:0:0:0:
223,166,28253,1,2,1:0:0:0:
320,383,28406,1,8,0:0:0:0:
451,115,28558,6,0,P|435:198|426:291,1,162.690001365349,2|2,1:0|1:0,0:0:0:0:
196,358,29015,1,10,0:0:0:0:
325,224,29167,1,2,0:0:0:0:
148,180,29319,1,2,0:0:0:0:
343,244,29472,1,2,1:0:0:0:
198,28,29624,1,10,0:0:0:0:
111,268,29776,5,2,1:0:0:0:
111,268,29928,2,0,P|106:220|95:169,1,81.3450006826744,2|0,0:0|1:0,0:0:0:0:
297,72,30233,1,10,0:0:0:0:
297,72,30385,2,0,P|289:111|286:152,1,81.3450006826744,2|0,0:0|0:0,0:0:0:0:
316,303,30690,1,2,1:0:0:0:
410,73,30842,1,10,0:0:0:0:
143,225,30994,6,0,P|67:191|-38:167,1,162.690001365349,6|0,1:0|1:0,0:0:0:0:
222,27,31451,1,10,0:0:0:0:
360,219,31603,2,0,P|400:203|456:194,1,81.3450006826744,2|0,0:0|0:0,0:0:0:0:
271,98,31908,1,2,1:0:0:0:
306,330,32060,1,8,0:0:0:0:
359,74,32213,6,0,P|400:76|516:124,1,162.690001365349,2|0,1:0|1:0,0:0:0:0:
341,253,32669,1,10,0:0:0:0:
341,253,32822,2,0,L|331:152,1,81.3450006826744,2|0,0:0|0:0,0:0:0:0:
186,308,33126,1,2,1:0:0:0:
231,42,33279,1,8,0:0:0:0:
285,364,33431,1,6,1:0:0:0:
285,364,33735,5,2,1:0:0:0:
212,125,33888,1,10,0:0:0:0:
212,125,34040,2,0,P|174:106|108:124,1,81.3450006826744,2|0,0:0|1:0,0:0:0:0:
247,249,34345,1,2,1:0:0:0:
186,11,34497,1,10,0:0:0:0:
63,257,34649,6,0,P|103:258|138:240,1,81.3450006826744,2|0,1:0|0:0,0:0:0:0:
281,21,34954,1,8,0:0:0:0:
349,331,35106,1,8,0:0:0:0:
162,124,35258,1,0,1:0:0:0:
462,63,35411,1,8,3:0:0:0:
266,238,35563,1,10,3:0:0:0:
266,238,35867,6,0,B|182:200|263:153|134:114,1,162.690001365349,6|2,1:0|1:0,0:0:0:0:
333,180,36324,1,0,1:0:0:0:
148,287,36477,1,2,3:0:0:0:
148,287,36553,1,0,3:0:0:0:
148,287,36629,2,0,P|138:240|128:193,1,81.3450006826744,10|2,0:0|0:0,0:0:0:0:
296,96,36934,1,2,1:0:0:0:
35,210,37086,6,0,P|44:163|55:116,1,81.3450006826744,10|0,0:0|0:0,0:0:0:0:
177,276,37390,1,2,1:0:0:0:
262,31,37543,5,10,0:0:0:0:
357,272,37695,1,0,1:0:0:0:
341,0,37847,5,10,0:0:0:0:
262,336,37999,1,4,1:0:0:0:
262,336,38304,6,0,P|195:325|201:225,1,162.690001365349,6|2,1:0|0:0,0:0:0:0:
373,185,38761,1,2,1:0:0:0:
373,185,38913,1,2,0:0:0:0:
214,37,39065,1,10,0:0:0:0:
249,296,39218,1,2,1:0:0:0:
293,106,39370,1,2,0:0:0:0:
8,202,39522,1,10,0:0:0:0:
307,239,39675,1,8,0:0:0:0:
18,59,39827,6,0,L|6:213,1,122.017501024012,6|0,1:0|0:0,0:0:0:0:
28,200,40131,2,0,L|39:29,1,162.690001365349,6|2,1:0|0:0,0:0:0:0:
38,37,40741,6,0,B|129:57|64:108|168:128,1,162.690001365349,6|2,1:0|1:0,0:0:0:0:
325,12,41197,1,2,1:0:0:0:
456,242,41350,1,2,3:0:0:0:
456,242,41426,1,0,3:0:0:0:
456,242,41502,2,0,P|462:190|474:150,1,81.3450006826744,8|2,0:0|0:0,0:0:0:0:
321,41,41807,1,2,1:0:0:0:
217,312,41959,6,0,P|212:271|203:232,1,81.3450006826744,10|0,0:0|0:0,0:0:0:0:
301,64,42263,1,2,1:0:0:0:
79,253,42416,5,10,0:0:0:0:
329,181,42568,1,0,1:0:0:0:
20,123,42720,5,10,0:0:0:0:
411,179,42873,1,4,1:0:0:0:
411,179,43177,6,0,P|374:158|313:172,1,81.3450006826744,6|0,1:0|0:0,0:0:0:0:
245,343,43482,2,0,P|285:344|319:323,1,81.3450006826744,2|8,1:0|0:0,0:0:0:0:
121,195,43786,2,0,P|131:231|139:280,1,81.3450006826744,2|0,0:0|1:0,0:0:0:0:
268,97,44091,1,2,1:0:0:0:
40,247,44243,1,10,0:0:0:0:
348,331,44395,6,0,P|403:295|357:211,1,162.690001365349,6|2,1:0|1:0,0:0:0:0:
183,67,44852,2,0,L|194:152,1,81.3450006826744,10|2,0:0|0:0,0:0:0:0:
432,13,45157,2,0,L|421:93,1,81.3450006826744,8|2,0:0|3:0,0:0:0:0:
401,113,45385,1,8,0:0:0:0:
401,113,45461,2,0,L|409:57,1,40.6725003413372,8|8,0:0|0:0,0:0:0:0:
253,215,45614,2,0,L|245:159,1,40.6725003413372,10|8,0:0|0:0,0:0:0:0:
378,306,45766,5,4,1:0:0:0:
102,114,48202,6,0,L|199:96,3,87.8899986589051,0|0|2|2,3:0|3:0|3:0|3:0,0:0:0:0:
195,333,49421,6,0,L|108:316,2,87.8899986589051,0|0|2,3:0|3:0|3:0,0:0:0:0:
303,237,50182,1,0,1:0:0:0:
99,140,50334,2,0,P|108:171|114:210,1,65.9174989941788,10|0,3:0|0:0,0:0:0:0:
136,225,50639,6,0,P|124:144|83:12,1,215.98499571563,4|0,1:0|1:0,0:0:0:0:
280,212,51248,2,0,P|289:150|320:49,1,143.989997143753,10|2,0:0|0:0,0:0:0:0:
427,251,51705,1,0,1:0:0:0:
213,147,51857,6,0,P|233:215|244:287,1,143.989997143753,0|0,1:0|1:0,0:0:0:0:
244,287,52466,6,0,P|210:298|161:272,1,71.9949985718766,10|0,0:0|1:0,0:0:0:0:
112,53,52771,1,10,0:0:0:0:
365,279,52923,2,0,P|410:261|402:149,1,143.989997143753,4|8,1:0|0:0,0:0:0:0:
178,18,53380,5,8,0:0:0:0:
242,343,53532,1,8,0:0:0:0:
477,73,53685,1,8,0:0:0:0:
140,199,53837,1,8,0:0:0:0:
506,81,53989,1,8,0:0:0:0:
21,0,54142,1,6,1:0:0:0:
35,143,55360,6,0,B|157:151|68:235|205:250,1,200.089993893738,6|2,1:0|1:0,0:0:0:0:
320,38,55816,2,0,P|258:38|210:101,1,100.044996946869,10|0,0:0|0:0,0:0:0:0:
430,289,56121,1,2,1:0:0:0:
283,123,56273,1,0,1:0:0:0:
233,384,56426,1,10,0:0:0:0:
438,195,56578,6,0,L|447:80,1,100.044996946869,2|0,1:0|0:0,0:0:0:0:
249,18,56882,1,2,1:0:0:0:
338,263,57035,1,10,0:0:0:0:
311,96,57187,1,2,0:0:0:0:
165,344,57339,2,0,P|112:361|45:310,1,100.044996946869,2|0,1:0|1:0,0:0:0:0:
257,188,57644,1,10,0:0:0:0:
50,38,57796,6,0,P|73:124|94:269,1,200.089993893738,6|2,1:0|1:0,0:0:0:0:
325,322,58253,1,10,0:0:0:0:
384,120,58405,1,2,0:0:0:0:
118,236,58558,1,2,1:0:0:0:
355,214,58710,1,2,1:0:0:0:
72,55,58862,1,10,0:0:0:0:
434,269,59014,6,0,L|421:61,1,200.089993893738,2|0,1:0|1:0,0:0:0:0:
325,322,59471,1,10,0:0:0:0:
267,151,59624,1,2,0:0:0:0:
180,364,59776,2,0,L|124:354,1,50.0224984734345,8|8,0:0|0:0,0:0:0:0:
19,167,59928,2,0,L|68:157,1,50.0224984734345,8|8,0:0|0:0,0:0:0:0:
170,350,60080,2,0,L|114:340,1,50.0224984734345,8|8,0:0|0:0,0:0:0:0:
9,151,60232,6,0,L|212:114,1,200.089993893738,6|0,1:0|1:0,0:0:0:0:
346,358,60690,2,0,P|322:308|311:238,1,100.044996946869,10|0,0:0|0:0,0:0:0:0:
442,83,60994,1,2,1:0:0:0:
219,277,61147,2,0,P|243:227|254:157,1,100.044996946869,0|8,1:0|0:0,0:0:0:0:
44,20,61451,6,0,P|63:71|71:150,1,100.044996946869,2|0,1:0|0:0,0:0:0:0:
261,44,61756,1,2,1:0:0:0:
26,195,61908,2,0,P|7:246|-1:325,1,100.044996946869,10|0,0:0|0:0,0:0:0:0:
168,99,62213,1,2,1:0:0:0:
234,332,62365,1,0,1:0:0:0:
347,4,62517,1,8,0:0:0:0:
222,303,62669,6,0,P|171:308|126:268,1,100.044996946869,6|0,1:0|0:0,0:0:0:0:
313,78,62974,1,2,1:0:0:0:
375,380,63126,1,10,0:0:0:0:
146,189,63279,1,2,1:0:0:0:
146,189,63355,1,0,1:0:0:0:
146,189,63431,1,10,0:0:0:0:
478,117,63583,1,2,1:0:0:0:
478,117,63659,1,0,1:0:0:0:
478,117,63735,2,0,L|471:182,1,50.0224984734345,10|8,3:0|3:0,0:0:0:0:
250,358,63888,6,0,L|235:158,1,200.089993893738,6|10,1:0|0:0,0:0:0:0:
260,133,64268,1,8,0:0:0:0:
260,133,64345,2,0,L|265:192,1,50.0224984734345,8|8,0:0|0:0,0:0:0:0:
152,67,64497,2,0,P|190:26|266:30,1,100.044996946869,6|0,1:0|0:0,0:0:0:0:
114,203,64801,1,10,0:0:0:0:
114,203,64878,1,8,0:0:0:0:
114,203,64954,2,0,P|91:191|47:184,1,50.0224984734345,8|8,0:0|0:0,0:0:0:0:
128,345,65106,6,0,P|232:331|273:221,1,200.089993893738,6|2,1:0|1:0,0:0:0:0:
365,34,65563,2,0,P|351:85|334:165,1,100.044996946869,10|0,0:0|0:0,0:0:0:0:
445,348,65867,2,0,P|433:299|420:251,1,100.044996946869,2|0,1:0|1:0,0:0:0:0:
177,148,66172,1,10,0:0:0:0:
396,20,66324,6,0,P|362:95|339:230,1,200.089993893738,2|2,1:0|1:0,0:0:0:0:
106,340,66781,1,10,0:0:0:0:
265,176,66933,1,2,0:0:0:0:
15,97,67086,1,2,1:0:0:0:
248,315,67238,1,0,1:0:0:0:
283,37,67390,1,8,0:0:0:0:
106,340,67543,6,0,P|48:342|9:301,1,100.044996946869,6|0,1:0|0:0,0:0:0:0:
115,73,67847,1,2,1:0:0:0:
259,345,67999,1,10,0:0:0:0:
112,196,68152,1,2,0:0:0:0:
397,82,68304,2,0,L|384:185,1,100.044996946869,2|0,1:0|1:0,0:0:0:0:
192,0,68609,1,10,0:0:0:0:
183,251,68761,1,2,1:0:0:0:
423,61,68913,5,8,0:0:0:0:
117,169,69065,1,2,1:0:0:0:
512,219,69218,5,10,0:0:0:0:
183,113,69370,1,2,1:0:0:0:
510,38,69522,6,0,P|503:65|500:101,1,50.0224984734345,8|8,0:0|0:0,0:0:0:0:
341,241,69675,2,0,P|337:216|331:191,1,50.0224984734345,8|8,0:0|0:0,0:0:0:0:
502,33,69827,2,0,P|495:60|492:96,1,50.0224984734345,8|8,0:0|0:0,0:0:0:0:
331,253,69979,6,0,P|308:147|282:55,1,200.089993893738,6|0,1:0|1:0,0:0:0:0:
150,297,70436,2,0,P|93:306|51:243,1,100.044996946869,10|0,0:0|0:0,0:0:0:0:
260,101,70741,1,2,1:0:0:0:
324,360,70893,1,0,1:0:0:0:
151,186,71045,1,8,0:0:0:0:
347,372,71197,6,0,P|402:357|415:282,1,100.044996946869,2|0,1:0|0:0,0:0:0:0:
374,89,71502,1,2,1:0:0:0:
166,284,71654,2,0,P|160:230|149:180,1,100.044996946869,10|0,0:0|0:0,0:0:0:0:
467,45,71959,2,0,P|456:93|451:143,1,100.044996946869,2|2,1:0|1:0,0:0:0:0:
244,0,72263,1,10,0:0:0:0:
148,309,72416,6,0,P|42:265|64:186,1,200.089993893738,6|2,1:0|1:0,0:0:0:0:
340,104,72873,1,8,0:0:0:0:
99,50,73025,1,2,1:0:0:0:
236,334,73177,1,8,3:0:0:0:
219,76,73329,1,8,3:0:0:0:
222,360,73482,1,10,0:0:0:0:
382,32,73634,1,6,1:0:0:0:
382,32,74395,6,0,L|371:155,1,109.862498323631,0|0,3:0|0:0,0:0:0:0:
367,177,74852,6,0,P|304:124|209:189,1,181.390004290077,6|0,1:0|1:0,0:0:0:0:
245,331,75309,1,8,0:0:0:0:
35,180,75461,2,0,P|84:164|148:152,1,90.6950021450387,2|0,1:0|0:0,0:0:0:0:
238,357,75766,1,0,1:0:0:0:
295,102,75918,1,8,0:0:0:0:
458,308,76070,6,0,P|464:256|473:204,1,90.6950021450387,2|0,1:0|0:0,0:0:0:0:
359,33,76375,1,0,1:0:0:0:
352,328,76527,1,8,0:0:0:0:
197,132,76680,2,0,L|77:113,1,90.6950021450387,2|0,1:0|0:0,0:0:0:0:
40,271,76984,1,2,1:0:0:0:
11,14,77136,1,10,0:0:0:0:
176,297,77289,6,0,L|366:259,1,181.390004290077,6|0,1:0|1:0,0:0:0:0:
197,132,77746,1,8,0:0:0:0:
479,34,77898,2,0,L|463:150,1,90.6950021450387,2|0,1:0|0:0,0:0:0:0:
512,296,78202,1,0,1:0:0:0:
327,89,78355,1,8,0:0:0:0:
263,367,78507,6,0,P|191:371|176:265,1,181.390004290077,2|0,1:0|1:0,0:0:0:0:
391,150,78964,1,8,0:0:0:0:
264,343,79116,1,0,1:0:0:0:
193,134,79268,2,0,P|159:109|83:103,1,90.6950021450387,2|0,0:0|1:0,0:0:0:0:
237,247,79573,1,8,0:0:0:0:
395,17,79725,6,0,P|461:26|498:149,1,181.390004290077,4|0,1:0|1:0,0:0:0:0:
288,72,80182,1,10,0:0:0:0:
471,223,80334,2,0,P|458:272|450:334,1,90.6950021450387,2|0,1:0|0:0,0:0:0:0:
216,347,80639,1,0,1:0:0:0:
443,205,80791,1,8,0:0:0:0:
162,65,80944,6,0,B|81:91|151:159|34:193,1,181.390004290077,2|0,1:0|1:0,0:0:0:0:
254,219,81400,1,8,0:0:0:0:
13,23,81553,2,0,P|26:68|37:122,1,90.6950021450387,2|0,1:0|0:0,0:0:0:0:
202,37,81857,1,0,1:0:0:0:
37,270,82010,1,8,0:0:0:0:
321,59,82162,6,0,P|300:110|266:259,1,181.390004290077,6|0,1:0|1:0,0:0:0:0:
105,23,82619,5,10,0:0:0:0:
402,161,82771,1,0,1:0:0:0:
19,242,82923,5,10,0:0:0:0:
337,83,83075,1,0,1:0:0:0:
0,0,83228,5,10,0:0:0:0:
381,175,83380,2,0,L|355:327,1,136.042503217558,6|0,1:0|3:0,0:0:0:0:
332,335,83685,1,10,3:0:0:0:
208,126,83837,1,10,0:0:0:0:
488,203,83989,2,0,L|510:337,1,136.042503217558,6|0,1:0|0:0,0:0:0:0:
482,360,84294,1,10,3:0:0:0:
335,98,84446,1,10,0:0:0:0:
173,341,84598,6,0,P|99:347|133:295,1,136.042503217558,6|0,1:0|0:0,0:0:0:0:
120,226,84903,2,0,P|67:197|50:254,1,136.042503217558,6|0,1:0|0:0,0:0:0:0:
198,261,85208,2,0,P|226:166|253:131,1,136.042503217558,6|0,1:0|0:0,0:0:0:0:
385,140,85512,2,0,P|420:197|434:263,1,136.042503217558,6|0,1:0|0:0,0:0:0:0:
482,384,85817,6,0,B|66:344|344:-2|72:-7|72:-7|161:6|183:74,1,778.855004753754,6|0,1:0|0:0,0:0:0:0:
