osu file format v14

[General]
AudioFilename: audio.mp3
AudioLeadIn: 0
PreviewTime: 54903
Countdown: 0
SampleSet: Soft
StackLeniency: 0.4
Mode: 0
LetterboxInBreaks: 0
WidescreenStoryboard: 1

[Editor]
Bookmarks: 188101
DistanceSpacing: 1.1
BeatDivisor: 4
GridSize: 32
TimelineZoom: 1.1

[Metadata]
Title:Tenkyou no Alderamin (TV Size)
TitleUnicode:天鏡のアルデラミン (TV Size)
Artist:KISIDA KYODAN & THE AKEBOSI ROCKETS
ArtistUnicode:岸田教団&THE明星ロケッツ
Creator:SMOKELIND
Version:Basen's Normal
Source:ねじ巻き精霊戦記 天鏡のアルデラミン
Tags:Japanese J-Rock JRock Rock Nejimaki Seirei Senki Ichigo Kishida Kyoudan Akeboshi reform kujinn mnyui basensorex and kowari on the Sky Anime Opening female vocal vocalist OP LIVE YOUR LIFE
BeatmapID:2537322
BeatmapSetID:1219599

[Difficulty]
HPDrainRate:3.5
CircleSize:3.2
OverallDifficulty:4.2
ApproachRate:5.8
SliderMultiplier:0.999999999999999
SliderTickRate:1

[Events]
//Background and Video events
0,0,"7.jpg",0,0
//Break Periods
2,1299,2047
2,45966,48920
//Storyboard Layer 0 (Background)
//Storyboard Layer 1 (Fail)
//Storyboard Layer 2 (Pass)
//Storyboard Layer 3 (Foreground)
//Storyboard Layer 4 (Overlay)
//Storyboard Sound Samples

[TimingPoints]
-528,304.568527918782,4,2,7,77,1,0
16375,-111.111111111111,4,2,7,47,0,0
26121,-100,4,2,7,57,0,0
35867,-111.111111111111,4,2,7,57,0,0
45766,-111.111111111111,4,2,7,47,0,0
50639,-111.111111111111,4,2,7,57,0,0
52923,-100,4,2,7,57,0,0
53380,-100,4,2,7,67,0,0
53685,-100,4,2,7,77,0,0
53989,-100,4,2,7,87,0,0
55360,-90.9090909090908,4,2,7,87,0,1
73634,-100,4,2,7,87,0,0
74395,-100,4,2,7,47,0,0
74852,-100,4,2,7,77,0,0
85969,-100,4,2,7,57,0,0
86578,-100,4,2,7,57,0,0
89624,-100,4,2,7,47,0,0
92060,-100,4,2,7,27,0,0
92669,-100,4,2,7,7,0,0

[Colours]
Combo1 : 255,115,0
Combo2 : 255,0,0

[HitObjects]
474,335,537,5,8,0:0:0:0:
474,335,690,2,0,B|425:320|425:320|362:338,1,99.9999999999999,4|4,1:0|1:0,0:0:0:0:
378,334,3126,6,0,B|329:348|329:348|266:330,1,99.9999999999999,4|4,1:0|1:0,0:0:0:0:
192,289,3735,2,0,L|128:294,1,50,8|8,0:0|3:0,0:0:0:0:
95,296,4040,1,8,3:0:0:0:
95,296,4192,6,0,B|77:270|77:270|84:182,1,99.9999999999999,4|8,1:0|0:0,0:0:0:0:
95,102,4801,1,4,1:0:0:0:
95,102,5867,1,12,0:0:0:0:
262,76,6477,1,8,0:0:0:0:
262,76,6629,6,0,L|365:85,1,99.9999999999999,6|0,1:0|0:0,0:0:0:0:
442,24,7238,1,2,0:0:0:0:
442,24,7390,2,0,P|462:75|443:140,1,99.9999999999999,2|10,1:0|0:0,0:0:0:0:
443,167,7847,1,2,0:0:0:0:
413,262,8152,2,0,P|370:267|342:262,1,50,2|10,0:0|0:0,0:0:0:0:
325,298,8456,2,0,P|274:278|209:297,1,99.9999999999999,2|2,0:0|0:0,0:0:0:0:
148,229,9065,6,0,L|157:125,1,99.9999999999999,14|2,0:0|0:0,0:0:0:0:
214,48,9674,1,2,0:0:0:0:
214,48,9827,2,0,P|163:28|98:47,1,99.9999999999999,0|10,1:0|0:0,0:0:0:0:
72,52,10283,1,0,0:0:0:0:
0,110,10588,1,2,0:0:0:0:
1,210,10893,2,0,L|6:273,1,50,2|8,0:0|0:0,0:0:0:0:
53,277,11197,2,0,L|48:340,1,50,10|8,0:0|0:0,0:0:0:0:
89,356,11502,6,0,P|140:376|205:357,1,99.9999999999999,6|0,1:0|0:0,0:0:0:0:
246,292,12111,1,2,0:0:0:0:
246,292,12263,2,0,P|297:272|362:291,1,99.9999999999999,2|10,1:0|0:0,0:0:0:0:
383,305,12720,1,2,0:0:0:0:
478,338,13025,2,0,P|483:295|478:267,1,50,2|10,0:0|0:0,0:0:0:0:
511,248,13329,2,0,P|491:183|498:83,1,150,2|0,0:0|1:0,0:0:0:0:
463,61,13939,6,0,L|359:52,1,99.9999999999999,14|2,0:0|0:0,0:0:0:0:
279,104,14547,1,2,0:0:0:0:
279,104,14700,2,0,P|259:155|278:220,1,99.9999999999999,2|10,1:0|0:0,0:0:0:0:
291,241,15156,1,6,1:0:0:0:
247,331,15461,1,6,1:0:0:0:
150,357,15766,1,6,1:0:0:0:
56,322,16070,1,4,1:0:0:0:
15,241,16375,6,0,B|6:155|6:155|51:109,1,134.999995880127,6|8,1:0|0:0,0:0:0:0:
115,69,17136,2,0,P|166:89|231:70,1,89.999997253418,10|8,3:0|0:0,0:0:0:0:
243,73,17593,2,0,B|296:77|296:77|321:93|321:93|374:97,1,134.999995880127,2|8,1:0|0:0,0:0:0:0:
467,111,18355,1,8,3:0:0:0:
467,111,18507,2,0,L|461:174,1,44.999998626709,2|8,1:0|0:0,0:0:0:0:
440,195,18812,6,0,L|453:354,1,134.999995880127,6|8,1:0|0:0,0:0:0:0:
369,366,19573,1,8,3:0:0:0:
293,328,19878,1,10,0:0:0:0:
293,328,20030,2,0,B|249:317|227:339|227:339|205:360|162:350,1,134.999995880127,2|8,1:0|0:0,0:0:0:0:
88,316,20791,1,8,3:0:0:0:
88,316,20944,2,0,P|83:273|88:245,1,44.999998626709,2|8,1:0|0:0,0:0:0:0:
91,227,21248,6,0,B|159:209|159:209|228:227,1,134.999995880127,6|8,1:0|0:0,0:0:0:0:
303,264,22010,2,0,P|354:284|419:265,1,89.999997253418,10|8,3:0|0:0,0:0:0:0:
431,267,22466,2,0,P|469:207|452:113,1,134.999995880127,2|8,1:0|0:0,0:0:0:0:
422,66,23228,1,8,3:0:0:0:
346,29,23532,1,8,0:0:0:0:
346,29,23685,6,0,B|292:33|292:33|267:49|267:49|215:53,1,134.999995880127,6|8,1:0|0:0,0:0:0:0:
132,18,24446,1,8,3:0:0:0:
53,57,24751,1,10,0:0:0:0:
53,57,24903,2,0,L|66:216,1,134.999995880127,6|8,1:0|3:0,0:0:0:0:
136,254,25664,1,12,0:0:0:0:
136,254,25817,2,0,L|130:317,1,44.999998626709,2|8,1:0|0:0,0:0:0:0:
130,348,26121,6,0,B|179:336|204:361|204:361|228:385|277:373,1,150,6|8,1:0|0:0,0:0:0:0:
341,302,26883,2,0,P|384:297|412:302,1,50,2|0,0:0|1:0,0:0:0:0:
444,305,27187,1,8,0:0:0:0:
444,305,27340,2,0,B|473:270|473:270|463:158,1,150,2|8,1:0|0:0,0:0:0:0:
388,36,28253,2,0,P|345:41|317:36,1,50,2|8,1:0|0:0,0:0:0:0:
309,81,28558,6,0,L|205:72,1,99.9999999999999,2|2,1:0|1:0,0:0:0:0:
159,66,29015,1,10,0:0:0:0:
74,119,29319,1,2,0:0:0:0:
77,218,29624,2,0,L|140:223,1,50,10|2,0:0|1:0,0:0:0:0:
167,252,29928,2,0,P|218:232|283:251,1,99.9999999999999,2|10,0:0|0:0,0:0:0:0:
307,258,30385,1,2,0:0:0:0:
399,218,30690,2,0,P|442:223|470:218,1,50,2|10,1:0|0:0,0:0:0:0:
490,250,30994,6,0,P|510:301|491:366,1,99.9999999999999,6|0,1:0|1:0,0:0:0:0:
465,376,31451,1,10,0:0:0:0:
465,376,31603,2,0,L|361:367,1,99.9999999999999,2|2,0:0|1:0,0:0:0:0:
271,332,32213,2,0,L|167:341,1,99.9999999999999,2|0,1:0|1:0,0:0:0:0:
129,323,32670,1,10,0:0:0:0:
129,323,32822,2,0,P|109:272|128:207,1,99.9999999999999,2|2,0:0|1:0,0:0:0:0:
26,182,33431,6,0,P|46:131|27:66,1,99.9999999999999,6|2,1:0|1:0,0:0:0:0:
24,44,33888,1,10,0:0:0:0:
24,44,34040,1,2,0:0:0:0:
118,3,34345,2,0,L|181:8,1,50,2|10,1:0|0:0,0:0:0:0:
201,44,34649,2,0,L|305:35,1,99.9999999999999,2|8,1:0|0:0,0:0:0:0:
350,30,35106,1,8,0:0:0:0:
448,48,35411,2,0,P|453:91|448:119,1,50,8|10,3:0|3:0,0:0:0:0:
512,171,35867,6,0,L|503:275,1,89.999997253418,6|2,1:0|1:0,0:0:0:0:
444,328,36477,1,2,3:0:0:0:
444,328,36629,2,0,L|449:391,2,44.999998626709,10|2|2,0:0|0:0|1:0,0:0:0:0:
405,303,37086,2,0,P|354:283|289:302,1,89.999997253418,10|2,0:0|1:0,0:0:0:0:
276,297,37543,1,10,0:0:0:0:
204,350,37847,1,10,0:0:0:0:
171,218,38304,6,0,L|180:106,1,89.999997253418,6|2,1:0|0:0,0:0:0:0:
185,83,38761,1,2,1:0:0:0:
100,51,39065,2,0,L|94:-12,2,44.999998626709,10|2|2,0:0|1:0|0:0,0:0:0:0:
64,79,39522,2,0,L|58:142,1,44.999998626709,10|8,0:0|0:0,0:0:0:0:
57,168,39827,1,6,1:0:0:0:
5,241,40131,1,6,1:0:0:0:
139,360,40741,6,0,P|190:340|255:359,1,89.999997253418,6|2,1:0|1:0,0:0:0:0:
264,321,41197,1,2,1:0:0:0:
264,321,41350,2,0,P|315:341|380:322,1,89.999997253418,2|2,3:0|0:0,0:0:0:0:
431,300,41959,2,0,L|440:188,1,89.999997253418,10|2,0:0|1:0,0:0:0:0:
443,165,42417,1,10,0:0:0:0:
502,98,42721,1,10,0:0:0:0:
395,15,43177,6,0,L|283:24,1,89.999997253418,6|2,1:0|1:0,0:0:0:0:
216,39,43786,2,0,P|196:90|215:155,1,89.999997253418,2|2,0:0|1:0,0:0:0:0:
227,166,44243,1,10,0:0:0:0:
227,166,44395,2,0,P|278:186|343:167,1,89.999997253418,6|2,1:0|1:0,0:0:0:0:
352,162,44852,1,10,0:0:0:0:
431,204,45157,2,0,P|436:247|431:275,1,44.999998626709,8|2,0:0|3:0,0:0:0:0:
462,285,45461,2,0,P|457:328|462:356,1,44.999998626709,8|10,0:0|0:0,0:0:0:0:
461,374,45766,5,4,1:0:0:0:
61,313,50030,6,0,L|54:392,2,44.999998626709,2|0|10,3:0|1:0|3:0,0:0:0:0:
11,238,50639,6,0,B|2:152|2:152|47:106,1,134.999995880127,4|0,1:0|1:0,0:0:0:0:
71,88,51248,1,10,0:0:0:0:
145,37,51553,2,0,P|188:42|216:37,1,44.999998626709,2|0,0:0|1:0,0:0:0:0:
229,61,51857,2,0,P|280:41|345:60,1,89.999997253418,0|0,1:0|1:0,0:0:0:0:
396,80,52466,2,0,L|389:159,1,44.999998626709,10|0,0:0|1:0,0:0:0:0:
426,162,52771,1,10,0:0:0:0:
426,162,52923,6,0,L|437:289,1,99.9999999999999,4|8,1:0|0:0,0:0:0:0:
439,311,53380,1,8,0:0:0:0:
357,369,53685,2,0,P|314:364|286:369,1,50,8|8,0:0|0:0,0:0:0:0:
262,366,53989,1,8,0:0:0:0:
262,366,54142,1,6,1:0:0:0:
262,366,55360,6,0,L|275:206,1,110.000003356934,6|2,1:0|1:0,0:0:0:0:
277,201,55817,1,10,0:0:0:0:
361,130,56121,2,0,L|354:50,1,55.0000016784668,2|0,1:0|1:0,0:0:0:0:
323,37,56426,1,10,0:0:0:0:
323,37,56578,2,0,P|272:17|207:36,1,110.000003356934,2|2,1:0|1:0,0:0:0:0:
171,55,57035,1,10,0:0:0:0:
83,121,57340,2,0,L|96:280,1,110.000003356934,2|10,1:0|0:0,0:0:0:0:
105,284,57796,6,0,P|156:304|221:285,1,110.000003356934,6|2,1:0|1:0,0:0:0:0:
260,275,58253,1,10,0:0:0:0:
354,331,58558,2,0,P|389:322|428:325,1,55.0000016784668,2|2,1:0|1:0,0:0:0:0:
466,326,58862,1,10,0:0:0:0:
466,326,59015,2,0,L|479:166,1,110.000003356934,2|0,1:0|1:0,0:0:0:0:
479,161,59472,1,10,0:0:0:0:
387,100,59776,2,0,L|380:20,1,55.0000016784668,8|8,0:0|0:0,0:0:0:0:
337,23,60081,1,8,0:0:0:0:
337,23,60233,6,0,P|286:3|221:22,1,110.000003356934,6|0,1:0|1:0,0:0:0:0:
187,45,60690,1,10,0:0:0:0:
195,154,60994,2,0,L|208:313,1,110.000003356934,2|8,1:0|0:0,0:0:0:0:
173,309,61451,2,0,P|122:329|57:310,1,110.000003356934,2|2,1:0|1:0,0:0:0:0:
20,291,61908,1,10,0:0:0:0:
8,181,62213,2,0,L|14:101,1,55.0000016784668,2|0,1:0|1:0,0:0:0:0:
21,75,62517,1,8,0:0:0:0:
21,75,62669,6,0,P|72:55|137:74,1,110.000003356934,6|2,1:0|1:0,0:0:0:0:
174,90,63126,1,10,0:0:0:0:
259,21,63431,2,0,P|294:30|333:27,1,55.0000016784668,10|2,0:0|1:0,0:0:0:0:
371,30,63735,1,10,3:0:0:0:
371,30,63888,2,0,L|384:189,1,110.000003356934,6|10,1:0|0:0,0:0:0:0:
471,201,64497,1,6,1:0:0:0:
485,309,64801,1,10,0:0:0:0:
394,371,65106,6,0,P|343:351|278:370,1,110.000003356934,6|2,1:0|1:0,0:0:0:0:
237,378,65563,1,10,0:0:0:0:
132,345,65867,2,0,P|123:310|126:271,1,55.0000016784668,2|0,1:0|1:0,0:0:0:0:
89,254,66172,1,10,0:0:0:0:
89,254,66324,2,0,P|109:203|90:138,1,110.000003356934,2|2,1:0|1:0,0:0:0:0:
72,101,66781,1,10,0:0:0:0:
156,29,67086,2,0,L|315:42,1,110.000003356934,2|8,1:0|0:0,0:0:0:0:
306,75,67543,6,0,P|326:126|307:191,1,110.000003356934,6|2,1:0|1:0,0:0:0:0:
285,225,67999,1,10,0:0:0:0:
345,317,68304,2,0,P|380:308|419:311,1,55.0000016784668,2|0,1:0|1:0,0:0:0:0:
457,316,68608,1,10,0:0:0:0:
457,316,68761,2,0,P|477:265|458:200,1,110.000003356934,2|2,1:0|1:0,0:0:0:0:
441,162,69218,1,10,0:0:0:0:
342,114,69522,2,0,L|348:34,1,55.0000016784668,8|8,0:0|0:0,0:0:0:0:
312,23,69827,1,8,0:0:0:0:
312,23,69979,6,0,L|152:9,1,110.000003356934,6|0,1:0|1:0,0:0:0:0:
147,10,70436,1,10,0:0:0:0:
59,77,70741,2,0,P|79:128|60:193,1,110.000003356934,2|8,1:0|0:0,0:0:0:0:
38,226,71197,2,0,P|18:277|37:342,1,110.000003356934,2|2,1:0|1:0,0:0:0:0:
58,376,71654,1,10,0:0:0:0:
163,345,71959,2,0,P|198:336|237:339,1,55.0000016784668,2|2,1:0|1:0,0:0:0:0:
275,340,72263,1,10,0:0:0:0:
275,340,72416,6,0,L|288:180,1,110.000003356934,6|2,1:0|1:0,0:0:0:0:
247,198,72872,1,8,0:0:0:0:
247,198,73025,2,0,L|233:38,1,110.000003356934,2|8,1:0|3:0,0:0:0:0:
302,12,73634,1,6,1:0:0:0:
302,12,74852,6,0,L|429:23,1,99.9999999999999,6|0,1:0|1:0,0:0:0:0:
448,51,75309,1,8,0:0:0:0:
448,51,75461,2,0,P|468:102|449:167,1,99.9999999999999,2|0,1:0|1:0,0:0:0:0:
420,237,76070,2,0,B|370:224|345:250|345:250|321:274|272:262,1,150,2|8,1:0|0:0,0:0:0:0:
197,322,76832,2,0,P|146:302|81:321,1,99.9999999999999,0|10,0:0|0:0,0:0:0:0:
53,319,77289,6,0,L|41:191,1,99.9999999999999,6|0,1:0|1:0,0:0:0:0:
43,169,77746,1,8,0:0:0:0:
86,79,78050,1,0,0:0:0:0:
189,70,78355,1,8,0:0:0:0:
189,70,78507,2,0,B|235:18|346:56|284:110|371:113,1,200,2|0,1:0|1:0,0:0:0:0:
409,122,79268,2,0,P|429:173|410:238,1,99.9999999999999,2|8,0:0|0:0,0:0:0:0:
397,260,79725,6,0,L|269:248,1,99.9999999999999,4|0,1:0|1:0,0:0:0:0:
247,247,80182,1,10,0:0:0:0:
179,173,80487,1,0,0:0:0:0:
83,178,80791,1,8,0:0:0:0:
83,178,80944,2,0,P|63:229|82:294,1,99.9999999999999,2|0,1:0|1:0,0:0:0:0:
126,355,81553,2,0,L|253:343,1,99.9999999999999,2|0,1:0|1:0,0:0:0:0:
298,277,82162,6,0,L|425:288,1,99.9999999999999,6|0,1:0|1:0,0:0:0:0:
447,291,82619,1,10,0:0:0:0:
508,212,82923,2,0,L|502:148,1,50,10|0,0:0|1:0,0:0:0:0:
499,116,83228,1,10,0:0:0:0:
499,116,83380,6,0,P|448:96|383:115,1,99.9999999999999,6|10,1:0|3:0,0:0:0:0:
321,47,83989,2,0,P|270:67|205:48,1,99.9999999999999,6|10,1:0|3:0,0:0:0:0:
130,31,84598,1,6,1:0:0:0:
39,73,84903,1,6,1:0:0:0:
10,169,85208,1,6,1:0:0:0:
38,264,85512,1,6,1:0:0:0:
117,324,85817,2,0,B|166:336|191:310|191:310|215:286|264:298,1,150,6|0,1:0|0:0,0:0:0:0:
256,192,86578,12,0,93279,0:0:0:0:
