osu file format v14

[General]
AudioFilename: Stike The Blood.mp3
AudioLeadIn: 1500
PreviewTime: 41194
Countdown: 0
SampleSet: Normal
StackLeniency: 0.6
Mode: 0
LetterboxInBreaks: 0
WidescreenStoryboard: 1

[Editor]
DistanceSpacing: 0.8
BeatDivisor: 4
GridSize: 8
TimelineZoom: 1

[Metadata]
Title:Strike The Blood (TV Size)
TitleUnicode:ストライク・ザ・ブラッド (TV Size)
Artist:KISIDA KYODAN & THE AKEBOSI ROCKETS
ArtistUnicode:岸田教団&THE明星ロケッツ
Creator:Dailycare
Version:Primogenitor
Source:ストライク・ザ・ブラッド
Tags:ストブラ ichigo Kishida kyoudan and Akeboshi Morinaga Japanese Anime OP Down Heto
BeatmapID:2167881
BeatmapSetID:406897

[Difficulty]
HPDrainRate:5.6
CircleSize:4.2
OverallDifficulty:9.4
ApproachRate:9.7
SliderMultiplier:1.92
SliderTickRate:1

[Events]
//Background and Video events
0,0,"www.jpg",0,0
//Break Periods
//Storyboard Layer 0 (Background)
//Storyboard Layer 1 (Fail)
//Storyboard Layer 2 (Pass)
//Storyboard Layer 3 (Foreground)
//Storyboard Layer 4 (Overlay)
//Storyboard Sound Samples

[TimingPoints]
89,288.461538461538,4,1,1,45,1,0
89,-98.0392156862745,4,1,1,45,0,0
954,-106.382978723404,4,1,1,45,0,0
1387,-125,4,1,1,45,0,0
1819,-153.846153846154,4,1,1,45,0,0
4127,-76.9230769230769,4,1,1,45,0,0
4560,-92.5925925925926,4,1,1,60,0,0
13790,-106.382978723404,4,1,1,45,0,0
23021,-98.0392156862745,4,1,1,60,0,0
30161,-98.0392156862745,4,1,1,5,0,0
30233,-98.0392156862745,4,1,1,60,0,0
32396,-125,4,1,1,45,0,0
34704,-106.382978723404,4,1,1,60,0,0
34992,-106.382978723404,4,1,1,45,0,0
35137,-106.382978723404,4,1,1,60,0,0
35425,-106.382978723404,4,1,1,45,0,0
35569,-106.382978723404,4,1,1,60,0,0
35858,-106.382978723404,4,1,1,45,0,0
36002,-106.382978723404,4,1,1,60,0,0
36290,-106.382978723404,4,1,1,45,0,0
36435,-106.382978723404,4,1,1,60,0,0
36723,-106.382978723404,4,1,1,45,0,0
37012,-92.5925925925926,4,1,1,60,0,0
37300,-92.5925925925926,4,1,1,32,0,0
38165,-92.5925925925926,4,1,1,44,0,0
38742,-76.9230769230769,4,1,1,52,0,0
39175,-92.5925925925926,4,1,1,60,0,0
39391,-92.5925925925926,4,1,1,5,0,0
39463,-92.5925925925926,4,1,1,60,0,0
41483,-92.5925925925926,4,1,1,63,0,1
50353,-92.5925925925926,4,1,1,5,0,1
50425,-92.5925925925926,4,1,1,63,0,0
50713,-92.5925925925926,4,1,1,63,0,1
57853,-92.5925925925926,4,1,1,5,0,1
57925,-92.5925925925926,4,1,1,63,0,1
59512,-92.5925925925926,4,1,1,63,0,0
59800,-92.5925925925926,4,1,1,72,0,0
59944,-87.719298245614,4,1,1,72,0,1
62468,-87.719298245614,4,1,1,5,0,1
62540,-87.719298245614,4,1,1,72,0,1
67084,-87.719298245614,4,1,1,5,0,1
67156,-87.719298245614,4,1,1,72,0,1
70329,-87.719298245614,4,1,1,63,0,0
72204,-87.719298245614,4,1,1,44,0,0
72925,-87.719298245614,4,1,1,32,0,0
73213,-87.719298245614,4,1,1,44,0,0
73358,-76.9230769230769,4,1,1,52,0,0
73790,-98.0392156862745,4,1,1,60,0,0
88358,-98.0392156862745,4,1,1,30,0,0
88935,-98.0392156862745,4,1,1,12,0,0

[Colours]
Combo1 : 120,197,187
Combo2 : 72,182,234
Combo3 : 88,115,184

[HitObjects]
24,204,89,5,6,0:2:0:0:
24,204,377,5,8,0:0:0:0:
34,251,449,1,0,0:0:0:0:
69,281,521,1,0,0:0:0:0:
117,290,594,1,0,0:0:0:0:
164,273,666,2,0,L|197:219,1,48.9600002988281
223,332,810,5,8,0:0:0:0:
253,358,882,1,0,0:0:0:0:
293,367,954,1,0,0:0:0:0:
334,355,1027,1,0,0:0:0:0:
364,328,1098,2,0,L|357:275,1,45.1199993115235,0|0,0:0|0:0,0:0:0:0:
444,310,1243,5,8,0:0:0:0:
476,306,1315,1,0,0:0:0:0:
499,282,1387,1,0,0:0:0:0:
505,248,1460,1,0,0:0:0:0:
497,217,1531,2,0,L|460:183,1,38.4
502,116,1675,5,8,0:0:0:0:
495,98,1748,1,0,0:0:0:0:
482,85,1819,2,0,L|437:82,1,31.1999985717774
404,17,1963,5,8,0:0:0:0:
395,12,2036,1,0,0:0:0:0:
385,9,2107,2,0,L|345:29,1,31.1999985717774,2|0,0:3|2:0,0:0:0:0:
280,13,2252,5,6,0:2:0:0:
280,13,3983,5,0,0:0:0:0:
280,13,4055,1,0,2:0:0:0:
280,13,4127,2,0,P|286:53|296:100,1,62.3999971435548,8|0,0:3|2:0,0:0:0:0:
138,145,4271,1,4,0:3:0:0:
138,145,4560,6,0,P|203:133|320:223,1,207.3600050625,4|0,0:2|0:0,0:0:0:0:
469,71,4992,2,0,P|419:59|360:39,1,103.68000253125,8|0,0:0|2:0,0:0:0:0:
228,270,5281,1,0,0:0:0:0:
411,204,5425,1,0,0:0:0:0:
290,74,5569,1,8,0:0:0:0:
368,282,5713,6,0,L|386:394,1,103.68000253125,4|0,0:2|2:0,0:0:0:0:
296,365,6002,1,0,0:0:0:0:
455,287,6146,1,8,0:0:0:0:
273,176,6290,6,0,L|289:73,1,103.68000253125,4|0,0:2|2:0,0:0:0:0:
227,15,6579,1,8,0:0:0:0:
365,132,6723,1,8,0:0:0:0:
190,193,6867,6,0,P|127:175|13:269,1,207.3600050625,4|0,0:2|0:0,0:0:0:0:
248,256,7300,1,8,0:0:0:0:
168,101,7444,1,0,0:0:0:0:
166,274,7588,6,0,P|152:314|141:375,1,103.68000253125,0|0,0:0|0:0,0:0:0:0:
272,173,7877,1,8,0:0:0:0:
85,118,8021,6,0,P|52:82|10:45,1,103.68000253125,4|0,0:2|2:0,0:0:0:0:
148,192,8310,1,0,0:0:0:0:
148,192,8382,1,0,0:0:0:0:
148,192,8454,1,8,0:0:0:0:
220,31,8598,6,0,P|270:25|326:17,1,103.68000253125,4|0,0:2|2:0,0:0:0:0:
479,165,8887,1,0,0:0:0:0:
285,267,9031,1,8,0:0:0:0:
512,382,9175,6,0,P|456:325|336:335,1,207.3600050625,4|0,0:2|0:0,0:0:0:0:
367,128,9608,2,0,P|376:179|385:246,1,103.68000253125,8|0,0:0|2:0,0:0:0:0:
258,372,9896,1,0,0:0:0:0:
461,245,10040,2,0,L|532:259,2,51.840001265625,0|0|8,0:0|0:0|0:0,0:0:0:0:
181,171,10329,6,0,P|245:157|309:141,1,103.68000253125,4|0,0:2|2:0,0:0:0:0:
440,79,10617,1,0,0:0:0:0:
284,6,10762,1,8,0:0:0:0:
371,264,10906,6,0,L|385:161,1,103.68000253125,4|0,0:2|2:0,0:0:0:0:
410,361,11194,1,8,0:0:0:0:
281,247,11338,1,8,0:0:0:0:
475,191,11483,5,4,0:2:0:0:
475,191,11627,1,0,2:0:0:0:
235,339,11771,5,8,0:0:0:0:
290,138,11915,1,0,2:0:0:0:
235,339,12060,1,8,0:0:0:0:
53,43,12204,5,0,2:0:0:0:
85,247,12348,1,8,0:0:0:0:
213,118,12492,1,0,2:0:0:0:
5,163,12637,6,0,P|58:153|123:139,1,103.68000253125,8|0,0:0|2:0,0:0:0:0:
187,229,12925,1,8,0:0:0:0:
187,229,12997,1,0,0:0:0:0:
187,229,13069,1,8,0:0:0:0:
213,118,13213,1,0,0:0:0:0:
56,308,13358,5,10,0:0:0:0:
0,61,13502,1,0,0:0:0:0:
0,61,13790,6,0,P|79:74|167:10,1,180.479997246094,4|0,0:2|2:0,0:0:0:0:
376,235,14223,2,0,P|381:189|392:141,1,90.2399986230469,2|0,0:3|2:0,0:0:0:0:
390,146,14512,2,0,P|311:159|223:95,1,180.479997246094,8|2,0:0|0:3,0:0:0:0:
36,236,14944,6,0,L|140:219,1,90.2399986230469,0|0,0:0|2:0,0:0:0:0:
125,221,15233,1,2,0:3:0:0:
260,356,15377,5,0,2:0:0:0:
97,312,15521,1,0,0:0:0:0:
215,195,15665,2,0,P|221:150|230:106,1,90.2399986230469,8|0,0:0|2:0,0:0:0:0:
188,41,15954,1,4,0:3:0:0:
303,140,16098,6,0,P|363:131|463:221,1,180.479997246094,4|0,0:2|2:0,0:0:0:0:
185,293,16531,2,0,P|143:299|82:316,1,90.2399986230469,2|0,0:3|2:0,0:0:0:0:
96,311,16819,2,0,P|160:250|248:253,1,180.479997246094,8|2,0:0|0:3,0:0:0:0:
303,140,17252,6,0,L|318:31,1,90.2399986230469,8|0,0:0|2:0,0:0:0:0:
315,50,17540,1,2,0:3:0:0:
386,158,17685,5,4,2:3:0:0:
226,70,17829,1,0,0:0:0:0:
397,20,17973,5,8,0:0:0:0:
331,224,18117,1,8,0:3:0:0:
331,224,18262,1,8,0:3:0:0:
146,114,18406,6,0,P|91:106|-3:198,1,180.479997246094,4|0,0:2|2:0,0:0:0:0:
226,70,18838,1,2,0:3:0:0:
226,70,18983,1,0,2:0:0:0:
218,156,19127,2,0,P|230:200|243:243,1,90.2399986230469,8|0,0:0|2:0,0:0:0:0:
155,31,19415,1,2,0:3:0:0:
378,133,19560,6,0,L|288:118,1,90.2399986230469,2|0,0:3|2:0,0:0:0:0:
49,185,19848,2,0,L|156:168,1,90.2399986230469,2|0,0:3|2:0,0:0:0:0:
413,271,20137,5,2,0:3:0:0:
413,271,20281,2,0,L|323:256,2,90.2399986230469,12|0|4,0:2|2:0|0:3,0:0:0:0:
27,366,20713,6,0,P|83:314|186:303,1,180.479997246094,0|0,0:0|2:0,0:0:0:0:
342,184,21146,1,8,0:3:0:0:
205,109,21290,1,0,0:0:0:0:
203,93,21362,1,4,0:3:0:0:
201,77,21435,1,8,0:0:0:0:
384,348,21579,5,4,2:3:0:0:
115,222,21723,1,4,0:3:0:0:
358,87,21867,1,2,0:3:0:0:
358,87,23021,6,0,P|369:136|386:201,1,97.9200005976563,4|0,0:2|2:0,0:0:0:0:
280,315,23310,1,4,0:3:0:0:
456,225,23454,1,8,0:0:0:0:
287,133,23598,1,4,0:3:0:0:
275,131,23670,1,0,0:0:0:0:
264,130,23742,1,8,0:3:0:0:
329,247,23887,5,4,0:3:0:0:
118,316,24031,1,8,0:0:0:0:
191,158,24175,6,0,L|175:264,1,97.9200005976563,8|0,0:3|2:0,0:0:0:0:
348,362,24463,1,4,0:3:0:0:
259,212,24608,1,8,0:0:0:0:
118,316,24752,1,4,0:3:0:0:
118,316,24824,1,0,0:0:0:0:
118,316,24896,1,4,0:3:0:0:
262,290,25040,5,4,0:3:0:0:
113,160,25185,1,8,0:0:0:0:
333,62,25329,6,0,P|385:52|448:40,1,97.9200005976563,4|0,0:2|2:0,0:0:0:0:
506,232,25617,1,4,0:3:0:0:
385,143,25762,1,8,0:0:0:0:
512,24,25906,1,4,0:3:0:0:
510,37,25978,1,0,0:0:0:0:
508,50,26050,1,8,0:3:0:0:
414,239,26194,5,4,0:3:0:0:
333,62,26338,1,8,0:0:0:0:
496,136,26483,1,8,0:3:0:0:
217,295,26627,5,10,0:2:0:0:
385,143,26771,1,0,0:0:0:0:
170,74,26915,5,10,0:2:0:0:
342,282,27060,1,0,0:0:0:0:
299,49,27204,5,10,0:2:0:0:
299,49,27348,1,10,0:2:0:0:
129,191,27492,1,8,0:3:0:0:
426,336,27637,6,0,L|411:215,1,97.9200005976563,4|0,0:2|2:0,0:0:0:0:
305,127,27925,1,4,0:3:0:0:
467,172,28069,1,8,0:0:0:0:
342,282,28213,2,0,L|217:313,1,97.9200005976563,4|0,0:3|2:0,0:0:0:0:
374,172,28502,5,4,0:3:0:0:
426,336,28646,1,8,0:0:0:0:
206,185,28790,6,0,L|331:216,1,97.9200005976563,4|0,0:3|2:0,0:0:0:0:
493,256,29079,1,4,0:3:0:0:
465,54,29223,2,0,P|417:60|374:95,1,97.9200005976563,8|4,0:0|0:3,0:0:0:0:
342,282,29512,5,0,0:0:0:0:
130,154,29656,2,0,L|72:163,2,48.9600002988281,4|0|8,0:3|0:0|0:0,0:0:0:0:
324,23,29944,6,0,B|287:57|287:57|309:169,1,146.880000896484,4|0,0:2|2:0,0:0:0:0:
305,151,30233,2,0,P|253:145|199:138,1,97.9200005976563,4|8,0:3|0:0,0:0:0:0:
396,196,30521,1,4,0:3:0:0:
209,12,30665,5,8,0:3:0:0:
209,12,30810,1,4,0:3:0:0:
382,111,30954,1,8,0:0:0:0:
185,224,31098,6,0,P|111:253|63:366,1,195.840001195313,4|8,0:2|0:3,0:0:0:0:
12,243,31531,1,8,0:0:0:0:
58,89,31675,1,0,0:0:0:0:
58,89,31747,1,4,0:3:0:0:
58,89,31819,2,0,L|76:196,1,97.9200005976563,8|8,0:0|0:3,0:0:0:0:
195,364,32108,1,8,0:0:0:0:
195,364,32396,5,4,0:2:0:0:
249,297,32540,2,0,P|306:287|377:348,2,153.6,2|0|0,0:2|2:3|2:3,0:0:0:0:
93,295,33262,6,0,L|191:279,1,76.8,8|0,0:3|0:0,0:0:0:0:
296,375,33550,1,4,0:3:0:0:
224,216,33694,6,0,B|234:151|234:151|223:129|223:129|233:67,1,153.6,4|0,0:3|0:0,0:0:0:0:
236,58,34055,1,0,0:0:0:0:
238,48,34127,1,8,0:0:0:0:
151,163,34271,1,4,0:3:0:0:
313,109,34415,5,10,0:2:0:0:
157,13,34560,1,4,0:3:0:0:
307,194,34704,6,0,L|422:178,1,90.2399986230469,10|4,0:2|2:3,0:0:0:0:
396,181,34992,1,0,0:0:0:0:
89,221,35137,6,0,L|67:345,1,90.2399986230469,2|4,0:2|2:3,0:0:0:0:
73,309,35425,1,0,0:0:0:0:
233,140,35569,6,0,L|211:16,1,90.2399986230469,14|4,0:2|2:3,0:0:0:0:
217,52,35857,1,0,0:0:0:0:
391,302,36002,6,0,P|351:283|276:291,1,90.2399986230469,10|0,0:2|2:0,0:0:0:0:
150,162,36290,1,4,0:3:0:0:
323,19,36435,2,0,L|311:120,1,90.2399986230469,10|4,0:2|0:3,0:0:0:0:
89,221,36723,2,0,L|-2:230,1,90.2399986230469,8|0,0:3|2:0,0:0:0:0:
295,369,37012,5,12,0:2:0:0:
197,287,37300,5,8,0:0:0:0:
200,274,37372,1,0,0:0:0:0:
203,261,37444,2,0,L|197:193,1,51.840001265625
342,68,37588,5,8,0:0:0:0:
345,81,37660,1,0,0:0:0:0:
348,94,37732,2,0,L|342:161,1,51.840001265625,0|0,0:0|0:0,0:0:0:0:
428,362,37877,5,8,0:0:0:0:
431,349,37949,1,0,0:0:0:0:
434,336,38021,2,0,L|428:268,1,51.840001265625,0|0,0:0|0:0,0:0:0:0:
511,257,38165,5,8,0:0:0:0:
487,219,38238,1,0,0:0:0:0:
448,198,38310,1,0,0:0:0:0:
403,199,38382,1,0,0:0:0:0:
364,222,38454,1,8,0:0:0:0:
318,222,38526,1,0,0:0:0:0:
280,199,38598,1,0,0:0:0:0:
264,158,38670,1,0,0:0:0:0:
231,129,38742,5,8,0:0:0:0:
177,124,38814,1,0,0:0:0:0:
130,151,38887,1,8,0:0:0:0:
116,203,38959,1,0,0:0:0:0:
126,256,39031,2,0,P|97:247|48:236,1,62.3999971435548,8|0,0:0|0:0,0:0:0:0:
0,3,39175,6,0,P|60:-5|143:91,1,155.520003796875,12|0,0:2|0:0,0:0:0:0:
136,61,39463,1,4,0:3:0:0:
221,278,39608,5,8,0:0:0:0:
251,41,39752,1,0,0:0:0:0:
486,331,39896,5,4,0:3:0:0:
461,97,40040,1,0,0:0:0:0:
351,203,40185,6,0,L|439:195,1,51.840001265625,8|0,0:0|0:0,0:0:0:0:
480,212,40329,1,4,0:2:0:0:
480,212,40762,5,8,0:0:0:0:
480,212,40906,1,8,0:0:0:0:
505,38,41194,5,12,0:3:0:0:
505,38,41483,6,0,P|415:32|322:135,1,207.3600050625,4|4,0:2|0:3,0:0:0:0:
146,180,41915,2,0,P|142:124|131:69,1,103.68000253125,8|0,0:0|2:0,0:0:0:0:
229,223,42204,5,4,0:3:0:0:
56,121,42348,1,0,0:3:0:0:
155,322,42492,1,8,0:0:0:0:
330,105,42637,6,0,L|213:129,1,103.68000253125,4|0,0:3|2:0,0:0:0:0:
52,214,42925,1,0,0:0:0:0:
296,355,43069,2,0,P|310:300|334:247,1,103.68000253125,8|0,0:0|0:0,0:0:0:0:
212,35,43358,5,4,0:3:0:0:
212,35,43502,1,0,2:0:0:0:
381,180,43646,1,8,0:0:0:0:
215,303,43790,6,0,P|144:303|66:361,1,155.520003796875,4|0,0:3|2:0,0:0:0:0:
70,357,44079,1,4,0:3:0:0:
381,180,44223,6,0,L|524:206,1,103.68000253125,10|0,0:2|2:0,0:0:0:0:
198,101,44512,6,0,P|189:49|174:-1,1,103.68000253125,2|0,0:2|0:0,0:0:0:0:
261,204,44800,5,10,0:2:0:0:
261,204,44944,1,0,0:0:0:0:
307,12,45088,5,2,0:2:0:0:
81,148,45233,1,0,0:0:0:0:
351,192,45377,5,10,0:2:0:0:
107,53,45521,1,0,0:0:0:0:
390,106,45665,5,12,0:3:0:0:
341,98,45738,1,8,0:3:0:0:
294,113,45810,1,4,0:3:0:0:
268,156,45882,1,4,0:3:0:0:
261,204,45954,1,8,0:0:0:0:
233,241,46026,1,0,0:0:0:0:
188,261,46098,6,0,L|70:244,1,103.68000253125,12|0,0:3|2:0,0:0:0:0:
255,333,46387,1,4,0:3:0:0:
169,61,46531,2,0,P|171:113|181:164,1,103.68000253125,12|0,0:2|0:0,0:0:0:0:
18,329,46819,5,4,0:3:0:0:
94,134,46963,1,0,0:0:0:0:
167,367,47108,1,8,0:0:0:0:
12,237,47252,6,0,L|135:216,1,103.68000253125,4|0,0:3|2:0,0:0:0:0:
240,11,47540,1,4,0:3:0:0:
357,116,47685,2,0,L|234:95,1,103.68000253125,8|0,0:0|0:0,0:0:0:0:
489,231,47973,6,0,L|502:335,1,103.68000253125,8|4,0:3|0:3,0:0:0:0:
501,333,48262,1,8,0:0:0:0:
326,31,48406,6,0,P|363:86|503:85,1,207.3600050625,6|4,0:2|2:3,0:0:0:0:
493,91,48838,1,8,0:0:0:0:
186,137,48983,6,0,P|149:192|9:191,1,207.3600050625,6|4,0:2|2:3,0:0:0:0:
18,197,49415,1,8,0:0:0:0:
248,7,49560,6,0,L|263:121,1,103.68000253125,14|0,0:2|2:0,0:0:0:0:
261,109,49848,5,4,0:3:0:0:
98,247,49992,1,8,0:0:0:0:
320,341,50137,1,8,0:3:0:0:
195,181,50281,6,0,L|186:251,1,51.840001265625,8|0,0:0|0:0,0:0:0:0:
111,340,50425,1,8,0:3:0:0:
293,201,50569,1,4,0:3:0:0:
1,134,50713,6,0,P|68:62|193:103,1,207.3600050625,4|4,0:2|0:3,0:0:0:0:
463,150,51146,2,0,P|413:144|324:131,1,103.68000253125,8|0,0:0|2:0,0:0:0:0:
201,315,51435,5,4,0:3:0:0:
394,239,51579,1,4,0:3:0:0:
264,113,51723,1,8,0:0:0:0:
311,323,51867,6,0,P|303:271|277:197,1,103.68000253125,4|0,0:3|2:0,0:0:0:0:
291,18,52156,1,0,0:0:0:0:
94,198,52300,2,0,L|233:179,1,103.68000253125,8|0,0:0|0:0,0:0:0:0:
372,45,52588,5,0,0:0:0:0:
372,45,52733,1,0,2:0:0:0:
287,222,52877,1,8,0:0:0:0:
101,117,53021,6,0,P|87:55|5:8,1,155.520003796875,4|0,0:3|2:0,0:0:0:0:
2,8,53310,1,4,0:3:0:0:
311,96,53454,6,0,L|420:83,1,103.68000253125,10|0,0:2|2:0,0:0:0:0:
218,275,53742,6,0,P|203:325|196:389,1,103.68000253125,2|0,0:2|0:0,0:0:0:0:
217,167,54031,5,10,0:2:0:0:
217,167,54175,1,0,0:0:0:0:
111,347,54319,5,2,0:2:0:0:
349,217,54463,1,0,0:0:0:0:
100,166,54608,5,10,0:2:0:0:
321,323,54752,1,0,0:0:0:0:
54,254,54896,5,12,0:3:0:0:
103,263,54968,1,8,0:3:0:0:
150,250,55040,1,4,0:3:0:0:
184,215,55113,1,4,0:3:0:0:
197,167,55185,1,8,0:0:0:0:
186,119,55257,1,0,0:0:0:0:
149,86,55329,6,0,L|28:72,1,103.68000253125,12|0,0:3|2:0,0:0:0:0:
215,14,55617,1,4,0:3:0:0:
400,197,55762,2,0,L|411:301,1,103.68000253125,12|0,0:2|0:0,0:0:0:0:
458,124,56050,5,4,0:3:0:0:
318,229,56194,1,0,0:0:0:0:
495,318,56338,1,8,0:0:0:0:
299,40,56483,6,0,P|294:88|283:154,1,103.68000253125,4|0,0:3|2:0,0:0:0:0:
478,226,56771,1,0,0:0:0:0:
389,381,56915,2,0,P|393:332|405:267,1,103.68000253125,8|0,0:0|2:0,0:0:0:0:
228,210,57204,6,0,L|110:225,1,103.68000253125,8|4,0:3|0:3,0:0:0:0:
125,223,57492,1,8,0:0:0:0:
84,22,57637,6,0,P|135:14|214:98,1,155.520003796875,4|0,0:2|0:0,0:0:0:0:
212,87,57925,1,4,0:3:0:0:
293,271,58069,5,10,0:2:0:0:
137,139,58213,1,0,0:0:0:0:
277,24,58358,2,0,P|340:10|393:-6,1,103.68000253125,2|0,0:2|0:0,0:0:0:0:
207,202,58646,2,0,L|194:320,1,103.68000253125,10|0,0:2|0:0,0:0:0:0:
297,108,58935,5,2,0:2:0:0:
7,267,59079,1,4,0:3:0:0:
261,376,59223,1,10,0:2:0:0:
26,146,59367,1,4,0:3:0:0:
61,362,59512,6,0,L|127:347,1,51.840001265625,10|0,0:0|2:0,0:0:0:0:
305,213,59656,1,8,0:3:0:0:
354,220,59728,1,2,0:2:0:0:
403,227,59800,1,10,0:0:0:0:
196,61,59944,6,2,P|209:109|218:178,1,109.439998664063,6|0,0:0|2:0,0:1:0:0:
333,306,60233,1,2,0:2:0:0:
512,123,60377,2,0,L|367:149,1,109.439998664063,10|0,0:0|2:0,0:0:0:0:
120,357,60665,5,4,0:3:0:0:
305,213,60810,1,2,0:0:0:0:
108,84,60954,1,8,0:0:0:0:
338,0,61098,6,2,P|325:48|316:117,1,109.439998664063,2|0,0:0|2:0,0:1:0:0:
179,263,61387,1,2,0:2:0:0:
0,64,61531,2,0,L|145:90,1,109.439998664063,10|0,0:0|2:0,0:0:0:0:
405,230,61819,5,4,0:3:0:0:
120,358,61963,2,0,L|54:370,2,54.7199993320313,0|0|10,0:0|0:0|0:0,0:0:0:0:
462,325,62252,6,0,P|400:344|317:283,1,164.159997996094,2|0,0:0|0:0,0:0:0:0:
321,293,62540,2,0,L|307:170,1,109.439998664063,2|8,0:0|0:0,0:0:0:0:
66,367,62829,2,0,L|52:244,1,109.439998664063,2|0,0:0|0:0,0:0:0:0:
254,4,63117,6,0,L|245:58,1,54.7199993320313,2|0,0:0|2:0,0:0:0:0:
215,243,63262,1,8,0:0:0:0:
233,150,63406,5,2,0:0:0:0:
233,150,63550,1,0,2:0:0:0:
53,258,63694,5,2,0:0:0:0:
344,121,63838,1,8,0:0:0:0:
114,26,63983,1,0,0:2:0:0:
431,308,64127,5,10,0:0:0:0:
131,155,64271,1,4,0:3:0:0:
382,5,64415,1,10,0:0:0:0:
251,257,64560,6,2,P|242:192|230:138,1,109.439998664063,6|0,0:0|2:0,0:1:0:0:
114,26,64848,1,2,0:2:0:0:
404,220,64992,2,0,L|512:237,1,109.439998664063,10|0,0:0|2:0,0:0:0:0:
144,268,65281,5,4,0:3:0:0:
331,119,65425,1,2,0:0:0:0:
114,26,65569,1,8,0:0:0:0:
267,311,65713,6,2,P|276:246|288:192,1,109.439998664063,2|0,0:0|2:0,0:1:0:0:
423,92,66002,1,2,0:2:0:0:
144,268,66146,2,0,L|35:285,1,109.439998664063,10|0,0:0|0:0,0:0:0:0:
423,348,66435,5,4,0:3:0:0:
238,115,66579,2,0,L|158:103,2,54.7199993320313,0|0|10,0:0|0:0|0:0,0:0:0:0:
121,364,66867,6,2,P|161:318|286:318,1,164.159997996094,2|0,0:0|2:0,0:1:0:0:
268,311,67156,1,2,0:0:0:0:
406,85,67300,2,0,L|421:225,1,109.439998664063,10|0,0:0|2:0,0:0:0:0:
506,378,67588,5,4,0:3:0:0:
506,378,67733,1,0,0:0:0:0:
333,243,67877,1,10,0:0:0:0:
512,62,68021,6,0,P|453:78|383:85,1,109.439998664063,2|0,0:0|2:0,0:0:0:0:
210,220,68310,1,2,0:0:0:0:
423,348,68454,1,8,0:0:0:0:
349,153,68598,1,2,0:0:0:0:
120,368,68742,5,4,0:3:0:0:
163,74,68887,1,2,0:0:0:0:
322,273,69031,1,8,0:0:0:0:
0,201,69175,6,0,L|147:176,1,109.439998664063,2|0,0:0|2:0,0:0:0:0:
238,4,69463,1,0,0:0:0:0:
210,220,69608,1,8,0:0:0:0:
60,95,69752,1,0,0:0:0:0:
268,146,69896,5,4,0:3:0:0:
280,143,69968,1,0,0:0:0:0:
293,142,70040,1,8,0:3:0:0:
24,283,70185,1,4,0:3:0:0:
321,366,70329,5,10,0:0:0:0:
321,366,70617,5,10,0:0:0:0:
321,366,70906,5,10,0:0:0:0:
321,366,71194,5,10,0:0:0:0:
321,366,71483,5,6,0:0:0:0:
191,18,71915,5,2,0:2:0:0:
191,18,72204,2,0,P|207:41|245:65,1,54.7199993320313
300,240,72348,2,0,P|311:214|313:169,1,54.7199993320313
380,75,72492,5,0,0:0:0:0:
380,75,72564,1,0,0:0:0:0:
380,75,72637,2,0,P|352:77|312:98,1,54.7199993320313
68,134,72781,5,4,0:3:0:0:
60,133,72853,1,0,0:0:0:0:
55,131,72925,1,0,0:0:0:0:
51,126,72997,1,0,0:0:0:0:
50,119,73069,1,8,0:3:0:0:
54,113,73141,1,0,2:0:0:0:
58,110,73213,2,0,L|65:174,1,54.7199993320313,4|0,0:3|2:0,0:0:0:0:
19,305,73358,6,0,P|26:270|34:206,1,62.3999971435548,8|0,0:3|2:0,0:0:0:0:
131,48,73502,2,0,P|138:83|146:147,1,62.3999971435548,4|0,0:3|2:0,0:0:0:0:
248,298,73646,2,0,P|255:263|263:199,1,62.3999971435548,8|0,0:3|2:0,0:0:0:0:
378,118,73790,6,0,P|479:104|537:194,1,195.840001195313,4|0,0:2|0:0,0:0:0:0:
446,373,74223,2,0,P|436:317|421:263,1,97.9200005976563,8|0,0:0|2:0,0:0:0:0:
508,249,74512,1,0,0:0:0:0:
344,312,74656,2,0,L|244:297,1,97.9200005976563,0|8,0:0|0:0,0:0:0:0:
43,153,74944,6,0,L|143:138,1,97.9200005976563,4|0,0:2|2:0,0:0:0:0:
215,75,75233,1,0,0:0:0:0:
189,224,75377,1,8,0:0:0:0:
402,64,75521,6,0,L|302:49,1,97.9200005976563,4|0,0:2|2:0,0:0:0:0:
150,0,75810,1,0,0:0:0:0:
263,161,75954,1,8,0:0:0:0:
79,341,76098,6,0,L|94:245,1,97.9200005976563,4|0,0:2|2:0,0:0:0:0:
183,138,76387,1,0,0:0:0:0:
336,320,76531,2,0,P|284:314|225:287,1,97.9200005976563,8|0,0:0|2:0,0:0:0:0:
5,286,76819,5,0,0:0:0:0:
183,225,76963,1,0,0:0:0:0:
25,115,77108,1,8,0:0:0:0:
226,344,77252,5,6,0:2:0:0:
108,182,77396,1,0,2:0:0:0:
289,73,77540,2,0,L|346:66,2,48.9600002988281,2|0|8,0:2|2:0|0:0,0:0:0:0:
108,182,77829,6,0,P|105:133|96:84,1,97.9200005976563,6|0,0:2|0:0,0:0:0:0:
299,358,78117,2,0,P|301:310|311:262,1,97.9200005976563,10|8,0:2|0:0,0:0:0:0:
508,151,78406,6,0,P|438:208|349:188,1,146.880000896484,8|0,0:2|2:0,0:0:0:0:
376,202,78694,1,0,0:0:0:0:
224,264,78838,2,0,L|127:278,1,97.9200005976563,8|0,0:0|2:0,0:0:0:0:
382,339,79127,5,0,0:0:0:0:
260,192,79271,1,0,0:0:0:0:
421,122,79415,1,0,0:0:0:0:
313,25,79560,6,0,L|329:139,1,97.9200005976563,4|0,0:2|2:0,0:0:0:0:
224,264,79848,1,0,0:0:0:0:
243,104,79992,1,8,0:0:0:0:
356,210,80137,6,0,L|218:184,1,97.9200005976563,4|0,0:2|2:0,0:0:0:0:
151,307,80425,1,0,0:0:0:0:
307,282,80569,1,8,0:0:0:0:
177,165,80713,6,0,P|91:172|38:276,1,195.840001195313,4|0,0:2|0:0,0:0:0:0:
68,6,81146,1,8,0:0:0:0:
0,57,81290,2,0,P|41:84|120:76,1,97.9200005976563,4|0,0:2|2:0,0:0:0:0:
135,256,81579,2,0,L|150:360,1,97.9200005976563,0|8,0:0|0:0,0:0:0:0:
260,139,81867,6,0,L|273:42,1,97.9200005976563,4|0,0:2|2:0,0:0:0:0:
273,42,82156,1,0,0:0:0:0:
330,184,82300,5,8,0:0:0:0:
189,94,82444,1,8,0:0:0:0:
357,42,82588,5,8,0:3:0:0:
137,156,82733,1,4,0:3:0:0:
404,225,82877,1,8,0:0:0:0:
102,29,83021,6,0,L|234:4,1,97.9200005976563,4|0,0:2|2:0,0:0:0:0:
397,117,83310,1,8,0:0:0:0:
204,202,83454,1,8,0:0:0:0:
493,135,83598,6,0,L|361:110,1,97.9200005976563,4|0,0:2|2:0,0:0:0:0:
128,236,83887,1,8,0:0:0:0:
362,325,84031,1,8,0:0:0:0:
40,174,84175,6,0,L|172:149,1,97.9200005976563,4|0,0:2|2:0,0:0:0:0:
326,255,84463,1,0,0:0:0:0:
53,354,84608,5,8,0:0:0:0:
97,65,84752,1,0,0:0:0:0:
147,322,84896,5,8,0:0:0:0:
186,112,85040,1,0,0:0:0:0:
226,384,85185,5,8,0:0:0:0:
282,89,85329,1,10,0:0:0:0:
321,352,85617,5,4,0:3:0:0:
360,142,85761,1,10,0:0:0:0:
410,328,86050,5,4,0:3:0:0:
449,118,86194,1,10,0:0:0:0:
487,374,86483,5,6,0:2:0:0:
256,192,86555,12,0,89079,2:0:0:0:
