osu file format v14

[General]
AudioFilename: Stike The Blood.mp3
AudioLeadIn: 1500
PreviewTime: 41194
Countdown: 0
SampleSet: Normal
StackLeniency: 0.5
Mode: 0
LetterboxInBreaks: 0
WidescreenStoryboard: 1

[Editor]
Bookmarks: 2252,3983,4560,13790,23021,26627,27637,31819,34704,37012,40329,41194,50713,59944,69175,71483,73790,80713,85329,89079
DistanceSpacing: 1.4
BeatDivisor: 4
GridSize: 4
TimelineZoom: 2.2

[Metadata]
Title:Strike The Blood (TV Size)
TitleUnicode:ストライク・ザ・ブラッド (TV Size)
Artist:KISIDA KYODAN & THE AKEBOSI ROCKETS
ArtistUnicode:岸田教団&THE明星ロケッツ
Creator:Dailycare
Version:Insane
Source:ストライク・ザ・ブラッド
Tags:ストブラ ichigo Kishida kyoudan and Akeboshi Morinaga Japanese Anime OP Down Heto
BeatmapID:2243041
BeatmapSetID:406897

[Difficulty]
HPDrainRate:7
CircleSize:4
OverallDifficulty:8
ApproachRate:9
SliderMultiplier:1.7
SliderTickRate:1

[Events]
//Background and Video events
0,0,"www.jpg",0,0
//Break Periods
//Storyboard Layer 0 (Background)
//Storyboard Layer 1 (Fail)
//Storyboard Layer 2 (Pass)
//Storyboard Layer 3 (Foreground)
//Storyboard Layer 4 (Overlay)
//Storyboard Sound Samples

[TimingPoints]
89,288.461538461538,4,1,1,45,1,0
4560,-100,4,1,1,60,0,0
13790,-125,4,1,1,45,0,0
23021,-100,4,1,1,60,0,0
30161,-100,4,1,1,5,0,0
30233,-100,4,1,1,60,0,0
32396,-100,4,1,1,45,0,0
34704,-100,4,1,1,60,0,0
34992,-100,4,1,1,45,0,0
35137,-100,4,1,1,60,0,0
35425,-100,4,1,1,45,0,0
35569,-100,4,1,1,60,0,0
35858,-100,4,1,1,45,0,0
36002,-100,4,1,1,60,0,0
36290,-100,4,1,1,45,0,0
36435,-100,4,1,1,60,0,0
36723,-100,4,1,1,45,0,0
37012,-100,4,1,1,60,0,0
37300,-100,4,1,1,32,0,0
38165,-100,4,1,1,44,0,0
38742,-100,4,1,1,52,0,0
39175,-100,4,1,1,60,0,0
41483,-100,4,1,1,63,0,1
50425,-100,4,1,1,63,0,0
50713,-100,4,1,1,63,0,1
59512,-100,4,1,1,63,0,0
59800,-100,4,1,1,72,0,0
59944,-100,4,1,1,72,0,1
70329,-100,4,1,1,63,0,0
72204,-100,4,1,1,44,0,0
72925,-100,4,1,1,32,0,0
73213,-100,4,1,1,44,0,0
73358,-100,4,1,1,52,0,0
73790,-100,4,1,1,60,0,0
88358,-100,4,1,1,30,0,0
88935,-100,4,1,1,12,0,0

[Colours]
Combo1 : 120,197,187
Combo2 : 72,182,234
Combo3 : 88,115,184

[HitObjects]
252,60,89,5,6,0:2:0:0:
252,60,377,6,0,L|242:108,5,42.5,8|0|0|0|0|0,0:0|0:0|0:0|0:0|0:0|0:0,0:0:0:0:
300,205,810,2,0,L|263:172,5,42.5,8|0|0|0|0|0,0:0|0:0|0:0|0:0|0:0|0:0,0:0:0:0:
150,174,1242,2,0,L|196:158,5,42.5,8|0|0|0|0|0,0:0|0:0|0:0|0:0|0:0|0:0,0:0:0:0:
252,60,1675,5,8,0:0:0:0:
252,60,1747,1,0,0:0:0:0:
252,60,1819,2,0,L|262:122,1,42.5,0|0,0:0|0:0,0:0:0:0:
363,121,1963,1,8,0:0:0:0:
363,121,2035,1,0,0:0:0:0:
363,121,2107,2,0,L|373:183,1,42.5,2|0,0:3|2:0,0:0:0:0:
474,182,2252,1,6,0:2:0:0:
474,182,3983,5,0,0:0:0:0:
474,182,4055,1,0,2:0:0:0:
474,182,4127,2,0,P|495:141|476:79,1,85,8|4,0:3|0:3,0:0:0:0:
512,28,4560,6,0,P|481:89|387:71,1,170,4|0,0:2|0:0,0:0:0:0:
292,16,4992,2,0,P|298:57|301:100,1,85,8|0,0:0|2:0,0:0:0:0:
267,283,5281,1,0,0:0:0:0:
371,160,5425,1,0,0:0:0:0:
371,160,5569,1,8,0:0:0:0:
220,88,5713,6,0,P|170:132|203:241,1,170,4|0,0:2|0:0,0:0:0:0:
184,226,6146,1,8,0:0:0:0:
326,340,6290,6,0,P|346:261|290:201,1,170,4|8,0:2|0:0,0:0:0:0:
290,201,6723,1,8,0:0:0:0:
189,321,6867,6,0,B|103:336|103:336|97:339|97:339|91:337|91:337|4:352,1,170,4|0,0:2|0:0,0:0:0:0:
80,175,7300,1,8,0:0:0:0:
109,253,7444,1,0,0:0:0:0:
214,176,7588,1,0,0:0:0:0:
162,47,7733,2,0,B|142:151,1,85,0|8,0:0|0:0,0:0:0:0:
254,274,8021,6,0,P|296:209|406:234,1,170,4|0,0:2|0:0,0:0:0:0:
381,210,8454,1,8,0:0:0:0:
512,121,8598,6,0,P|430:124|384:57,1,170,4|0,0:2|0:0,0:0:0:0:
384,57,9031,1,8,0:0:0:0:
238,8,9175,6,0,B|224:92|224:92|226:94|226:94|211:194,1,170,4|0,0:2|0:0,0:0:0:0:
141,319,9608,2,0,P|84:329|28:257,1,127.5,8|0,0:0|2:0,0:0:0:0:
26,292,9896,2,0,P|15:241|-2:201,1,85,0|0,0:0|0:0,0:0:0:0:
146,115,10185,1,8,0:0:0:0:
33,16,10329,6,0,P|15:104|79:153,1,170,4|0,0:2|0:0,0:0:0:0:
69,151,10762,1,8,0:0:0:0:
190,223,10906,6,0,P|279:210|372:197,1,170,4|8,0:2|0:0,0:0:0:0:
358,198,11338,1,8,0:0:0:0:
507,361,11483,6,0,P|433:376|370:298,1,170,4|8,0:2|0:0,0:0:0:0:
465,163,11915,1,0,2:0:0:0:
512,238,12060,2,0,P|468:244|411:255,1,85,8|0,0:0|2:0,0:0:0:0:
405,71,12348,2,0,P|447:78|489:85,1,85,8|0,0:0|2:0,0:0:0:0:
260,148,12637,6,0,P|239:71|306:9,1,170,8|8,0:0|0:0,0:0:0:0:
296,11,12997,1,0,0:0:0:0:
296,11,13069,1,8,0:0:0:0:
326,93,13213,1,0,0:0:0:0:
201,223,13358,5,10,0:0:0:0:
224,66,13502,1,0,0:0:0:0:
223,66,13790,6,0,P|158:65|120:11,1,136,4|0,0:2|2:0,0:0:0:0:
227,155,14223,1,2,0:3:0:0:
227,155,14512,6,0,P|255:102|336:97,1,136,8|2,0:0|0:3,0:0:0:0:
148,114,14944,2,0,P|179:170|151:230,1,136,0|2,0:0|0:3,0:0:0:0:
9,280,15377,2,0,P|-22:223|5:163,1,136,0|8,2:0|0:0,0:0:0:0:
85,188,15810,5,0,2:0:0:0:
85,188,15954,1,4,0:3:0:0:
171,368,16098,6,0,B|157:372|144:384|144:384|109:374|88:328|130:275,1,136,4|0,0:2|2:0,0:0:0:0:
290,301,16531,1,2,0:3:0:0:
290,301,16819,6,0,B|300:311|317:316|317:316|326:351|296:392|229:383,1,136,8|2,0:0|0:3,0:0:0:0:
172,231,17252,2,0,B|175:216|171:199|171:199|197:174|248:179|273:241,1,136,8|2,0:0|0:3,0:0:0:0:
342,236,17685,2,0,P|347:198|361:144,1,68,4|0,2:3|0:0,0:0:0:0:
260,217,17973,5,8,0:0:0:0:
290,301,18117,1,8,0:3:0:0:
290,301,18262,1,8,0:3:0:0:
279,134,18406,6,0,L|258:-9,1,136,4|0,0:2|2:0,0:0:0:0:
196,132,18838,2,0,L|166:69,1,68,2|0,0:3|2:0,0:0:0:0:
351,85,19127,6,0,P|412:79|465:158,1,136,8|2,0:0|0:3,0:0:0:0:
512,245,19560,2,0,P|467:293|401:288,1,136,2|2,0:3|0:3,0:0:0:0:
301,190,19992,6,0,P|323:211|330:258,1,68,0|2,2:0|0:3,0:0:0:0:
333,330,20281,2,0,L|180:312,1,136,12|4,0:2|0:3,0:0:0:0:
70,191,20713,6,0,L|-21:180,1,68,0|0,0:0|2:0,0:0:0:0:
156,151,21002,2,0,L|247:140,1,68,0|8,2:0|0:3,0:0:0:0:
76,103,21290,2,0,L|70:53,2,34,0|4|8,0:0|0:3|0:0,0:0:0:0:
147,244,21579,5,4,2:3:0:0:
165,71,21723,1,4,0:3:0:0:
9,154,21867,1,2,0:3:0:0:
9,154,23021,6,0,B|111:167|111:167|116:166|116:166|121:169|121:169|191:178,1,170,4|4,0:2|0:3,0:0:0:0:
165,71,23454,2,0,L|262:53,1,85,8|4,0:0|0:3,0:0:0:0:
248,55,23670,1,0,0:0:0:0:
248,55,23742,1,8,0:3:0:0:
246,219,23887,2,0,P|233:258|239:326,1,85,4|8,0:3|0:0,0:0:0:0:
384,362,24175,6,0,P|396:322|391:255,1,85,8|0,0:3|2:0,0:0:0:0:
148,276,24463,1,4,0:3:0:0:
148,276,24608,2,0,L|162:372,1,85,8|4,0:0|0:3,0:0:0:0:
320,269,24896,2,0,L|332:184,1,85,4|4,0:3|0:3,0:0:0:0:
403,138,25185,1,8,0:0:0:0:
288,4,25329,6,0,P|216:-3|169:98,1,170,4|4,0:2|0:3,0:0:0:0:
76,163,25762,2,0,P|35:161|-3:129,1,85,8|4,0:0|0:3,0:0:0:0:
0,135,25978,1,0,0:0:0:0:
0,135,26050,1,8,0:3:0:0:
223,128,26194,2,0,P|247:160|247:210,1,85,4|8,0:3|0:0,0:0:0:0:
143,296,26483,1,8,0:3:0:0:
200,355,26627,6,0,L|318:371,1,85,10|0,0:2|0:0,0:0:0:0:
84,239,26915,2,0,L|-34:255,1,85,10|0,0:2|0:0,0:0:0:0:
184,112,27204,2,0,L|302:128,1,85,10|10,0:2|0:2,0:0:0:0:
337,170,27492,1,8,0:3:0:0:
497,152,27637,6,0,P|427:145|386:51,1,170,4|4,0:2|0:3,0:0:0:0:
261,201,28069,2,0,P|268:243|276:292,1,85,8|4,0:0|0:3,0:0:0:0:
435,319,28358,1,0,2:0:0:0:
341,372,28502,2,0,P|348:330|354:288,1,85,4|8,0:3|0:0,0:0:0:0:
180,223,28790,6,0,B|157:104|157:104|159:101|159:101|157:96|157:96|146:37,1,170,4|4,0:3|0:3,0:0:0:0:
247,0,29223,2,0,P|253:47|213:92,1,85,8|4,0:0|0:3,0:0:0:0:
97,186,29512,1,0,0:0:0:0:
0,93,29656,2,0,P|41:100|100:111,1,85,4|8,0:3|0:0,0:0:0:0:
252,194,29944,6,0,P|288:137|375:138,1,127.5,4|0,0:2|2:0,0:0:0:0:
351,121,30233,2,0,P|392:134|440:140,1,85,4|8,0:3|0:0,0:0:0:0:
397,318,30521,2,0,P|437:305|479:299,1,85,4|8,0:3|0:3,0:0:0:0:
489,215,30810,1,4,0:3:0:0:
489,215,30954,1,8,0:0:0:0:
327,264,31098,6,0,L|138:290,1,170,4|8,0:2|0:3,0:0:0:0:
85,338,31531,1,8,0:0:0:0:
19,208,31675,1,0,0:0:0:0:
19,208,31747,1,4,0:3:0:0:
19,208,31819,2,0,L|112:219,1,85,8|8,0:0|0:3,0:0:0:0:
158,287,32108,1,8,0:0:0:0:
257,89,32396,5,4,0:2:0:0:
257,89,32540,2,0,P|196:113|212:235,2,170,2|0|0,0:2|2:0|2:0,0:0:0:0:
188,0,33262,2,0,B|266:10|266:10|269:9|269:9|274:13|274:13|337:21,1,127.5,8|0,0:3|0:0,0:0:0:0:
320,29,33550,1,4,0:3:0:0:
435,151,33694,6,0,B|415:152|397:166|397:166|359:134|367:76|430:47,1,170,4|0,0:3|0:0,0:0:0:0:
411,36,34055,1,0,0:0:0:0:
411,36,34127,2,0,P|456:45|507:52,1,85,8|4,0:0|0:3,0:0:0:0:
504,231,34415,2,0,P|461:237|420:245,1,85,10|4,0:2|0:3,0:0:0:0:
172,365,34704,6,0,P|146:309|236:228,1,170,10|0,0:2|0:0,0:0:0:0:
313,327,35137,2,0,P|274:317|216:305,2,85,2|4|0,0:2|2:3|0:0,0:0:0:0:
22,214,35569,6,0,P|63:205|104:194,1,85,14|4,0:2|2:3,0:0:0:0:
104,194,35858,1,0,0:0:0:0:
350,155,36002,2,0,P|269:161|225:93,1,170,10|4,0:2|0:3,0:0:0:0:
113,36,36435,2,0,P|139:76|125:142,1,85,10|4,0:2|0:3,0:0:0:0:
14,296,36723,5,8,0:3:0:0:
61,96,37012,5,12,0:2:0:0:
211,233,37300,6,0,P|234:227|261:225,3,42.5,8|0|0|0,0:0|0:0|0:0|0:0,0:0:0:0:
307,169,37588,6,0,L|296:111,3,42.5,8|0|0|0,0:0|0:0|0:0|0:0,0:0:0:0:
381,181,37877,5,8,0:0:0:0:
386,188,37949,1,0,0:0:0:0:
390,195,38021,2,0,L|379:253,1,42.5,0|0,0:0|0:0,0:0:0:0:
386,374,38165,6,0,P|318:323|334:243,1,170,8|8,0:0|0:0,0:0:0:0:
464,160,38598,1,0,0:0:0:0:
483,164,38670,1,0,0:0:0:0:
502,168,38742,1,8,0:0:0:0:
376,11,38887,2,0,P|384:54|393:120,1,85,8|8,0:0|0:0,0:0:0:0:
398,293,39175,6,0,B|276:279|276:279|271:276|271:276|270:278|270:278|213:271,1,170,12|4,0:2|0:3,0:0:0:0:
58,91,39608,2,0,P|96:92|143:45,1,85,8|0,0:0|0:0,0:0:0:0:
118,303,39896,2,0,P|147:326|153:392,1,85,4|0,0:3|0:0,0:0:0:0:
250,149,40185,5,8,0:0:0:0:
21,221,40329,1,4,0:2:0:0:
21,221,40762,5,8,0:0:0:0:
21,221,40906,1,8,0:0:0:0:
250,149,41194,5,12,0:3:0:0:
250,149,41483,6,0,P|179:158|114:61,1,170,4|4,0:2|0:3,0:0:0:0:
72,276,41915,2,0,P|65:322|59:383,1,85,8|0,0:0|2:0,0:0:0:0:
0,200,42204,2,0,L|99:189,1,85,4|0,0:3|0:3,0:0:0:0:
152,240,42492,1,8,0:0:0:0:
210,43,42637,6,0,P|220:124|235:233,1,170,4|0,0:3|0:0,0:0:0:0:
287,363,43069,2,0,P|293:316|304:261,1,85,8|0,0:0|0:0,0:0:0:0:
512,227,43358,2,0,P|459:218|391:325,1,170,4|8,0:3|0:0,0:0:0:0:
305,143,43790,6,0,P|348:150|408:160,1,85,4|0,0:3|2:0,0:0:0:0:
476,305,44079,1,4,0:3:0:0:
474,134,44223,2,0,P|482:86|491:39,1,85,10|0,0:2|2:0,0:0:0:0:
364,238,44512,6,0,P|372:285|381:333,1,85,2|0,0:2|0:0,0:0:0:0:
229,371,44800,1,10,0:2:0:0:
295,313,44944,2,0,P|247:259|139:286,1,170,0|0,0:0|0:0,0:0:0:0:
3,226,45377,1,10,0:2:0:0:
86,342,45521,1,0,0:0:0:0:
146,166,45665,5,12,0:3:0:0:
143,144,45738,1,8,0:3:0:0:
140,123,45810,1,4,0:3:0:0:
138,102,45882,1,4,0:3:0:0:
135,81,45954,1,8,0:0:0:0:
193,5,46098,6,0,P|240:-3|309:77,1,127.5,12|0,0:3|2:0,0:0:0:0:
305,52,46387,2,0,P|348:43|406:25,1,85,4|12,0:3|0:2,0:0:0:0:
265,131,46675,2,0,L|256:220,1,85,0|4,0:0|0:3,0:0:0:0:
387,300,46963,1,0,0:0:0:0:
279,378,47108,1,8,0:0:0:0:
355,220,47252,6,0,P|416:222|466:322,1,170,4|4,0:3|0:3,0:0:0:0:
301,291,47685,2,0,P|258:299|206:310,1,85,8|0,0:0|0:0,0:0:0:0:
117,156,47973,1,8,0:3:0:0:
71,234,48117,2,0,P|114:242|166:253,1,85,4|8,0:3|0:0,0:0:0:0:
323,103,48406,6,0,P|256:131|237:228,1,170,6|4,0:2|2:3,0:0:0:0:
234,219,48838,1,8,0:0:0:0:
195,384,48983,6,0,P|204:311|129:247,1,170,6|4,0:2|2:3,0:0:0:0:
139,248,49415,1,8,0:0:0:0:
16,133,49560,6,0,P|73:177|167:144,1,170,14|4,0:2|0:3,0:0:0:0:
240,30,49992,1,8,0:0:0:0:
222,203,50137,1,8,0:3:0:0:
324,73,50281,5,8,0:0:0:0:
324,73,50425,1,8,0:3:0:0:
336,172,50569,1,4,0:3:0:0:
482,51,50713,6,0,P|431:82|444:199,1,170,4|4,0:2|0:3,0:0:0:0:
495,377,51146,2,0,P|518:338|508:282,1,85,8|0,0:0|2:0,0:0:0:0:
375,243,51435,2,0,P|334:250|273:264,1,85,4|4,0:3|0:3,0:0:0:0:
223,309,51723,1,8,0:0:0:0:
85,158,51867,6,0,P|178:175|268:190,1,170,4|0,0:3|0:0,0:0:0:0:
361,301,52300,2,0,P|349:343|338:391,1,85,8|0,0:0|0:0,0:0:0:0:
332,161,52588,2,0,P|344:106|245:32,1,170,0|8,0:0|0:0,0:0:0:0:
411,48,53021,6,0,P|458:36|506:20,1,85,4|0,0:3|2:0,0:0:0:0:
258,113,53310,1,4,0:3:0:0:
415,165,53454,2,0,P|424:205|435:269,1,85,10|0,0:2|2:0,0:0:0:0:
274,342,53742,6,0,P|281:300|290:258,1,85,2|0,0:2|0:0,0:0:0:0:
132,199,54031,1,10,0:2:0:0:
76,258,54175,2,0,P|16:207|41:109,1,170,0|0,0:0|0:0,0:0:0:0:
179,10,54608,1,10,0:2:0:0:
211,231,54752,1,0,0:0:0:0:
104,87,54896,5,12,0:3:0:0:
126,90,54969,1,8,0:3:0:0:
147,93,55041,1,4,0:3:0:0:
168,95,55113,1,4,0:3:0:0:
189,98,55185,1,8,0:0:0:0:
255,154,55329,6,0,B|371:137|371:137|374:133|374:133|382:134|382:134|437:126,1,170,12|4,0:3|0:3,0:0:0:0:
500,175,55762,1,12,0:2:0:0:
450,305,55906,2,0,P|440:263|426:223,1,85,0|4,0:0|0:3,0:0:0:0:
512,0,56194,2,0,P|498:40|488:81,1,85,0|8,0:0|0:0,0:0:0:0:
343,209,56483,6,0,P|291:227|209:134,1,170,4|0,0:3|0:0,0:0:0:0:
123,24,56915,2,0,P|128:65|133:115,1,85,8|0,0:0|2:0,0:0:0:0:
307,56,57204,2,0,P|302:97|297:147,1,85,8|4,0:3|0:3,0:0:0:0:
93,191,57492,1,8,0:0:0:0:
273,313,57637,6,0,P|202:298|95:278,1,170,4|4,0:2|0:3,0:0:0:0:
30,49,58069,6,0,P|90:65|103:112,1,85,10|0,0:2|0:0,0:0:0:0:
179,211,58358,2,0,P|162:151|197:116,1,85,2|0,0:2|0:0,0:0:0:0:
244,0,58646,2,0,P|200:43|152:31,1,85,10|0,0:2|0:0,0:0:0:0:
347,185,58935,5,2,0:2:0:0:
247,164,59079,1,4,0:3:0:0:
407,43,59223,5,10,0:2:0:0:
307,64,59367,1,4,0:3:0:0:
454,141,59512,6,0,P|459:165|463:205,4,42.5,10|0|8|2|10,0:0|2:0|0:3|0:2|0:0,0:0:0:0:
512,282,59944,6,0,B|481:276|449:262|449:262|434:312|395:384,1,170,6|2,0:0|0:2,0:0:0:0:
295,228,60377,2,0,L|398:207,1,85,10|0,0:0|2:0,0:0:0:0:
148,377,60665,5,4,0:3:0:0:
148,377,60810,2,0,P|157:335|171:285,1,85,2|8,0:0|0:0,0:0:0:0:
115,120,61098,6,0,B|140:165|155:215|155:215|187:201|218:195,1,170,2|2,0:0|0:2,0:0:0:0:
247,68,61531,2,0,L|144:47,1,85,10|0,0:0|2:0,0:0:0:0:
261,296,61819,6,0,P|297:223|378:211,1,170,4|10,0:3|0:0,0:0:0:0:
93,266,62252,6,0,L|-23:246,1,85,2|0,0:0|2:0,0:0:0:0:
120,101,62540,2,0,L|4:121,1,85,2|8,0:0|0:0,0:0:0:0:
87,189,62829,1,2,0:0:0:0:
87,189,62973,1,0,0:0:0:0:
190,9,63117,6,0,P|196:49|203:100,1,85,2|8,0:0|0:0,0:0:0:0:
349,126,63406,2,0,P|354:83|361:41,1,85,2|0,0:0|2:0,0:0:0:0:
269,148,63694,2,0,P|305:203|410:179,1,170,2|0,0:0|0:2,0:0:0:0:
187,233,64127,5,10,0:0:0:0:
222,300,64271,1,4,0:3:0:0:
166,351,64415,1,10,0:0:0:0:
0,184,64560,6,0,P|86:170|200:155,1,170,6|2,0:0|0:2,0:0:0:0:
291,102,64992,2,0,P|250:93|202:82,1,85,10|0,0:0|2:0,0:0:0:0:
298,272,65281,5,4,0:3:0:0:
298,272,65425,2,0,P|335:297|392:288,1,85,2|8,0:0|0:0,0:0:0:0:
512,191,65713,6,0,B|460:201|413:221|413:221|403:188|387:160,1,170,2|2,0:0|0:2,0:0:0:0:
379,0,66146,2,0,L|367:94,1,85,10|0,0:0|2:0,0:0:0:0:
270,345,66435,6,0,P|258:266|241:161,1,170,4|10,0:3|0:0,0:0:0:0:
45,21,66867,6,0,B|29:70|5:109|5:109|32:135|66:190,1,170,2|2,0:0|0:0,0:0:0:0:
120,273,67300,2,0,L|130:188,1,85,10|0,0:0|2:0,0:0:0:0:
320,155,67588,6,0,P|290:112|169:138,1,170,4|10,0:3|0:0,0:0:0:0:
415,20,68021,6,0,P|455:29|507:39,1,85,2|0,0:0|2:0,0:0:0:0:
396,210,68310,2,0,P|436:201|488:191,1,85,2|8,0:0|0:0,0:0:0:0:
459,115,68598,1,2,0:0:0:0:
459,115,68742,1,4,0:3:0:0:
321,104,68887,6,0,L|223:96,1,85,2|8,0:0|0:0,0:0:0:0:
88,254,69175,2,0,P|113:204|235:196,1,170,2|0,0:0|0:0,0:0:0:0:
431,276,69608,6,0,B|309:292|309:292|304:291|304:291|301:294|301:294|255:300,1,170,8|4,0:0|0:3,0:0:0:0:
82,333,70040,1,8,0:3:0:0:
238,384,70185,1,4,0:3:0:0:
176,260,70329,6,0,L|163:362,1,85,10|0,0:0|2:0,0:0:0:0:
333,194,70617,2,0,L|346:296,1,85,10|0,0:0|2:0,0:0:0:0:
127,178,70906,2,0,L|77:273,1,85,10|0,0:0|2:0,0:0:0:0:
383,113,71194,2,0,L|433:208,1,85,10|0,0:0|2:0,0:0:0:0:
227,8,71483,6,0,L|242:206,1,170,6|0,0:0|2:0,0:0:0:0:
239,177,71915,1,2,0:2:0:0:
93,48,72204,6,0,L|79:107,3,42.5,0|0|0|0,0:0|0:0|0:0|0:0,0:0:0:0:
12,105,72492,2,0,L|26:164,3,42.5,0|0|0|0,0:0|0:0|0:0|0:0,0:0:0:0:
85,191,72781,6,0,P|108:271|38:326,1,170,4|8,0:3|0:3,0:0:0:0:
28,248,73213,1,4,0:3:0:0:
148,359,73358,2,0,L|205:344,2,42.5,8|0|4,0:3|2:0|0:3,0:0:0:0:
261,384,73646,1,8,0:3:0:0:
213,236,73790,6,0,P|241:291|352:285,1,170,4|0,0:2|0:0,0:0:0:0:
427,343,74223,2,0,P|422:294|419:233,1,85,8|0,0:0|2:0,0:0:0:0:
492,78,74512,5,0,0:0:0:0:
353,212,74656,1,0,0:0:0:0:
353,212,74800,1,8,0:0:0:0:
512,162,74944,6,0,P|431:146|322:127,1,170,4|0,0:2|0:0,0:0:0:0:
344,130,75377,1,8,0:0:0:0:
143,224,75521,6,0,P|206:248|281:159,1,170,4|0,0:2|0:0,0:0:0:0:
278,188,75954,1,8,0:0:0:0:
328,58,76098,6,0,P|270:1|192:22,1,170,4|0,0:2|0:0,0:0:0:0:
42,19,76531,2,0,P|49:60|58:128,1,85,8|0,0:0|2:0,0:0:0:0:
142,297,76819,1,0,0:0:0:0:
220,264,76963,2,0,P|225:221|233:180,1,85,0|8,0:0|0:0,0:0:0:0:
129,76,77252,6,0,P|99:135|159:216,1,170,6|2,0:2|0:2,0:0:0:0:
152,213,77685,1,8,0:0:0:0:
237,345,77829,6,0,B|334:330|334:330|336:328|336:328|339:332|339:332|373:327,1,127.5,6|0,0:2|2:0,0:0:0:0:
367,322,78117,2,0,L|470:340,1,85,10|8,0:2|0:0,0:0:0:0:
510,131,78406,6,0,L|426:116,1,85,8|0,0:2|0:0,0:0:0:0:
359,166,78694,1,0,0:0:0:0:
182,134,78838,2,0,P|166:89|172:36,1,85,8|0,0:0|2:0,0:0:0:0:
337,1,79127,2,0,P|352:45|347:99,1,85,0|0,0:0|0:0,0:0:0:0:
276,159,79415,1,0,0:0:0:0:
367,322,79560,6,0,P|425:291|403:166,1,170,4|0,0:2|0:0,0:0:0:0:
431,194,79992,1,8,0:0:0:0:
273,80,80137,6,0,P|215:111|237:236,1,170,4|0,0:2|0:0,0:0:0:0:
209,208,80569,1,8,0:0:0:0:
364,147,80713,6,0,L|349:40,1,85,4|0,0:2|2:0,0:0:0:0:
431,194,81002,1,0,0:0:0:0:
431,194,81146,1,8,0:0:0:0:
298,255,81290,6,0,L|283:362,1,85,4|0,0:2|2:0,0:0:0:0:
169,214,81579,2,0,L|154:107,1,85,0|8,0:0|0:0,0:0:0:0:
237,0,81867,6,0,B|256:5|278:1|278:1|301:40|282:94|222:109,1,170,4|0,0:2|0:0,0:0:0:0:
86,224,82300,2,0,P|44:211|-21:205,1,85,8|8,0:0|0:0,0:0:0:0:
110,42,82588,2,0,P|67:54|3:61,1,85,8|4,0:3|0:3,0:0:0:0:
72,135,82877,1,8,0:0:0:0:
206,267,83021,6,0,B|324:251|324:251|326:248|326:248|328:251|328:251|392:243,1,170,4|8,0:2|0:0,0:0:0:0:
371,245,83454,1,8,0:0:0:0:
500,178,83598,6,0,B|382:162|382:162|380:159|380:159|378:162|378:162|314:154,1,170,4|8,0:2|0:0,0:0:0:0:
335,156,84031,1,8,0:0:0:0:
194,94,84175,6,0,B|312:78|312:78|314:75|314:75|316:78|316:78|380:70,1,170,4|0,0:2|0:0,0:0:0:0:
359,72,84608,6,0,P|365:31|327:-7,1,85,8|0,0:0|0:0,0:0:0:0:
376,154,84896,2,0,P|409:179|461:165,1,85,8|0,0:0|0:0,0:0:0:0:
297,128,85185,1,8,0:0:0:0:
159,224,85329,6,0,P|111:240|23:149,1,170,10|4,0:0|0:3,0:0:0:0:
225,156,85762,2,0,P|230:192|243:260,1,85,10|0,0:0|2:0,0:0:0:0:
122,74,86050,1,4,0:3:0:0:
122,74,86194,2,0,P|116:110|104:178,1,85,10|0,0:0|2:0,0:0:0:0:
245,27,86483,5,6,0:2:0:0:
256,192,86555,12,0,89079,2:0:0:0:
