osu file format v14

[General]
AudioFilename: Stike The Blood.mp3
AudioLeadIn: 1500
PreviewTime: 41194
Countdown: 0
SampleSet: Normal
StackLeniency: 0.5
Mode: 0
LetterboxInBreaks: 0
WidescreenStoryboard: 1

[Editor]
DistanceSpacing: 1.4
BeatDivisor: 4
GridSize: 8
TimelineZoom: 1

[Metadata]
Title:Strike The Blood (TV Size)
TitleUnicode:ストライク・ザ・ブラッド (TV Size)
Artist:KISIDA KYODAN & THE AKEBOSI ROCKETS
ArtistUnicode:岸田教団&THE明星ロケッツ
Creator:Dailycare
Version:Hard
Source:ストライク・ザ・ブラッド
Tags:ストブラ ichigo Kishida kyoudan and Akeboshi Morinaga Japanese Anime OP Down Heto
BeatmapID:884122
BeatmapSetID:406897

[Difficulty]
HPDrainRate:4.4
CircleSize:3.5
OverallDifficulty:6.8
ApproachRate:8
SliderMultiplier:1.46
SliderTickRate:1

[Events]
//Background and Video events
0,0,"www.jpg",0,0
//Break Periods
//Storyboard Layer 0 (Background)
//Storyboard Layer 1 (Fail)
//Storyboard Layer 2 (Pass)
//Storyboard Layer 3 (Foreground)
//Storyboard Layer 4 (Overlay)
//Storyboard Sound Samples

[TimingPoints]
89,288.461538461538,4,1,1,45,1,0
4560,-100,4,1,1,60,0,0
13790,-116.279069767442,4,1,1,45,0,0
23021,-100,4,1,1,60,0,0
32396,-100,4,1,1,45,0,0
34704,-100,4,1,1,60,0,0
34992,-100,4,1,1,45,0,0
35137,-100,4,1,1,60,0,0
35425,-100,4,1,1,45,0,0
35569,-100,4,1,1,60,0,0
35858,-100,4,1,1,45,0,0
36002,-100,4,1,1,60,0,0
36290,-100,4,1,1,45,0,0
36435,-100,4,1,1,60,0,0
36723,-100,4,1,1,45,0,0
37012,-100,4,1,1,60,0,0
37300,-100,4,1,1,32,0,0
38165,-100,4,1,1,44,0,0
38742,-100,4,1,1,52,0,0
39175,-100,4,1,1,60,0,0
41483,-100,4,1,1,63,0,1
50425,-100,4,1,1,63,0,0
50713,-100,4,1,1,63,0,1
57853,-100,4,1,1,5,0,1
57925,-100,4,1,1,63,0,1
59512,-100,4,1,1,63,0,0
59800,-100,4,1,1,72,0,0
59944,-100,4,1,1,72,0,1
67084,-100,4,1,1,5,0,1
67156,-100,4,1,1,72,0,1
70329,-100,4,1,1,63,0,0
72204,-100,4,1,1,44,0,0
72925,-100,4,1,1,32,0,0
73213,-100,4,1,1,44,0,0
73358,-100,4,1,1,52,0,0
73790,-100,4,1,1,60,0,0
88358,-100,4,1,1,30,0,0
88935,-100,4,1,1,12,0,0

[Colours]
Combo1 : 120,197,187
Combo2 : 72,182,234
Combo3 : 88,115,184

[HitObjects]
260,212,89,5,6,0:2:0:0:
260,212,377,6,0,P|270:245|273:293,2,73,8|0|0,0:0|0:0|0:0,0:0:0:0:
312,138,810,2,0,P|347:138|393:150,2,73,8|0|0,0:0|0:0|0:0,0:0:0:0:
257,65,1242,2,0,P|267:31|294:-8,2,73,8|0|0,0:0|0:0|0:0,0:0:0:0:
171,94,1675,2,0,P|142:73|112:36,1,73,8|0,0:0|0:0,0:0:0:0:
173,185,1963,2,0,P|144:205|99:222,1,73,8|2,0:0|0:3,0:0:0:0:
236,138,2252,5,6,0:2:0:0:
236,138,3983,5,0,0:0:0:0:
236,138,4055,1,0,2:0:0:0:
236,138,4127,2,0,L|245:227,1,73,8|4,0:3|0:3,0:0:0:0:
243,210,4560,6,0,P|196:173|90:198,1,146,4|0,0:2|0:0,0:0:0:0:
26,161,4992,2,0,P|27:200|52:247,1,73,8|0,0:0|2:0,0:0:0:0:
12,314,5281,2,0,P|47:318|84:324,1,73,0|0,0:0|0:0,0:0:0:0:
161,368,5569,1,8,0:0:0:0:
206,293,5713,6,0,P|198:207|192:131,1,146,4|0,0:2|0:0,0:0:0:0:
250,80,6146,1,8,0:0:0:0:
332,110,6290,2,0,P|339:195|346:272,1,146,4|8,0:2|0:0,0:0:0:0:
417,312,6723,1,8,0:0:0:0:
417,312,6867,6,0,P|489:279|501:202,1,146,4|0,0:2|0:0,0:0:0:0:
456,147,7300,2,0,P|460:110|470:58,1,73,8|0,0:0|0:0,0:0:0:0:
381,92,7588,1,0,0:0:0:0:
306,44,7733,1,0,0:0:0:0:
231,88,7877,1,8,0:0:0:0:
183,12,8021,6,0,P|145:54|163:151,1,146,4|0,0:2|0:0,0:0:0:0:
230,180,8454,1,8,0:0:0:0:
155,226,8598,2,0,P|101:238|0:265,1,146,4|0,0:2|0:0,0:0:0:0:
21,177,9031,1,8,0:0:0:0:
21,177,9175,6,0,P|2:123|79:48,1,146,4|0,0:2|0:0,0:0:0:0:
126,12,9608,2,0,P|130:47|139:87,1,73,8|0,0:0|2:0,0:0:0:0:
199,147,9896,1,0,0:0:0:0:
225,63,10040,2,0,P|267:54|318:40,1,73,0|8,0:0|0:0,0:0:0:0:
380,11,10329,6,0,P|374:65|366:183,1,146,4|0,0:2|0:0,0:0:0:0:
283,130,10762,1,8,0:0:0:0:
201,99,10906,2,0,P|193:171|188:244,1,146,4|8,0:2|0:0,0:0:0:0:
143,321,11338,1,8,0:0:0:0:
143,321,11483,6,0,P|199:272|284:301,1,146,4|8,0:2|0:0,0:0:0:0:
333,337,11915,2,0,L|421:351,1,73,0|8,2:0|0:0,0:0:0:0:
492,384,12204,1,0,2:0:0:0:
492,384,12348,2,0,P|486:344|482:299,1,73,8|0,0:0|2:0,0:0:0:0:
409,263,12637,6,0,P|420:186|430:100,1,146,8|8,0:0|0:0,0:0:0:0:
504,74,13069,1,8,0:0:0:0:
504,74,13213,1,0,0:0:0:0:
427,30,13358,2,0,P|394:35|336:43,1,73,10|0,0:0|0:0,0:0:0:0:
354,40,13790,6,0,P|306:86|241:79,1,125.560001915894,4|0,0:2|2:0,0:0:0:0:
190,27,14223,2,0,L|102:41,1,62.7800009579468,2|0,0:3|2:0,0:0:0:0:
48,12,14512,2,0,P|89:52|76:137,1,125.560001915894,8|2,0:0|0:3,0:0:0:0:
23,173,14944,6,0,P|65:202|153:170,1,125.560001915894,0|2,0:0|0:3,0:0:0:0:
214,157,15377,2,0,P|215:177|219:225,1,62.7800009579468,0|0,2:0|0:0,0:0:0:0:
151,273,15665,2,0,P|150:293|146:341,2,62.7800009579468,8|0|4,0:0|2:0|0:3,0:0:0:0:
219,377,16098,6,0,P|248:335|342:335,1,125.560001915894,4|0,0:2|2:0,0:0:0:0:
366,255,16531,2,0,P|401:264|442:274,1,62.7800009579468,2|0,0:3|2:0,0:0:0:0:
493,322,16819,2,0,P|484:270|473:175,1,125.560001915894,8|2,0:0|0:3,0:0:0:0:
413,139,17252,6,0,L|427:62,1,62.7800009579468,8|0,0:0|2:0,0:0:0:0:
477,11,17540,2,0,P|420:20|330:35,1,125.560001915894,2|0,0:3|0:0,0:0:0:0:
272,17,17973,1,8,0:0:0:0:
272,17,18117,2,0,P|278:46|287:96,1,62.7800009579468,8|8,0:3|0:3,0:0:0:0:
361,118,18406,6,0,P|310:122|256:192,1,125.560001915894,4|0,0:2|2:0,0:0:0:0:
183,136,18838,2,0,P|177:166|170:197,1,62.7800009579468,2|0,0:3|2:0,0:0:0:0:
219,268,19127,2,0,P|160:257|68:242,1,125.560001915894,8|2,0:0|0:3,0:0:0:0:
13,217,19560,6,0,P|52:254|48:350,1,125.560001915894,2|2,0:3|0:3,0:0:0:0:
135,365,19992,2,0,P|169:355|199:351,1,62.7800009579468,0|2,2:0|0:3,0:0:0:0:
219,268,20281,2,0,P|273:306|341:290,1,125.560001915894,12|4,0:2|0:3,0:0:0:0:
292,220,20713,6,0,P|297:169|306:81,1,125.560001915894,0|0,0:0|2:0,0:0:0:0:
290,12,21146,1,8,0:3:0:0:
377,48,21290,1,0,0:0:0:0:
377,48,21363,1,4,0:3:0:0:
377,48,21435,2,0,P|412:42|460:33,1,62.7800009579468,8|4,0:0|2:3,0:0:0:0:
512,83,21723,1,4,0:3:0:0:
438,122,21867,1,2,0:3:0:0:
438,122,23021,6,0,P|370:111|282:99,1,146,4|4,0:2|0:3,0:0:0:0:
220,150,23454,2,0,P|246:185|232:238,1,73,8|4,0:0|0:3,0:0:0:0:
240,225,23670,1,0,0:0:0:0:
231,234,23742,2,0,P|191:241|137:253,1,73,8|4,0:3|0:3,0:0:0:0:
100,310,24031,1,8,0:0:0:0:
76,227,24175,6,0,P|83:187|90:139,1,73,8|0,0:3|2:0,0:0:0:0:
78,72,24463,1,4,0:3:0:0:
78,72,24608,2,0,P|118:79|172:91,1,73,8|4,0:0|0:3,0:0:0:0:
206,20,24896,2,0,P|232:51|226:112,1,73,4|4,0:3|0:3,0:0:0:0:
304,139,25185,1,8,0:0:0:0:
387,115,25329,6,0,P|452:119|497:203,1,146,4|4,0:2|0:3,0:0:0:0:
503,269,25762,2,0,P|471:275|426:318,1,73,8|4,0:0|0:3,0:0:0:0:
432,309,25978,1,0,0:0:0:0:
427,322,26050,2,0,P|414:276|396:228,1,73,8|4,0:3|0:3,0:0:0:0:
328,211,26338,2,0,P|293:222|246:232,1,73,8|8,0:0|0:3,0:0:0:0:
183,185,26627,6,0,P|167:215|186:275,1,73,10|0,0:2|0:0,0:0:0:0:
249,384,26915,2,0,P|252:348|236:316,1,73,10|0,0:2|0:0,0:0:0:0:
155,342,27204,1,10,0:2:0:0:
155,342,27348,2,0,L|60:354,1,73,10|8,0:2|0:3,0:0:0:0:
4,312,27637,6,0,P|-9:266|73:183,1,146,4|4,0:2|0:3,0:0:0:0:
37,103,28069,2,0,P|104:119|204:140,1,146,8|0,0:0|2:0,0:0:0:0:
253,183,28502,2,0,P|262:145|278:94,1,73,4|8,0:3|0:0,0:0:0:0:
210,51,28790,6,0,P|253:26|345:63,1,146,4|4,0:3|0:3,0:0:0:0:
355,141,29223,2,0,L|442:125,1,73,8|4,0:0|0:3,0:0:0:0:
512,150,29512,2,0,P|504:114|498:78,2,73,0|4|8,0:0|0:3|0:0,0:0:0:0:
451,217,29944,6,0,P|446:297|373:342,1,146,4|4,0:2|0:3,0:0:0:0:
313,324,30377,1,8,0:0:0:0:
364,249,30521,2,0,P|328:240|270:230,1,73,4|8,0:3|0:3,0:0:0:0:
211,266,30810,2,0,P|205:223|200:186,1,73,4|8,0:3|0:0,0:0:0:0:
276,146,31098,6,0,P|245:115|142:125,1,146,4|8,0:2|0:3,0:0:0:0:
66,99,31531,1,8,0:0:0:0:
123,35,31675,2,0,L|112:-24,2,36.5,0|4|8,0:0|0:3|0:0,0:0:0:0:
92,182,31963,1,8,0:3:0:0:
92,182,32108,2,0,P|85:221|72:273,1,73,8|0,0:0|2:0,0:0:0:0:
0,291,32396,5,4,0:2:0:0:
0,291,32540,2,0,P|46:340|120:332,2,146,2|0|0,0:2|2:0|2:0,0:0:0:0:
165,259,33262,2,0,P|208:249|253:241,1,73,8|0,0:3|0:0,0:0:0:0:
358,273,33550,5,4,0:3:0:0:
287,320,33694,2,0,P|271:281|346:187,1,146,4|0,0:3|0:0,0:0:0:0:
402,196,34127,2,0,P|394:159|385:106,1,73,8|4,0:0|0:3,0:0:0:0:
307,109,34416,1,10,0:2:0:0:
307,109,34560,1,4,0:3:0:0:
316,197,34704,6,0,P|256:212|189:154,1,146,10|0,0:2|0:0,0:0:0:0:
104,166,35137,2,0,P|121:106|204:77,1,146,2|0,0:2|0:0,0:0:0:0:
238,0,35569,2,0,P|280:44|264:131,1,146,14|0,0:2|0:0,0:0:0:0:
192,164,36002,6,0,B|181:200|167:232|167:232|194:258|226:289,1,146,10|4,0:2|0:3,0:0:0:0:
304,269,36435,2,0,P|304:307|274:346,1,73,10|4,0:2|0:3,0:0:0:0:
211,374,36723,2,0,P|139:362|67:353,1,146,8|12,0:3|0:2,0:0:0:0:
67,353,37300,6,0,P|59:312|58:257,1,73,8|0,0:0|0:0,0:0:0:0:
3,212,37588,2,0,P|23:175|57:132,1,73,8|0,0:0|0:0,0:0:0:0:
44,62,37877,2,0,P|82:47|136:36,1,73,8|0,0:0|0:0,0:0:0:0:
196,9,38165,6,0,P|216:47|252:69,1,73,8|0,0:0|0:0,0:0:0:0:
246,153,38454,2,0,P|285:169|327:162,1,73,8|0,0:0|0:0,0:0:0:0:
376,231,38742,2,0,P|416:217|444:186,2,73,8|8|8,0:0|0:0|0:0,0:0:0:0:
291,254,39175,6,0,P|343:272|393:351,1,146,12|4,0:2|0:3,0:0:0:0:
473,377,39608,2,0,P|480:331|489:292,1,73,8|0,0:0|0:0,0:0:0:0:
430,235,39896,2,0,L|419:141,2,73,4|0|8,0:3|0:0|0:0,0:0:0:0:
488,113,40329,1,4,0:2:0:0:
412,79,40762,5,8,0:0:0:0:
412,79,40906,2,0,L|330:92,2,73,8|0|12,0:0|2:0|0:3,0:0:0:0:
412,79,41483,6,0,P|347:70|298:3,1,146,4|4,0:2|0:3,0:0:0:0:
223,52,41915,2,0,P|218:88|210:133,1,73,8|0,0:0|2:0,0:0:0:0:
137,170,42204,2,0,P|202:179|251:246,1,146,4|8,0:3|0:0,0:0:0:0:
337,225,42637,6,0,P|330:260|325:297,1,73,4|0,0:3|2:0,0:0:0:0:
243,326,42925,1,0,0:0:0:0:
243,326,43069,2,0,P|207:330|171:336,1,73,8|0,0:0|0:0,0:0:0:0:
91,374,43358,2,0,P|75:303|51:204,1,146,4|8,0:3|0:0,0:0:0:0:
16,154,43790,6,0,P|68:191|151:177,1,146,4|4,0:3|0:3,0:0:0:0:
214,123,44223,6,0,P|225:88|242:56,1,73,10|0,0:2|2:0,0:0:0:0:
228,212,44512,2,0,P|252:239|271:270,1,73,2|0,0:2|2:0,0:0:0:0:
145,180,44800,2,0,P|109:187|72:188,1,73,10|0,0:2|0:0,0:0:0:0:
6,134,45088,6,0,P|19:192|35:294,2,146,2|10|12,0:2|0:2|0:3,0:0:0:0:
16,114,45738,1,8,0:3:0:0:
10,92,45810,2,0,P|49:88|92:79,1,73,4|8,0:3|0:0,0:0:0:0:
147,22,46098,6,0,P|218:35|290:49,1,146,12|4,0:3|0:3,0:0:0:0:
458,73,46531,1,12,0:2:0:0:
396,12,46675,2,0,P|377:42|372:78,1,73,0|4,0:0|0:3,0:0:0:0:
306,136,46963,2,0,P|313:167|321:210,1,73,0|8,0:0|0:0,0:0:0:0:
367,284,47252,6,0,P|307:297|212:321,1,146,4|4,0:3|0:3,0:0:0:0:
140,338,47685,2,0,P|147:299|155:251,1,73,8|0,0:0|0:0,0:0:0:0:
230,227,47973,1,8,0:3:0:0:
158,180,48117,2,0,L|78:193,1,73,4|8,0:3|0:0,0:0:0:0:
9,235,48406,6,0,P|-4:190|74:106,1,146,6|4,0:2|2:3,0:0:0:0:
97,39,48838,1,8,0:0:0:0:
97,39,48983,2,0,P|139:18|235:80,1,146,6|4,0:2|2:3,0:0:0:0:
305,90,49415,1,8,0:0:0:0:
305,90,49560,6,0,P|332:127|288:233,1,146,14|4,0:2|0:3,0:0:0:0:
256,286,49992,2,0,L|162:301,1,73,8|8,0:0|0:3,0:0:0:0:
340,299,50281,1,8,0:0:0:0:
286,366,50425,2,0,P|336:376|382:387,1,73,8|4,0:3|0:3,0:0:0:0:
421,321,50713,6,0,P|430:266|453:146,1,146,4|4,0:2|0:3,0:0:0:0:
422,94,51146,2,0,P|385:109|324:101,1,73,8|0,0:0|2:0,0:0:0:0:
275,68,51435,2,0,P|263:140|249:211,1,146,4|8,0:3|0:0,0:0:0:0:
170,247,51867,6,0,P|133:232|72:240,1,73,4|0,0:3|2:0,0:0:0:0:
32,183,52156,1,0,0:0:0:0:
32,183,52300,2,0,P|24:140|14:97,1,73,8|0,0:0|0:0,0:0:0:0:
65,38,52588,2,0,P|102:77|202:71,1,146,0|8,0:0|0:0,0:0:0:0:
265,32,53021,6,0,P|273:104|283:176,1,146,4|4,0:3|0:3,0:0:0:0:
357,225,53454,6,0,P|391:238|424:252,1,73,10|0,0:2|2:0,0:0:0:0:
279,265,53742,2,0,P|250:287|221:309,1,73,2|0,0:2|2:0,0:0:0:0:
283,176,54031,2,0,P|277:139|273:103,1,73,10|0,0:2|0:0,0:0:0:0:
355,73,54319,6,0,P|315:26|231:27,2,146,2|10|12,0:2|0:2|0:3,0:0:0:0:
379,76,54968,1,8,0:3:0:0:
399,87,55040,2,0,P|418:128|434:177,1,73,4|8,0:3|0:0,0:0:0:0:
480,225,55329,6,0,P|387:244|331:259,1,146,12|4,0:3|0:3,0:0:0:0:
161,287,55762,1,12,0:2:0:0:
244,312,55906,2,0,P|251:261|259:217,1,73,0|4,0:0|0:3,0:0:0:0:
317,174,56194,2,0,P|277:158|244:131,1,73,0|8,0:0|0:0,0:0:0:0:
182,191,56483,6,0,P|193:114|202:42,1,146,4|0,0:3|0:0,0:0:0:0:
121,13,56915,2,0,P|84:21|37:34,1,73,8|0,0:0|2:0,0:0:0:0:
10,109,57204,2,0,P|61:132|89:241,1,146,8|8,0:3|0:0,0:0:0:0:
40,279,57637,6,0,P|121:262|197:249,1,146,4|4,0:2|0:3,0:0:0:0:
267,223,58069,2,0,P|262:259|258:295,1,73,10|0,0:2|0:0,0:0:0:0:
185,336,58358,1,2,0:2:0:0:
185,336,58502,1,0,0:0:0:0:
183,251,58646,2,0,P|179:206|173:151,1,73,10|0,0:2|0:0,0:0:0:0:
217,100,58935,6,0,P|158:147|73:129,2,146,2|10|10,0:2|0:2|0:0,0:0:0:0:
288,47,59656,2,0,L|282:4,2,36.5,8|2|10,0:3|0:2|0:0,0:0:0:0:
298,135,59944,6,0,P|338:141|396:231,1,146,6|2,0:0|0:2,0:0:0:0:
484,212,60377,2,0,P|476:241|467:292,1,73,10|0,0:0|2:0,0:0:0:0:
386,313,60665,1,4,0:3:0:0:
386,313,60810,2,0,P|345:322|288:337,1,73,2|8,0:0|0:0,0:0:0:0:
239,372,61098,6,0,P|199:366|141:276,1,146,2|2,0:0|0:2,0:0:0:0:
53,295,61531,2,0,P|60:265|70:215,1,73,10|0,0:0|2:0,0:0:0:0:
152,196,61819,2,0,P|140:118|129:36,1,146,4|10,0:3|0:0,0:0:0:0:
215,37,62252,6,0,P|279:29|333:109,1,146,2|2,0:0|0:0,0:0:0:0:
321,171,62685,1,8,0:0:0:0:
402,138,62829,2,0,L|493:125,1,73,2|0,0:0|2:0,0:0:0:0:
463,215,63117,2,0,L|390:225,1,73,2|8,0:0|0:0,0:0:0:0:
310,259,63406,6,0,P|246:244|157:227,1,146,2|2,0:0|0:0,0:0:0:0:
82,204,63838,2,0,P|87:236|95:285,1,73,8|0,0:0|0:0,0:0:0:0:
171,315,64127,1,10,0:0:0:0:
99,363,64271,1,4,0:3:0:0:
21,321,64415,1,10,0:0:0:0:
20,232,64560,6,0,P|55:183|31:81,1,146,6|2,0:0|0:2,0:0:0:0:
38,13,64992,2,0,P|82:22|134:29,1,73,10|0,0:0|2:0,0:0:0:0:
181,87,65281,1,4,0:3:0:0:
181,87,65425,2,0,P|192:50|211:0,1,73,2|8,0:0|0:0,0:0:0:0:
290,0,65714,6,0,P|314:54|415:85,1,146,2|2,0:0|0:2,0:0:0:0:
470,125,66146,2,0,P|440:158|408:200,1,73,10|0,0:0|2:0,0:0:0:0:
334,211,66435,1,4,0:3:0:0:
334,211,66579,2,0,P|360:239|394:280,1,73,0|10,0:0|0:0,0:0:0:0:
340,342,66867,6,0,P|280:336|203:407,1,146,2|2,0:0|0:0,0:0:0:0:
143,333,67300,2,0,P|150:287|156:244,1,73,10|0,0:0|2:0,0:0:0:0:
116,182,67588,2,0,P|175:176|242:257,1,146,4|10,0:3|0:0,0:0:0:0:
297,292,68021,6,0,P|288:222|281:144,1,146,2|2,0:0|0:0,0:0:0:0:
208,97,68454,1,8,0:0:0:0:
286,57,68598,2,0,P|328:48|366:37,1,73,2|4,0:0|0:3,0:0:0:0:
437,0,68887,2,0,P|433:32|427:106,1,73,2|8,0:0|0:0,0:0:0:0:
501,124,69175,6,0,P|424:123|367:182,1,146,2|0,0:0|0:0,0:0:0:0:
288,150,69608,2,0,P|291:186|295:222,1,73,8|0,0:0|2:0,0:0:0:0:
377,256,69896,2,0,P|312:272|216:300,1,146,4|4,0:3|0:3,0:0:0:0:
150,344,70329,6,0,L|158:263,1,73,10|0,0:0|2:0,0:0:0:0:
117,185,70617,2,0,L|198:193,1,73,10|0,0:0|2:0,0:0:0:0:
275,142,70906,2,0,L|267:223,1,73,10|0,0:0|2:0,0:0:0:0:
308,301,71194,2,0,L|227:293,1,73,10|0,0:0|2:0,0:0:0:0:
157,271,71483,1,6,0:0:0:0:
157,271,71915,5,2,0:2:0:0:
348,230,72204,6,0,L|355:184,3,36.5,0|0|0|0,0:0|0:0|0:0|0:0,0:0:0:0:
377,184,72492,2,0,L|384:138,3,36.5,0|0|0|0,0:0|0:0|0:0|0:0,0:0:0:0:
370,127,72781,6,0,P|304:125|250:47,1,146,4|8,0:3|0:3,0:0:0:0:
185,12,73213,1,4,0:3:0:0:
174,99,73358,2,0,P|167:143|158:188,1,73,8|4,0:3|0:3,0:0:0:0:
230,224,73646,1,8,0:3:0:0:
161,279,73790,6,0,P|238:267|313:256,1,146,4|0,0:2|0:0,0:0:0:0:
375,311,74223,2,0,P|392:274|386:224,1,73,8|0,0:0|2:0,0:0:0:0:
372,157,74512,2,0,P|407:165|467:177,1,73,0|0,0:0|0:0,0:0:0:0:
477,256,74800,1,8,0:0:0:0:
391,242,74944,6,0,P|345:242|271:340,1,146,4|0,0:2|0:0,0:0:0:0:
235,383,75377,1,8,0:0:0:0:
173,323,75521,2,0,P|195:283|148:170,1,146,4|0,0:2|0:0,0:0:0:0:
128,117,75954,1,8,0:0:0:0:
211,93,76098,6,0,P|233:132|355:147,1,146,4|0,0:2|0:0,0:0:0:0:
405,196,76531,2,0,P|411:151|419:113,1,73,8|0,0:0|2:0,0:0:0:0:
466,31,76819,2,0,L|394:42,1,73,0|0,0:0|0:0,0:0:0:0:
312,76,77108,1,8,0:0:0:0:
250,14,77252,6,0,P|262:90|275:189,1,146,6|2,0:2|0:2,0:0:0:0:
220,231,77685,1,8,0:0:0:0:
134,212,77829,2,0,P|122:136|109:37,1,146,6|10,0:2|0:2,0:0:0:0:
41,25,78262,1,8,0:0:0:0:
41,25,78406,6,0,P|-1:71|22:166,1,146,8|0,0:2|0:0,0:0:0:0:
61,222,78838,2,0,P|97:215|133:211,1,73,8|0,0:0|2:0,0:0:0:0:
211,168,79127,1,0,0:0:0:0:
268,234,79271,2,0,P|261:273|256:319,1,73,0|0,0:0|0:0,0:0:0:0:
192,366,79560,6,0,P|272:351|366:337,1,146,4|0,0:2|0:0,0:0:0:0:
412,298,79992,1,8,0:0:0:0:
412,210,80137,2,0,P|331:224|237:238,1,146,4|0,0:2|0:0,0:0:0:0:
211,168,80569,1,8,0:0:0:0:
211,168,80713,6,0,P|197:108|260:44,1,146,4|0,0:2|0:0,0:0:0:0:
332,71,81146,1,8,0:0:0:0:
405,23,81290,2,0,P|409:62|417:110,1,73,4|0,0:2|2:0,0:0:0:0:
352,156,81579,2,0,P|390:171|442:192,1,73,0|8,0:0|0:0,0:0:0:0:
491,135,81867,6,0,P|468:201|441:298,1,146,4|0,0:2|0:0,0:0:0:0:
372,320,82300,2,0,P|364:283|349:229,1,73,8|8,0:0|0:0,0:0:0:0:
279,206,82588,2,0,P|241:212|190:218,2,73,8|4|8,0:3|0:3|0:0,0:0:0:0:
352,156,83021,6,0,P|306:163|219:94,1,146,4|8,0:2|0:0,0:0:0:0:
191,31,83454,1,8,0:0:0:0:
107,14,83598,6,0,P|136:50|119:160,1,146,4|8,0:2|0:0,0:0:0:0:
79,215,84031,1,8,0:0:0:0:
106,297,84175,6,0,P|122:253|226:212,1,146,4|0,0:2|0:0,0:0:0:0:
283,166,84608,2,0,P|299:124|294:78,1,73,8|0,0:0|0:0,0:0:0:0:
281,253,84896,2,0,P|308:288|351:306,1,73,8|0,0:0|0:0,0:0:0:0:
418,295,85185,1,8,0:0:0:0:
469,366,85329,6,0,P|476:306|493:211,1,146,10|0,0:0|0:0,0:0:0:0:
425,165,85762,2,0,P|418:124|412:92,1,73,2|0,0:0|0:0,0:0:0:0:
436,12,86050,1,0,0:0:0:0:
436,12,86194,2,0,L|527:29,1,73,2|0,0:0|0:0,0:0:0:0:
349,32,86483,5,6,0:2:0:0:
256,192,86627,12,0,89079,2:0:0:0:
