osu file format v14

[General]
AudioFilename: audio.mp3
AudioLeadIn: 0
PreviewTime: 57112
Countdown: 1
SampleSet: Normal
StackLeniency: 0.7
Mode: 1
LetterboxInBreaks: 0
WidescreenStoryboard: 1

[Editor]
DistanceSpacing: 2.2
BeatDivisor: 4
GridSize: 32
TimelineZoom: 2.1

[Metadata]
Title:Stray (TV size)
TitleUnicode:ストレイ (TV size)
Artist:KISIDA KYODAN & THE AKEBOSI ROCKETS
ArtistUnicode:岸田教団&THE明星ロケッツ
Creator:-[ ix Ishida xi ]-
Version:-[ ix Oni xi ]- (OD10)
Source:博多豚骨ラーメンズ
Tags:
BeatmapID:2143959
BeatmapSetID:1025010

[Difficulty]
HPDrainRate:10
CircleSize:5
OverallDifficulty:10
ApproachRate:5
SliderMultiplier:1.4
SliderTickRate:1

[Events]
//Background and Video events
0,0,"bgi.jpg",0,0
//Break Periods
//Storyboard Layer 0 (Background)
//Storyboard Layer 1 (Fail)
//Storyboard Layer 2 (Pass)
//Storyboard Layer 3 (Foreground)
//Storyboard Layer 4 (Overlay)
//Storyboard Sound Samples

[TimingPoints]
25,291.26213592233,4,1,0,75,1,0
58131,-100,4,1,0,75,0,1
79102,-100,4,1,0,75,0,0

[HitObjects]
256,192,1044,5,0,0:0:0:0:
256,192,1335,1,0,0:0:0:0:
256,192,1481,1,8,0:0:0:0:
256,192,1626,1,0,0:0:0:0:
256,192,1918,1,0,0:0:0:0:
256,192,2063,1,8,0:0:0:0:
256,192,2209,1,0,0:0:0:0:
256,192,2500,1,0,0:0:0:0:
256,192,2646,1,8,0:0:0:0:
256,192,2937,1,0,0:0:0:0:
256,192,3083,1,0,0:0:0:0:
256,192,3228,1,8,0:0:0:0:
256,192,3375,1,0,0:0:0:0:
256,192,3665,1,0,0:0:0:0:
256,192,3811,1,8,0:0:0:0:
256,192,3957,1,0,0:0:0:0:
256,192,4248,1,0,0:0:0:0:
256,192,4393,1,8,0:0:0:0:
256,192,4539,1,0,0:0:0:0:
256,192,4830,1,0,0:0:0:0:
256,192,4976,1,8,0:0:0:0:
256,192,5267,1,0,0:0:0:0:
256,192,5340,1,0,0:0:0:0:
256,192,5413,1,0,0:0:0:0:
256,192,5486,1,0,0:0:0:0:
256,192,5558,1,8,0:0:0:0:
256,192,5704,1,4,0:0:0:0:
256,192,6287,1,12,0:0:0:0:
256,192,6869,1,4,0:0:0:0:
256,192,7160,1,0,0:0:0:0:
256,192,7306,1,12,0:0:0:0:
256,192,7452,1,0,0:0:0:0:
256,192,7597,1,12,0:0:0:0:
256,192,7743,1,0,0:0:0:0:
256,192,7889,1,12,0:0:0:0:
256,192,8034,1,0,0:0:0:0:
256,192,9199,1,0,0:0:0:0:
256,192,9782,1,0,0:0:0:0:
256,192,9855,1,0,0:0:0:0:
256,192,9927,1,8,0:0:0:0:
256,192,10073,1,8,0:0:0:0:
256,192,10364,1,4,0:0:0:0:
256,192,10655,1,0,0:0:0:0:
256,192,10801,1,8,0:0:0:0:
256,192,10947,1,8,0:0:0:0:
256,192,11092,1,0,0:0:0:0:
256,192,11238,1,0,0:0:0:0:
256,192,11384,1,8,0:0:0:0:
256,192,11529,1,0,0:0:0:0:
256,192,11820,1,0,0:0:0:0:
256,192,11966,1,8,0:0:0:0:
256,192,12112,1,0,0:0:0:0:
256,192,12258,1,8,0:0:0:0:
256,192,12330,1,8,0:0:0:0:
256,192,12403,1,0,0:0:0:0:
256,192,12476,1,0,0:0:0:0:
256,192,12549,1,8,0:0:0:0:
256,192,12694,1,0,0:0:0:0:
256,192,12986,1,0,0:0:0:0:
256,192,13131,1,8,0:0:0:0:
256,192,13277,1,8,0:0:0:0:
256,192,13422,1,0,0:0:0:0:
256,192,13568,1,0,0:0:0:0:
256,192,13714,1,8,0:0:0:0:
256,192,13859,1,0,0:0:0:0:
256,192,14151,1,0,0:0:0:0:
256,192,14296,1,8,0:0:0:0:
256,192,14442,1,0,0:0:0:0:
256,192,14587,1,8,0:0:0:0:
256,192,14733,1,8,0:0:0:0:
256,192,15024,1,0,0:0:0:0:
256,192,15316,1,0,0:0:0:0:
256,192,15461,1,8,0:0:0:0:
256,192,15607,1,8,0:0:0:0:
256,192,15753,1,0,0:0:0:0:
256,192,15898,1,0,0:0:0:0:
256,192,16044,1,8,0:0:0:0:
256,192,16189,1,0,0:0:0:0:
256,192,16481,1,0,0:0:0:0:
256,192,16626,1,8,0:0:0:0:
256,192,16772,1,0,0:0:0:0:
256,192,16845,1,0,0:0:0:0:
256,192,16918,1,8,0:0:0:0:
256,192,16966,1,8,0:0:0:0:
256,192,17015,1,0,0:0:0:0:
256,192,17063,1,0,0:0:0:0:
256,192,17136,1,0,0:0:0:0:
256,192,17209,1,8,0:0:0:0:
256,192,17355,1,0,0:0:0:0:
256,192,17646,1,0,0:0:0:0:
256,192,17791,1,8,0:0:0:0:
256,192,17937,1,0,0:0:0:0:
256,192,18010,1,8,0:0:0:0:
256,192,18083,1,8,0:0:0:0:
256,192,18228,1,0,0:0:0:0:
256,192,18374,1,0,0:0:0:0:
256,192,18520,1,8,0:0:0:0:
256,192,18811,1,0,0:0:0:0:
256,192,18957,1,0,0:0:0:0:
256,192,19102,1,8,0:0:0:0:
256,192,19175,1,0,0:0:0:0:
256,192,19248,1,8,0:0:0:0:
256,192,19393,1,8,0:0:0:0:
256,192,19685,1,4,0:0:0:0:
256,192,19976,1,0,0:0:0:0:
256,192,20122,1,8,0:0:0:0:
256,192,20267,1,0,0:0:0:0:
256,192,20413,1,8,0:0:0:0:
256,192,20558,1,8,0:0:0:0:
256,192,20850,1,0,0:0:0:0:
256,192,20995,1,8,0:0:0:0:
256,192,21141,1,0,0:0:0:0:
256,192,21287,1,8,0:0:0:0:
256,192,21432,1,0,0:0:0:0:
256,192,21578,1,8,0:0:0:0:
256,192,21724,1,8,0:0:0:0:
256,192,21869,1,0,0:0:0:0:
256,192,22015,1,8,0:0:0:0:
256,192,22306,1,0,0:0:0:0:
256,192,22452,1,8,0:0:0:0:
256,192,22597,1,0,0:0:0:0:
256,192,22743,1,8,0:0:0:0:
256,192,22889,1,8,0:0:0:0:
256,192,23180,1,8,0:0:0:0:
256,192,23325,1,0,0:0:0:0:
256,192,23471,1,0,0:0:0:0:
256,192,23544,1,0,0:0:0:0:
256,192,23617,1,8,0:0:0:0:
256,192,23762,1,0,0:0:0:0:
256,192,23908,1,8,0:0:0:0:
256,192,24054,1,8,0:0:0:0:
256,192,24345,1,0,0:0:0:0:
256,192,24636,1,0,0:0:0:0:
256,192,24782,1,8,0:0:0:0:
256,192,24927,1,0,0:0:0:0:
256,192,25073,1,8,0:0:0:0:
256,192,25218,1,8,0:0:0:0:
256,192,25364,1,0,0:0:0:0:
256,192,25510,1,8,0:0:0:0:
256,192,25801,1,0,0:0:0:0:
256,192,25947,1,8,0:0:0:0:
256,192,26092,1,0,0:0:0:0:
256,192,26238,1,8,0:0:0:0:
256,192,26384,1,0,0:0:0:0:
256,192,26529,1,8,0:0:0:0:
256,192,26675,1,0,0:0:0:0:
256,192,26966,1,0,0:0:0:0:
256,192,27258,1,0,0:0:0:0:
256,192,27403,1,8,0:0:0:0:
256,192,27694,1,0,0:0:0:0:
256,192,27840,1,8,0:0:0:0:
256,192,28131,1,0,0:0:0:0:
256,192,28277,1,8,0:0:0:0:
256,192,28568,1,0,0:0:0:0:
256,192,28714,1,8,0:0:0:0:
256,192,29005,1,4,0:0:0:0:
256,192,29296,1,0,0:0:0:0:
256,192,29369,1,0,0:0:0:0:
256,192,29442,1,8,0:0:0:0:
256,192,29588,1,0,0:0:0:0:
256,192,29879,1,0,0:0:0:0:
256,192,30024,1,8,0:0:0:0:
256,192,30170,1,4,0:0:0:0:
256,192,30461,1,0,0:0:0:0:
256,192,30534,1,0,0:0:0:0:
256,192,30607,1,8,0:0:0:0:
256,192,30753,1,0,0:0:0:0:
256,192,31044,1,0,0:0:0:0:
256,192,31189,1,8,0:0:0:0:
256,192,31335,1,4,0:0:0:0:
256,192,31626,1,0,0:0:0:0:
256,192,31699,1,0,0:0:0:0:
256,192,31772,1,8,0:0:0:0:
256,192,31918,1,0,0:0:0:0:
256,192,32209,1,0,0:0:0:0:
256,192,32354,1,8,0:0:0:0:
256,192,32500,1,4,0:0:0:0:
256,192,32791,1,0,0:0:0:0:
256,192,32864,1,0,0:0:0:0:
256,192,32937,1,8,0:0:0:0:
256,192,33083,1,0,0:0:0:0:
256,192,33374,1,0,0:0:0:0:
256,192,33519,1,8,0:0:0:0:
256,192,33665,1,4,0:0:0:0:
256,192,33957,1,0,0:0:0:0:
256,192,34030,1,0,0:0:0:0:
256,192,34103,1,8,0:0:0:0:
256,192,34249,1,0,0:0:0:0:
256,192,34393,1,8,0:0:0:0:
256,192,34540,1,0,0:0:0:0:
256,192,34685,1,8,0:0:0:0:
256,192,34831,1,4,0:0:0:0:
256,192,35122,1,0,0:0:0:0:
256,192,35195,1,0,0:0:0:0:
256,192,35268,1,8,0:0:0:0:
256,192,35414,1,0,0:0:0:0:
256,192,35558,1,8,0:0:0:0:
256,192,35705,1,0,0:0:0:0:
256,192,35850,1,8,0:0:0:0:
256,192,35996,1,4,0:0:0:0:
256,192,36287,1,0,0:0:0:0:
256,192,36360,1,0,0:0:0:0:
256,192,36433,1,8,0:0:0:0:
256,192,36579,1,0,0:0:0:0:
256,192,36723,1,8,0:0:0:0:
256,192,36870,1,0,0:0:0:0:
256,192,37015,1,8,0:0:0:0:
256,192,37161,1,0,0:0:0:0:
256,192,37233,1,0,0:0:0:0:
256,192,37306,1,8,0:0:0:0:
256,192,37379,1,8,0:0:0:0:
256,192,37452,1,0,0:0:0:0:
256,192,37524,1,0,0:0:0:0:
256,192,37597,1,8,0:0:0:0:
256,192,37743,1,0,0:0:0:0:
256,192,37816,1,8,0:0:0:0:
256,192,37889,1,8,0:0:0:0:
256,192,37961,1,8,0:0:0:0:
256,192,38034,1,0,0:0:0:0:
256,192,38107,1,0,0:0:0:0:
256,192,38180,1,8,0:0:0:0:
256,192,38253,1,8,0:0:0:0:
256,192,38325,1,0,0:0:0:0:
256,192,38617,1,0,0:0:0:0:
256,192,38762,1,8,0:0:0:0:
256,192,39054,1,4,0:0:0:0:
256,192,39199,1,0,0:0:0:0:
256,192,39345,1,8,0:0:0:0:
256,192,39491,1,4,0:0:0:0:
256,192,39782,1,0,0:0:0:0:
256,192,39927,1,8,0:0:0:0:
256,192,40219,1,8,0:0:0:0:
256,192,40291,1,8,0:0:0:0:
256,192,40364,1,8,0:0:0:0:
256,192,40437,1,8,0:0:0:0:
256,192,40510,1,8,0:0:0:0:
256,192,40583,1,8,0:0:0:0:
256,192,40656,1,0,0:0:0:0:
256,192,40947,1,0,0:0:0:0:
256,192,41020,1,0,0:0:0:0:
256,192,41093,1,8,0:0:0:0:
256,192,41166,1,8,0:0:0:0:
256,192,41238,1,8,0:0:0:0:
256,192,41311,1,8,0:0:0:0:
256,192,41384,1,0,0:0:0:0:
256,192,41457,1,0,0:0:0:0:
256,192,41530,1,0,0:0:0:0:
256,192,41603,1,0,0:0:0:0:
256,192,41675,1,8,0:0:0:0:
256,192,41748,1,8,0:0:0:0:
256,192,41821,1,0,0:0:0:0:
256,192,42112,1,0,0:0:0:0:
256,192,42185,1,8,0:0:0:0:
256,192,42258,1,8,0:0:0:0:
256,192,42330,1,8,0:0:0:0:
256,192,42403,1,0,0:0:0:0:
256,192,42476,1,0,0:0:0:0:
256,192,42549,1,8,0:0:0:0:
256,192,42622,1,8,0:0:0:0:
256,192,42694,1,0,0:0:0:0:
256,192,42767,1,8,0:0:0:0:
256,192,42840,1,8,0:0:0:0:
256,192,42913,1,8,0:0:0:0:
256,192,42986,1,0,0:0:0:0:
256,192,43277,1,0,0:0:0:0:
256,192,43423,1,8,0:0:0:0:
256,192,43568,1,0,0:0:0:0:
256,192,43714,1,12,0:0:0:0:
256,192,43859,1,8,0:0:0:0:
256,192,44005,1,0,0:0:0:0:
256,192,44151,1,4,0:0:0:0:
256,192,44442,1,8,0:0:0:0:
256,192,44588,1,0,0:0:0:0:
256,192,44879,1,8,0:0:0:0:
256,192,44952,1,8,0:0:0:0:
256,192,45024,1,8,0:0:0:0:
256,192,45097,1,8,0:0:0:0:
256,192,45170,1,8,0:0:0:0:
256,192,45243,1,8,0:0:0:0:
256,192,45316,1,0,0:0:0:0:
256,192,45607,1,0,0:0:0:0:
256,192,45680,1,0,0:0:0:0:
256,192,45753,1,8,0:0:0:0:
256,192,45801,1,8,0:0:0:0:
256,192,45850,1,8,0:0:0:0:
256,192,45898,1,0,0:0:0:0:
256,192,45971,1,0,0:0:0:0:
256,192,46044,1,8,0:0:0:0:
256,192,46092,1,8,0:0:0:0:
256,192,46141,1,8,0:0:0:0:
256,192,46190,1,0,0:0:0:0:
256,192,46262,1,0,0:0:0:0:
256,192,46335,1,8,0:0:0:0:
256,192,46408,1,8,0:0:0:0:
256,192,46481,1,0,0:0:0:0:
256,192,46772,1,0,0:0:0:0:
256,192,46845,1,0,0:0:0:0:
256,192,46918,1,8,0:0:0:0:
256,192,46991,1,0,0:0:0:0:
256,192,47063,1,0,0:0:0:0:
256,192,47136,1,0,0:0:0:0:
256,192,47209,1,8,0:0:0:0:
256,192,47282,1,8,0:0:0:0:
256,192,47355,1,8,0:0:0:0:
256,192,47427,1,8,0:0:0:0:
256,192,47500,1,0,0:0:0:0:
256,192,47646,1,0,0:0:0:0:
256,192,48665,1,8,0:0:0:0:
256,192,48811,1,0,0:0:0:0:
256,192,49393,1,0,0:0:0:0:
256,192,49685,1,0,0:0:0:0:
256,192,49830,1,8,0:0:0:0:
256,192,49976,1,0,0:0:0:0:
256,192,50413,1,8,0:0:0:0:
256,192,50558,1,0,0:0:0:0:
256,192,50850,1,0,0:0:0:0:
256,192,50995,1,8,0:0:0:0:
256,192,51141,1,0,0:0:0:0:
256,192,51432,1,8,0:0:0:0:
256,192,51578,1,8,0:0:0:0:
256,192,51724,1,0,0:0:0:0:
256,192,51796,1,0,0:0:0:0:
256,192,51869,1,0,0:0:0:0:
256,192,51942,1,0,0:0:0:0:
256,192,52015,1,0,0:0:0:0:
256,192,52088,1,0,0:0:0:0:
256,192,52160,1,8,0:0:0:0:
256,192,52233,1,8,0:0:0:0:
256,192,52306,1,0,0:0:0:0:
256,192,52597,1,0,0:0:0:0:
256,192,52743,1,8,0:0:0:0:
256,192,53034,1,0,0:0:0:0:
256,192,53180,1,8,0:0:0:0:
256,192,53325,1,8,0:0:0:0:
256,192,53471,1,0,0:0:0:0:
256,192,53762,1,0,0:0:0:0:
256,192,53908,1,12,0:0:0:0:
256,192,54054,1,0,0:0:0:0:
256,192,54199,1,12,0:0:0:0:
256,192,54345,1,0,0:0:0:0:
256,192,54491,1,12,0:0:0:0:
256,192,54636,1,0,0:0:0:0:
256,192,55073,1,8,0:0:0:0:
256,192,55364,1,8,0:0:0:0:
256,192,55656,1,8,0:0:0:0:
256,192,55801,1,4,0:0:0:0:
256,192,56092,1,8,0:0:0:0:
256,192,56165,1,8,0:0:0:0:
256,192,56238,1,8,0:0:0:0:
256,192,56311,1,8,0:0:0:0:
256,192,56384,1,0,0:0:0:0:
256,192,56529,1,8,0:0:0:0:
256,192,56602,1,8,0:0:0:0:
256,192,56675,1,0,0:0:0:0:
256,192,56748,1,0,0:0:0:0:
256,192,56821,1,8,0:0:0:0:
256,192,56893,1,8,0:0:0:0:
256,192,56966,1,0,0:0:0:0:
256,192,58131,1,4,0:0:0:0:
256,192,58423,1,0,0:0:0:0:
256,192,58568,1,8,0:0:0:0:
256,192,58714,1,0,0:0:0:0:
256,192,59005,1,0,0:0:0:0:
256,192,59151,1,8,0:0:0:0:
256,192,59296,1,0,0:0:0:0:
256,192,59588,1,0,0:0:0:0:
256,192,59733,1,8,0:0:0:0:
256,192,59879,1,0,0:0:0:0:
256,192,59952,1,0,0:0:0:0:
256,192,60024,1,8,0:0:0:0:
256,192,60097,1,8,0:0:0:0:
256,192,60170,1,0,0:0:0:0:
256,192,60243,1,0,0:0:0:0:
256,192,60316,1,8,0:0:0:0:
256,192,60461,1,0,0:0:0:0:
256,192,60753,1,0,0:0:0:0:
256,192,60898,1,8,0:0:0:0:
256,192,61044,1,0,0:0:0:0:
256,192,61335,1,0,0:0:0:0:
256,192,61481,1,8,0:0:0:0:
256,192,61626,1,0,0:0:0:0:
256,192,61918,1,8,0:0:0:0:
256,192,62209,1,0,0:0:0:0:
256,192,62282,1,8,0:0:0:0:
256,192,62355,1,8,0:0:0:0:
256,192,62403,1,8,0:0:0:0:
256,192,62452,1,8,0:0:0:0:
256,192,62500,1,0,0:0:0:0:
256,192,62573,1,0,0:0:0:0:
256,192,62646,1,8,0:0:0:0:
256,192,62791,1,4,0:0:0:0:
256,192,63083,1,0,0:0:0:0:
256,192,63228,1,8,0:0:0:0:
256,192,63374,1,0,0:0:0:0:
256,192,63665,1,0,0:0:0:0:
256,192,63811,1,8,0:0:0:0:
256,192,63957,1,0,0:0:0:0:
256,192,64248,1,0,0:0:0:0:
256,192,64393,1,8,0:0:0:0:
256,192,64539,1,0,0:0:0:0:
256,192,64612,1,0,0:0:0:0:
256,192,64685,1,8,0:0:0:0:
256,192,64758,1,8,0:0:0:0:
256,192,64830,1,0,0:0:0:0:
256,192,64903,1,0,0:0:0:0:
256,192,64976,1,8,0:0:0:0:
256,192,65049,1,8,0:0:0:0:
256,192,65122,1,0,0:0:0:0:
256,192,65413,1,0,0:0:0:0:
256,192,65558,1,8,0:0:0:0:
256,192,65704,1,0,0:0:0:0:
256,192,65777,1,8,0:0:0:0:
256,192,65850,1,8,0:0:0:0:
256,192,65995,1,0,0:0:0:0:
256,192,66141,1,8,0:0:0:0:
256,192,66287,1,0,0:0:0:0:
256,192,66578,1,0,0:0:0:0:
256,192,66724,1,8,0:0:0:0:
256,192,66869,1,0,0:0:0:0:
256,192,66942,1,0,0:0:0:0:
256,192,67015,1,8,0:0:0:0:
256,192,67088,1,8,0:0:0:0:
256,192,67160,1,0,0:0:0:0:
256,192,67233,1,8,0:0:0:0:
256,192,67306,1,8,0:0:0:0:
256,192,67452,1,0,0:0:0:0:
256,192,67743,1,0,0:0:0:0:
256,192,67816,1,0,0:0:0:0:
256,192,67889,1,8,0:0:0:0:
256,192,68034,1,0,0:0:0:0:
256,192,68107,1,0,0:0:0:0:
256,192,68180,1,0,0:0:0:0:
256,192,68253,1,0,0:0:0:0:
256,192,68325,1,0,0:0:0:0:
256,192,68398,1,0,0:0:0:0:
256,192,68471,1,8,0:0:0:0:
256,192,68617,1,0,0:0:0:0:
256,192,68690,1,0,0:0:0:0:
256,192,68762,1,0,0:0:0:0:
256,192,68835,1,0,0:0:0:0:
256,192,68908,1,0,0:0:0:0:
256,192,68981,1,0,0:0:0:0:
256,192,69054,1,8,0:0:0:0:
256,192,69199,1,0,0:0:0:0:
256,192,69272,1,0,0:0:0:0:
256,192,69345,1,0,0:0:0:0:
256,192,69491,1,0,0:0:0:0:
256,192,69563,1,8,0:0:0:0:
256,192,69636,1,8,0:0:0:0:
256,192,69709,1,8,0:0:0:0:
256,192,69782,1,0,0:0:0:0:
256,192,70073,1,0,0:0:0:0:
256,192,70146,1,0,0:0:0:0:
256,192,70219,1,8,0:0:0:0:
256,192,70291,1,0,0:0:0:0:
256,192,70364,1,0,0:0:0:0:
256,192,70437,1,0,0:0:0:0:
256,192,70510,1,0,0:0:0:0:
256,192,70583,1,0,0:0:0:0:
256,192,70656,1,0,0:0:0:0:
256,192,70728,1,8,0:0:0:0:
256,192,70801,1,8,0:0:0:0:
256,192,70947,1,4,0:0:0:0:
256,192,71238,1,4,0:0:0:0:
256,192,71384,1,8,0:0:0:0:
256,192,71529,1,4,0:0:0:0:
256,192,71821,1,4,0:0:0:0:
256,192,71966,1,8,0:0:0:0:
256,192,72112,1,4,0:0:0:0:
256,192,72403,1,0,0:0:0:0:
256,192,72549,1,8,0:0:0:0:
256,192,72840,1,0,0:0:0:0:
256,192,72986,1,0,0:0:0:0:
256,192,73131,1,8,0:0:0:0:
256,192,73277,1,0,0:0:0:0:
256,192,73568,1,0,0:0:0:0:
256,192,73714,1,8,0:0:0:0:
256,192,73859,1,0,0:0:0:0:
256,192,74005,1,8,0:0:0:0:
256,192,74078,1,8,0:0:0:0:
256,192,74151,1,0,0:0:0:0:
256,192,74224,1,0,0:0:0:0:
256,192,74296,1,8,0:0:0:0:
256,192,74442,1,0,0:0:0:0:
256,192,74733,1,0,0:0:0:0:
256,192,74879,1,12,0:0:0:0:
256,192,75170,1,4,0:0:0:0:
256,192,75316,1,0,0:0:0:0:
256,192,75461,1,8,0:0:0:0:
256,192,75607,1,4,0:0:0:0:
256,192,75898,1,0,0:0:0:0:
256,192,76044,1,8,0:0:0:0:
256,192,76190,1,0,0:0:0:0:
256,192,76335,1,12,0:0:0:0:
256,192,76481,1,0,0:0:0:0:
256,192,76626,1,8,0:0:0:0:
256,192,76772,1,4,0:0:0:0:
256,192,77500,1,12,0:0:0:0:
256,192,77937,1,4,0:0:0:0:
256,192,78228,1,0,0:0:0:0:
256,192,78374,1,8,0:0:0:0:
256,192,78520,1,0,0:0:0:0:
256,192,78665,1,12,0:0:0:0:
256,192,78811,1,12,0:0:0:0:
256,192,79102,1,4,0:0:0:0:
256,192,79393,1,0,0:0:0:0:
256,192,79539,1,8,0:0:0:0:
256,192,79830,1,0,0:0:0:0:
256,192,79976,1,0,0:0:0:0:
256,192,80122,1,8,0:0:0:0:
256,192,80267,1,0,0:0:0:0:
256,192,80558,1,0,0:0:0:0:
256,192,80704,1,8,0:0:0:0:
256,192,80850,1,8,0:0:0:0:
256,192,80995,1,8,0:0:0:0:
256,192,81141,1,8,0:0:0:0:
256,192,81287,1,8,0:0:0:0:
256,192,81432,1,0,0:0:0:0:
256,192,81724,1,0,0:0:0:0:
256,192,81869,1,8,0:0:0:0:
256,192,82015,1,8,0:0:0:0:
256,192,82160,1,0,0:0:0:0:
256,192,82306,1,0,0:0:0:0:
256,192,82452,1,8,0:0:0:0:
256,192,82597,1,0,0:0:0:0:
256,192,82889,1,0,0:0:0:0:
256,192,83034,1,8,0:0:0:0:
256,192,83180,1,0,0:0:0:0:
256,192,83325,1,8,0:0:0:0:
256,192,83471,1,8,0:0:0:0:
256,192,83762,1,0,0:0:0:0:
256,192,84054,1,0,0:0:0:0:
256,192,84199,1,8,0:0:0:0:
256,192,84491,1,0,0:0:0:0:
256,192,84636,1,0,0:0:0:0:
256,192,84782,1,8,0:0:0:0:
256,192,84927,1,0,0:0:0:0:
256,192,85219,1,0,0:0:0:0:
256,192,85364,1,8,0:0:0:0:
256,192,85510,1,8,0:0:0:0:
256,192,85656,1,8,0:0:0:0:
256,192,85801,1,8,0:0:0:0:
256,192,85947,1,8,0:0:0:0:
256,192,86092,1,0,0:0:0:0:
256,192,86384,1,0,0:0:0:0:
256,192,86529,1,8,0:0:0:0:
256,192,86675,1,0,0:0:0:0:
256,192,86748,1,8,0:0:0:0:
256,192,86821,1,8,0:0:0:0:
256,192,86966,1,0,0:0:0:0:
256,192,87112,1,8,0:0:0:0:
256,192,87258,1,0,0:0:0:0:
256,192,87549,1,0,0:0:0:0:
256,192,87622,1,0,0:0:0:0:
256,192,87694,1,12,0:0:0:0:
256,192,88423,1,4,0:0:0:0:
