osu file format v14

[General]
AudioFilename: audio.mp3
AudioLeadIn: 0
PreviewTime: 63698
Countdown: 0
SampleSet: Soft
StackLeniency: 0.7
Mode: 0
LetterboxInBreaks: 0
WidescreenStoryboard: 0

[Editor]
DistanceSpacing: 0.5
BeatDivisor: 4
GridSize: 32
TimelineZoom: 1.099999

[Metadata]
Title:Shitteru? Madousho wa Donki ni mo Naru no yo
TitleUnicode:知ってる?魔導書は鈍器にもなるのよ
Artist:KISIDA KYODAN & THE AKEBOSI ROCKETS
ArtistUnicode:岸田教団&THE明星ロケッツ
Creator:SMOKELIND
Version:shitteru?
Source:東方紅魔郷 ~ the Embodiment of Scarlet Devil.
Tags:japanese jp rock j-rock kowari Kishida and Akeboshi 東方Project th touhou ichigo patchouli knowledge stage 4 boss theme ZUN ラクトガール ~ 少女密室
BeatmapID:1925409
BeatmapSetID:922004

[Difficulty]
HPDrainRate:5.4
CircleSize:3.8
OverallDifficulty:9.2
ApproachRate:9.5
SliderMultiplier:2.07
SliderTickRate:1

[Events]
//Background and Video events
0,0,"HaruLoli.jpg",0,0
//Break Periods
//Storyboard Layer 0 (Background)
//Storyboard Layer 1 (Fail)
//Storyboard Layer 2 (Pass)
//Storyboard Layer 3 (Foreground)
//Storyboard Sound Samples

[TimingPoints]
-390,315.789473684211,4,2,7,47,1,0
873,-175.438596491228,4,2,7,47,0,0
1188,300,4,2,7,47,1,0
1338,324.324324324324,4,2,7,47,1,0
1500,300,4,2,7,47,1,0
1799,308.483290488432,4,2,7,47,1,0
1799,-175.438596491228,4,2,7,47,0,0
2107,312.5,4,2,7,47,1,0
2107,-175.438596491228,4,2,7,47,0,0
2575,340.909090909091,4,2,7,47,1,0
2745,315.789473684211,4,2,7,47,1,0
2745,-175.438596491228,4,2,7,47,0,0
3376,317.460317460317,4,2,7,47,1,0
3376,-175.438596491228,4,2,7,47,0,0
4010,314.13612565445,4,2,7,47,1,0
4638,319.148936170213,4,2,7,47,1,0
4638,-175.438596491228,4,2,7,47,0,0
5435,337.078651685393,4,2,7,47,1,0
5603,312.5,4,2,7,47,1,0
5915,315.789473684211,4,2,7,57,1,0
9704,-114.942528735632,4,2,7,77,0,0
23599,-129.87012987013,4,2,7,57,0,0
43809,-114.942528735633,4,2,7,77,0,0
52651,352.941176470588,4,2,7,77,1,0
53003,302.267002518892,4,2,7,77,1,0
53003,-103.092783505155,4,2,7,77,0,0
53607,-114.942528735633,4,2,7,77,0,0
53909,315.789473684211,4,2,7,87,1,0
53909,-103.092783505155,4,2,7,87,0,0
64014,-93.4579439252339,4,2,7,97,0,0
82803,-588.235294117647,4,2,7,97,0,0
82881,-588.235294117647,4,2,7,27,0,0
87856,292.682926829268,4,2,7,27,1,0
88148,315.789473684211,4,2,7,27,1,0

[Colours]
Combo1 : 255,255,170
Combo2 : 255,140,79
Combo3 : 255,200,170
Combo4 : 255,255,79

[HitObjects]
131,28,715,21,8,0:0:0:0:
131,28,794,1,8,0:0:0:0:
131,28,873,1,2,1:0:0:0:
54,150,1031,2,0,P|63:183|68:221,1,58.9949992798462,2|0,0:0|0:0,0:0:0:0:
0,329,1338,1,2,0:0:0:0:
133,256,1500,1,2,0:0:0:0:
15,294,1650,1,2,0:0:0:0:
148,291,1799,2,0,P|185:283|219:267,1,58.9949992798462,2|0,0:0|0:0,0:0:0:0:
288,172,2107,21,2,0:0:0:0:
263,326,2263,2,0,P|282:293|294:257,1,58.9949992798462,2|0,0:0|0:0,0:0:0:0:
270,132,2575,1,2,0:0:0:0:
407,215,2745,2,0,P|447:205|476:184,1,58.9949992798462,2|0,0:0|0:0,0:0:0:0:
379,78,3060,2,0,P|352:64|323:59,1,58.9949992798462,2|0,0:0|0:0,0:0:0:0:
190,123,3376,21,2,0:0:0:0:
295,223,3534,2,0,P|291:252|280:279,1,58.9949992798462,2|0,0:0|0:0,0:0:0:0:
195,169,3852,1,2,0:0:0:0:
300,91,4010,1,2,0:0:0:0:
300,91,4167,1,0,0:0:0:0:
151,98,4324,1,2,0:0:0:0:
151,98,4481,1,0,0:0:0:0:
275,167,4638,22,0,P|289:201|298:244,1,58.9949992798462,2|0,0:0|0:0,0:0:0:0:
177,321,4957,1,2,0:0:0:0:
177,321,5116,1,2,0:0:0:0:
312,257,5276,1,2,0:0:0:0:
312,257,5435,1,2,0:0:0:0:
89,186,5603,1,10,0:0:0:0:
430,70,5915,21,4,1:0:0:0:
425,90,6230,1,0,1:0:0:0:
420,109,6546,1,0,1:0:0:0:
415,128,6862,1,0,1:0:0:0:
365,278,7177,21,0,1:0:0:0:
360,259,7493,1,0,1:0:0:0:
355,240,7809,1,0,1:0:0:0:
350,220,8125,1,0,1:0:0:0:
295,90,8440,21,0,1:0:0:0:
290,110,8756,1,0,1:0:0:0:
285,129,9072,1,0,1:0:0:0:
216,308,9388,1,2,1:0:0:0:
87,41,9704,37,8,0:0:0:0:
246,233,9862,2,0,P|298:233|339:219,1,90.0450007556877,8|0,0:0|1:0,0:0:0:0:
181,34,10178,1,8,0:0:0:0:
20,237,10336,1,8,0:0:0:0:
180,127,10493,1,8,0:0:0:0:
231,384,10651,1,8,0:0:0:0:
231,384,10967,21,6,1:0:0:0:
372,209,11125,2,0,P|389:159|394:114,1,90.0450007556877,2|8,0:0|0:0,0:0:0:0:
171,164,11441,1,2,1:0:0:0:
323,274,11599,1,2,0:0:0:0:
255,60,11757,1,2,1:0:0:0:
197,310,11915,2,0,P|158:334|95:336,1,90.0450007556877,10|0,0:0|0:0,0:0:0:0:
279,133,12230,21,2,1:0:0:0:
343,314,12388,2,0,P|382:338|445:340,1,90.0450007556877,2|8,1:0|0:0,0:0:0:0:
499,171,12704,1,2,0:0:0:0:
288,252,12862,1,2,1:0:0:0:
508,213,13020,1,2,1:0:0:0:
272,94,13178,2,0,P|230:83|181:83,1,90.0450007556877,10|0,0:0|0:0,0:0:0:0:
121,333,13493,21,6,1:0:0:0:
320,228,13651,2,0,P|339:188|346:140,1,90.0450007556877,2|8,1:0|0:0,0:0:0:0:
157,18,13967,1,2,1:0:0:0:
221,204,14125,1,2,0:0:0:0:
327,7,14283,1,2,1:0:0:0:
125,172,14441,2,0,P|82:168|32:152,1,90.0450007556877,10|0,0:0|0:0,0:0:0:0:
218,288,14757,21,2,1:0:0:0:
141,94,14915,1,2,1:0:0:0:
404,135,15072,1,10,0:0:0:0:
221,204,15230,1,10,0:0:0:0:
402,40,15388,1,2,1:0:0:0:
401,271,15546,1,0,3:0:0:0:
401,271,15625,1,0,3:0:0:0:
401,271,15704,2,0,P|395:298|390:334,1,45.0225003778439,2|0,1:0|3:0,0:0:0:0:
290,138,15862,21,8,0:0:0:0:
290,138,15941,1,8,0:0:0:0:
290,138,16020,1,6,1:0:0:0:
138,291,16178,2,0,P|121:245|116:189,1,90.0450007556877,2|8,0:0|0:0,0:0:0:0:
281,49,16493,1,2,1:0:0:0:
97,116,16651,1,2,0:0:0:0:
298,224,16809,1,2,1:0:0:0:
86,79,16967,2,0,P|127:51|171:40,1,90.0450007556877,10|0,0:0|3:0,0:0:0:0:
193,60,17204,21,0,3:0:0:0:
193,60,17283,1,0,1:0:0:0:
299,258,17441,2,0,P|254:257|212:240,1,90.0450007556877,2|8,1:0|0:0,0:0:0:0:
374,139,17757,1,2,0:0:0:0:
302,352,17915,1,2,1:0:0:0:
241,136,18072,1,2,1:0:0:0:
421,309,18230,2,0,P|430:253|448:189,1,90.0450007556877,10|0,0:0|3:0,0:0:0:0:
456,195,18467,21,0,3:0:0:0:
456,195,18546,2,0,P|446:139|428:75,1,90.0450007556877,6|0,1:0|0:0,0:0:0:0:
301,306,18862,1,8,0:0:0:0:
213,97,19020,1,2,1:0:0:0:
166,285,19178,1,2,0:0:0:0:
293,98,19336,1,2,1:0:0:0:
412,322,19493,2,0,P|432:273|441:204,1,90.0450007556877,10|0,0:0|0:0,0:0:0:0:
343,28,19809,21,2,1:0:0:0:
267,237,19967,1,2,1:0:0:0:
157,14,20125,1,10,0:0:0:0:
301,156,20283,1,0,3:0:0:0:
301,156,20362,1,0,3:0:0:0:
301,156,20441,2,0,P|370:139|397:138,1,90.0450007556877,2|0,1:0|1:0,0:0:0:0:
224,315,20757,2,0,P|179:310|136:296,1,90.0450007556877,10|0,0:0|3:0,0:0:0:0:
116,271,20993,21,0,3:0:0:0:
116,271,21072,2,0,P|115:247|110:217,1,45.0225003778439,2|0,1:0|0:0,0:0:0:0:
36,73,21230,2,0,P|36:49|42:19,3,45.0225003778439,0|0|0|0,3:0|3:0|3:0|3:0,3:0:0:0:
89,153,21546,1,2,1:0:0:0:
89,153,21625,1,0,3:0:0:0:
89,153,21704,2,0,P|110:146|131:138,3,45.0225003778439,0|0|0|0,3:0|3:0|3:0|3:0,3:0:0:0:
213,75,22020,1,2,1:0:0:0:
213,75,22099,1,0,3:0:0:0:
213,75,22178,2,0,P|191:68|170:60,3,45.0225003778439,0|0|0|0,3:0|3:0|3:0|3:0,3:0:0:0:
269,150,22493,1,2,1:0:0:0:
269,150,22572,1,0,3:0:0:0:
269,150,22651,2,0,P|291:143|312:135,3,45.0225003778439,0|0|0|0,3:0|3:0|3:0|3:0,3:0:0:0:
390,66,22967,21,2,1:0:0:0:
393,87,23046,1,2,3:0:0:0:
397,108,23125,1,2,3:0:0:0:
400,130,23204,1,2,3:0:0:0:
405,152,23283,2,0,L|414:207,1,45.0225003778439,2|0,1:0|3:0,0:0:0:0:
300,327,23441,2,0,L|307:282,1,45.0225003778439,8|8,0:0|0:0,0:0:0:0:
242,116,23599,38,0,P|195:100|102:162,1,159.389996838272,6|8,1:0|0:0,0:0:0:0:
187,352,24072,1,2,3:0:0:0:
187,352,24151,1,0,3:0:0:0:
187,352,24230,2,0,P|195:298|205:247,1,79.6949984191361,2|0,1:0|1:0,0:0:0:0:
319,143,24546,1,8,0:0:0:0:
239,259,24704,1,2,0:0:0:0:
400,304,24862,22,0,P|452:295|467:195,1,159.389996838272,2|8,1:0|0:0,0:0:0:0:
368,53,25336,1,2,0:0:0:0:
273,214,25493,2,0,B|179:226|223:169|107:183,1,159.389996838272,2|8,1:0|0:0,0:0:0:0:
275,92,25967,1,0,0:0:0:0:
138,270,26125,22,0,P|170:337|251:352,1,159.389996838272,2|8,1:0|0:0,0:0:0:0:
348,239,26599,1,0,0:0:0:0:
208,138,26757,1,0,1:0:0:0:
362,78,26915,1,0,1:0:0:0:
251,249,27072,22,0,P|262:158|276:84,1,159.389996838272,8|0,0:0|1:0,0:0:0:0:
350,201,27546,1,2,0:0:0:0:
222,28,27704,1,10,0:0:0:0:
222,28,27862,1,2,0:0:0:0:
110,165,28020,1,2,1:0:0:0:
281,164,28178,1,2,1:0:0:0:
72,64,28336,2,0,P|81:107|89:171,1,79.6949984191361,10|0,0:0|0:0,0:0:0:0:
43,339,28651,22,0,P|101:273|178:282,1,159.389996838272,2|8,1:0|0:0,0:0:0:0:
321,356,29125,1,2,0:0:0:0:
428,164,29283,2,0,P|409:241|393:326,1,159.389996838272,2|8,1:0|0:0,0:0:0:0:
326,150,29756,1,2,0:0:0:0:
194,351,29914,22,0,P|179:272|160:195,1,159.389996838272,2|8,1:0|0:0,0:0:0:0:
223,66,30388,1,2,0:0:0:0:
322,234,30546,1,0,1:0:0:0:
391,76,30704,2,0,P|381:118|372:168,1,79.6949984191361,2|8,1:0|0:0,0:0:0:0:
390,340,31020,1,2,0:0:0:0:
247,213,31177,22,0,B|162:189|191:276|68:234,1,159.389996838272,2|8,1:0|0:0,0:0:0:0:
241,303,31651,1,0,0:0:0:0:
116,149,31809,1,0,1:0:0:0:
246,256,31967,1,0,1:0:0:0:
311,70,32125,2,0,P|356:43|403:38,1,79.6949984191361,8|0,0:0|0:0,0:0:0:0:
486,228,32441,21,0,1:0:0:0:
376,128,32599,1,0,1:0:0:0:
311,326,32756,1,8,0:0:0:0:
390,222,32914,1,0,3:0:0:0:
390,222,32993,1,0,3:0:0:0:
390,222,33072,1,8,0:0:0:0:
144,169,33230,1,8,0:0:0:0:
380,82,33388,2,0,P|406:82|430:85,1,39.847499209568,8|8,3:2|3:0,0:0:0:0:
251,192,33546,21,8,3:0:0:0:
251,192,33625,1,8,3:0:0:0:
251,192,33704,2,0,P|242:117|222:22,1,159.389996838272,6|8,1:0|0:0,0:0:0:0:
105,158,34177,1,2,0:0:0:0:
294,291,34335,2,0,P|349:297|382:287,1,79.6949984191361,2|0,1:0|1:0,0:0:0:0:
197,183,34651,1,8,0:0:0:0:
390,130,34809,1,2,0:0:0:0:
213,266,34967,22,0,P|142:261|101:164,1,159.389996838272,2|8,1:0|0:0,0:0:0:0:
235,76,35441,1,2,0:0:0:0:
382,211,35599,2,0,P|430:226|466:224,1,79.6949984191361,2|0,1:0|1:0,0:0:0:0:
364,47,35914,1,8,0:0:0:0:
364,47,36072,1,0,0:0:0:0:
204,223,36230,22,0,P|189:140|163:50,1,159.389996838272,2|8,1:0|0:0,0:0:0:0:
334,204,36704,1,0,0:0:0:0:
97,156,36862,1,0,1:0:0:0:
267,63,37020,1,0,1:0:0:0:
106,194,37177,22,0,P|116:243|132:368,1,159.389996838272,8|0,0:0|1:0,0:0:0:0:
204,223,37651,1,2,0:0:0:0:
342,374,37809,1,8,0:0:0:0:
342,374,37967,1,2,0:0:0:0:
418,183,38125,1,2,1:0:0:0:
290,285,38283,1,2,0:0:0:0:
201,103,38441,2,0,P|192:53|193:11,1,79.6949984191361,10|0,0:0|0:0,0:0:0:0:
327,199,38756,22,0,B|416:230|394:151|494:179,1,159.389996838272,6|8,1:0|0:0,0:0:0:0:
344,79,39230,1,2,0:0:0:0:
204,223,39388,2,0,P|165:209|111:197,1,79.6949984191361,2|0,1:0|1:0,0:0:0:0:
311,86,39704,1,8,0:0:0:0:
311,86,39862,1,2,0:0:0:0:
456,256,40020,22,0,P|387:362|360:358,1,159.389996838272,2|8,1:0|0:0,0:0:0:0:
251,245,40493,1,2,0:0:0:0:
402,145,40651,1,0,1:0:0:0:
214,221,40809,2,0,P|197:171|193:116,1,79.6949984191361,2|8,1:0|0:0,0:0:0:0:
370,284,41125,1,2,0:0:0:0:
152,358,41283,22,0,P|92:319|9:290,1,159.389996838272,2|8,1:0|0:0,0:0:0:0:
190,194,41756,1,0,0:0:0:0:
293,383,41914,1,0,1:0:0:0:
392,195,42072,1,0,1:0:0:0:
175,336,42230,1,8,0:0:0:0:
314,146,42388,38,0,P|304:209|292:301,1,119.542497628704,4|0,1:0|0:0,0:0:0:0:
295,340,42704,1,0,1:0:0:0:
408,111,42862,1,8,0:0:0:0:
231,196,43020,1,0,1:0:0:0:
231,196,43099,1,0,1:0:0:0:
231,196,43177,1,8,0:0:0:0:
417,18,43335,1,8,0:0:0:0:
393,280,43493,1,8,0:0:0:0:
36,40,43809,22,0,L|69:229,1,180.090001511375,6|8,1:0|0:0,0:0:0:0:
148,91,44283,1,2,0:0:0:0:
262,265,44441,1,10,0:0:0:0:
321,39,44599,1,8,0:0:0:0:
238,126,44756,1,0,1:0:0:0:
399,241,44914,22,0,P|457:231|487:208,1,90.0450007556877,10|0,0:0|1:0,0:0:0:0:
368,34,45230,2,0,P|310:44|280:67,1,90.0450007556877,10|0,0:0|1:0,0:0:0:0:
231,322,45546,1,10,0:0:0:0:
372,140,45704,1,8,0:0:0:0:
121,81,45862,1,10,0:0:0:0:
300,238,46020,1,8,0:0:0:0:
300,238,46335,22,0,B|200:227|242:310|124:295,1,180.090001511375,6|8,1:0|0:0,0:0:0:0:
288,332,46809,1,2,0:0:0:0:
123,143,46967,1,10,0:0:0:0:
64,377,47125,1,8,0:0:0:0:
208,281,47283,1,0,1:0:0:0:
19,144,47441,1,8,0:0:0:0:
254,162,47599,22,0,P|312:145|365:115,1,90.0450007556877,2|8,1:0|0:0,0:0:0:0:
450,22,47914,1,0,1:0:0:0:
342,272,48072,1,10,0:0:0:0:
324,52,48230,1,10,0:0:0:0:
480,279,48388,1,8,0:0:0:0:
440,50,48546,1,8,0:0:0:0:
440,50,48862,22,0,P|417:167|410:242,1,180.090001511375,6|8,1:0|0:0,0:0:0:0:
329,94,49335,1,2,0:0:0:0:
199,296,49493,1,10,0:0:0:0:
382,159,49651,1,8,0:0:0:0:
249,217,49809,1,0,1:0:0:0:
429,336,49967,22,0,P|484:325|518:302,1,90.0450007556877,10|0,0:0|1:0,0:0:0:0:
361,132,50283,2,0,P|322:109|277:103,1,90.0450007556877,10|0,0:0|1:0,0:0:0:0:
111,311,50599,1,10,0:0:0:0:
197,75,50756,1,8,0:0:0:0:
269,367,50914,1,10,0:0:0:0:
165,151,51072,1,8,0:0:0:0:
165,151,51388,22,0,B|265:177|251:92|352:110,1,180.090001511375,6|8,1:0|0:0,0:0:0:0:
447,180,51862,1,2,0:0:0:0:
197,75,52020,1,10,0:0:0:0:
295,336,52177,1,8,0:0:0:0:
317,192,52335,1,0,1:0:0:0:
133,328,52493,2,0,P|85:320|46:294,1,90.0450007556877,10|0,0:0|1:0,0:0:0:0:
197,75,52827,21,10,0:0:0:0:
303,306,53003,1,10,0:0:0:0:
303,306,53305,21,8,0:0:0:0:
406,205,53456,1,0,3:0:0:0:
406,205,53531,1,0,3:0:0:0:
406,205,53607,2,0,P|411:174|421:137,1,45.0225003778439,0|0,1:0|3:0,0:0:0:0:
266,251,53758,2,0,P|270:272|273:306,1,45.0225003778439,8|8,0:0|0:0,0:0:0:0:
66,167,53909,22,0,P|49:116|45:62,1,100.395002374455,6|0,1:0|0:0,0:0:0:0:
231,262,54224,2,0,P|225:311|209:359,1,100.395002374455,10|0,0:0|0:0,0:0:0:0:
181,381,54461,1,0,3:0:0:0:
181,381,54540,1,2,1:0:0:0:
215,132,54698,2,0,P|281:108|323:116,1,100.395002374455,2|8,1:0|0:0,0:0:0:0:
439,297,55014,22,0,P|389:298|344:277,1,100.395002374455,2|0,1:0|0:0,0:0:0:0:
311,31,55329,2,0,P|373:63|396:99,1,100.395002374455,2|8,1:0|0:0,0:0:0:0:
274,295,55645,1,2,3:0:0:0:
274,295,55724,1,0,3:0:0:0:
274,295,55803,1,2,1:0:0:0:
135,114,55961,2,0,P|127:64|137:16,1,100.395002374455,2|8,1:0|0:0,0:0:0:0:
286,173,56277,21,2,3:0:0:0:
286,173,56356,1,0,3:0:0:0:
286,173,56435,2,0,P|336:171|380:147,1,100.395002374455,4|0,1:0|0:0,0:0:0:0:
168,10,56750,1,10,0:0:0:0:
116,241,56908,1,2,3:0:0:0:
116,241,56987,1,0,3:0:0:0:
116,241,57066,1,2,1:0:0:0:
234,55,57224,2,0,P|243:106|248:182,1,100.395002374455,2|8,1:0|0:0,0:0:0:0:
392,339,57540,22,0,P|396:289|405:239,1,100.395002374455,6|0,1:0|0:0,0:0:0:0:
264,33,57856,2,0,P|273:84|278:160,1,100.395002374455,2|8,1:0|0:0,0:0:0:0:
423,354,58172,2,0,P|427:304|436:254,1,100.395002374455,2|0,0:0|1:0,0:0:0:0:
511,65,58487,1,2,1:0:0:0:
358,265,58645,1,8,0:0:0:0:
246,77,58803,21,2,3:0:0:0:
246,77,58882,1,0,3:0:0:0:
246,77,58961,2,0,P|182:67|98:164,1,200.790004748909,6|8,1:0|0:0,0:0:0:0:
240,320,59435,1,2,0:0:0:0:
400,149,59593,2,0,P|419:94|419:40,1,100.395002374455,2|0,1:0|1:0,0:0:0:0:
271,306,59908,1,8,0:0:0:0:
103,140,60066,22,0,P|84:85|84:31,1,100.395002374455,0|0,1:0|0:0,0:0:0:0:
269,154,60382,1,0,1:0:0:0:
161,379,60540,2,0,P|107:384|64:358,1,100.395002374455,10|0,0:0|0:0,0:0:0:0:
63,322,60777,1,0,3:0:0:0:
63,322,60856,2,0,P|58:271|46:220,1,100.395002374455,2|0,1:0|1:0,0:0:0:0:
271,275,61171,1,10,0:0:0:0:
271,275,61250,1,0,3:0:0:0:
271,275,61329,1,0,3:0:0:0:
76,75,61487,22,0,P|56:167|40:262,1,150.592503561682,6|0,1:0|0:0,0:0:0:0:
33,294,61803,2,0,P|76:260|129:249,1,100.395002374455,8|0,0:0|0:0,0:0:0:0:
349,298,62119,1,0,1:0:0:0:
197,120,62277,1,0,1:0:0:0:
222,374,62435,1,10,0:0:0:0:
270,170,62593,1,10,0:0:0:0:
270,170,62671,1,8,0:0:0:0:
270,170,62751,2,0,P|276:136|285:106,1,50.1975011872273,8|8,3:0|3:0,0:0:0:0:
409,16,62909,2,0,P|416:40|419:65,1,50.1975011872273,8|8,0:0|0:0,0:0:0:0:
324,243,63066,22,0,P|274:261|206:237,1,100.395002374455,8|0,0:0|0:0,0:0:0:0:
196,223,63303,1,8,0:0:0:0:
196,223,63382,2,0,L|183:155,1,50.1975011872273,8|8,0:0|3:0,0:0:0:0:
93,40,63540,2,0,L|83:89,1,50.1975011872273,8|8,3:0|3:0,0:0:0:0:
26,323,63698,1,12,0:0:0:0:
401,66,64015,22,0,P|347:65|276:83,1,110.744996620331,6|0,1:0|0:0,0:0:0:0:
51,197,64330,21,10,0:0:0:0:
337,350,64488,1,0,1:0:0:0:
271,1,64646,21,10,0:0:0:0:
149,252,64804,1,2,1:0:0:0:
497,182,64962,21,8,0:0:0:0:
221,104,65120,1,2,1:0:0:0:
445,377,65278,21,8,0:0:0:0:
356,138,65436,1,0,1:0:0:0:
157,384,65594,21,8,0:0:0:0:
396,224,65751,1,0,1:0:0:0:
67,90,65909,21,8,0:0:0:0:
229,337,66067,1,0,1:0:0:0:
291,7,66225,21,8,0:0:0:0:
183,269,66383,1,2,1:0:0:0:
464,53,66541,21,14,0:0:0:0:
418,302,66699,1,0,1:0:0:0:
193,103,66857,21,10,0:0:0:0:
447,159,67015,1,0,1:0:0:0:
146,342,67172,21,10,0:0:0:0:
276,120,67330,1,2,1:0:0:0:
464,367,67488,21,8,0:0:0:0:
219,295,67646,1,2,1:0:0:0:
505,85,67804,21,8,0:0:0:0:
363,327,67962,1,0,1:0:0:0:
243,34,68120,21,8,0:0:0:0:
413,259,68278,1,0,1:0:0:0:
60,293,68436,21,8,0:0:0:0:
306,97,68594,1,0,1:0:0:0:
91,376,68751,21,8,0:0:0:0:
155,93,68909,1,0,1:0:0:0:
341,352,69067,21,14,0:0:0:0:
277,69,69225,1,2,1:0:0:0:
74,332,69383,21,10,0:0:0:0:
321,260,69541,1,2,1:0:0:0:
81,19,69699,21,10,0:0:0:0:
156,307,69857,1,2,1:0:0:0:
395,60,70015,21,8,0:0:0:0:
112,128,70172,1,2,1:0:0:0:
412,316,70330,21,8,0:0:0:0:
282,87,70488,1,0,1:0:0:0:
135,384,70646,21,8,0:0:0:0:
357,215,70804,1,0,1:0:0:0:
31,105,70962,21,8,0:0:0:0:
199,332,71120,1,0,1:0:0:0:
319,14,71278,21,8,0:0:0:0:
82,172,71436,1,2,1:0:0:0:
412,278,71594,21,14,0:0:0:0:
118,358,71751,1,0,1:0:0:0:
357,96,71909,21,10,0:0:0:0:
233,329,72067,1,0,1:0:0:0:
77,10,72225,21,10,0:0:0:0:
311,190,72383,1,2,1:0:0:0:
4,336,72541,21,8,0:0:0:0:
120,93,72699,1,2,1:0:0:0:
315,373,72857,21,8,0:0:0:0:
98,254,73015,1,0,1:0:0:0:
357,96,73172,22,0,P|414:79|468:77,1,110.744996620331,8|2,0:0|0:0,0:0:0:0:
505,303,73487,2,0,P|495:328|489:355,1,55.3724983101654,10|0,3:2|3:0,0:0:0:0:
361,251,73645,2,0,P|355:223|346:197,1,55.3724983101654,2|0,3:0|3:0,0:0:0:0:
199,107,73803,2,0,P|193:134|184:160,3,55.3724983101654,2|0|0|0,3:0|3:0|3:0|3:0,3:0:0:0:
124,222,74119,22,0,P|139:281|146:342,1,110.744996620331,6|0,1:0|0:0,0:0:0:0:
360,95,74435,21,10,0:0:0:0:
110,139,74593,1,0,1:0:0:0:
415,315,74750,21,10,0:0:0:0:
282,108,74908,1,2,1:0:0:0:
125,372,75066,21,8,0:0:0:0:
357,218,75224,1,2,1:0:0:0:
27,86,75382,21,8,0:0:0:0:
197,322,75540,1,0,1:0:0:0:
327,0,75698,21,8,0:0:0:0:
81,162,75856,1,0,1:0:0:0:
436,233,76014,21,8,0:0:0:0:
237,63,76171,1,0,1:0:0:0:
125,372,76329,21,8,0:0:0:0:
331,236,76487,1,2,1:0:0:0:
116,56,76645,22,8,P|56:34|-1:26,1,110.744996620331,14|0,0:0|1:0,0:0:0:0:
360,92,76961,21,10,0:0:0:0:
181,343,77119,1,0,1:0:0:0:
118,19,77277,21,10,0:0:0:0:
315,163,77435,1,2,1:0:0:0:
11,299,77593,21,8,0:0:0:0:
192,69,77750,1,2,1:0:0:0:
314,375,77908,21,8,0:0:0:0:
99,166,78066,1,0,1:0:0:0:
444,86,78224,21,8,0:0:0:0:
251,317,78382,1,0,1:0:0:0:
122,0,78540,21,8,0:0:0:0:
371,173,78698,1,0,1:0:0:0:
40,302,78856,21,8,0:0:0:0:
234,68,79014,1,0,1:0:0:0:
364,319,79172,22,8,P|425:303|464:268,1,110.744996620331,14|2,0:0|1:0,0:0:0:0:
78,232,79487,21,8,0:0:0:0:
325,56,79645,1,2,1:0:0:0:
279,374,79803,21,10,0:0:0:0:
166,109,79961,1,2,1:0:0:0:
487,193,80119,21,8,0:0:0:0:
244,304,80277,1,2,1:0:0:0:
491,81,80435,21,8,0:0:0:0:
373,361,80593,1,0,1:0:0:0:
231,38,80750,21,8,0:0:0:0:
409,277,80908,1,0,1:0:0:0:
57,228,81066,21,8,0:0:0:0:
279,101,81224,1,0,1:0:0:0:
122,381,81382,1,8,0:0:0:0:
122,381,81698,22,0,P|154:292|163:244,1,110.744996620331,14|0,0:0|0:0,0:0:0:0:
231,38,82014,2,0,P|245:91|266:142,1,110.744996620331,14|0,0:0|0:0,0:0:0:0:
408,360,82329,1,10,0:0:0:0:
512,63,82487,1,8,0:0:0:0:
507,357,82645,1,10,0:0:0:0:
436,24,82803,22,0,B|125:4|423:351|13:335,1,595.630003651306,14|0,0:0|0:0,0:0:0:0:
