osu file format v14

[General]
AudioFilename: audio.mp3
AudioLeadIn: 0
PreviewTime: 63698
Countdown: 0
SampleSet: Soft
StackLeniency: 0.7
Mode: 0
LetterboxInBreaks: 0
WidescreenStoryboard: 0

[Editor]
Bookmarks: 194072
DistanceSpacing: 1
BeatDivisor: 2
GridSize: 32
TimelineZoom: 2.2

[Metadata]
Title:Shitteru? Madousho wa Donki ni mo Naru no yo
TitleUnicode:知ってる?魔導書は鈍器にもなるのよ
Artist:KISIDA KYODAN & THE AKEBOSI ROCKETS
ArtistUnicode:岸田教団&THE明星ロケッツ
Creator:SMOKELIND
Version:hard?
Source:東方紅魔郷 ~ the Embodiment of Scarlet Devil.
Tags:japanese jp rock j-rock kowari Kishida and Akeboshi 東方Project th touhou ichigo patchouli knowledge stage 4 boss theme ZUN ラクトガール ~ 少女密室
BeatmapID:1925406
BeatmapSetID:922004

[Difficulty]
HPDrainRate:4.2
CircleSize:3.4
OverallDifficulty:6
ApproachRate:7.7
SliderMultiplier:1.37
SliderTickRate:1

[Events]
//Background and Video events
0,0,"HaruLoli.jpg",0,0
//Break Periods
2,1073,4808
//Storyboard Layer 0 (Background)
//Storyboard Layer 1 (Fail)
//Storyboard Layer 2 (Pass)
//Storyboard Layer 3 (Foreground)
//Storyboard Sound Samples

[TimingPoints]
-390,315.789473684211,4,2,7,47,1,0
873,-149.253731343284,4,2,7,47,0,0
1188,300,4,2,7,47,1,0
1338,324.324324324324,4,2,7,47,1,0
1500,300,4,2,7,47,1,0
1799,308.483290488432,4,2,7,47,1,0
1799,-149.253731343284,4,2,7,47,0,0
2107,312.5,4,2,7,47,1,0
2107,-149.253731343284,4,2,7,47,0,0
2575,340.909090909091,4,2,7,47,1,0
2745,315.789473684211,4,2,7,47,1,0
2745,-149.253731343284,4,2,7,47,0,0
3376,317.460317460317,4,2,7,47,1,0
3376,-149.253731343284,4,2,7,47,0,0
4010,314.13612565445,4,2,7,47,1,0
4638,319.148936170213,4,2,7,47,1,0
4638,-149.253731343284,4,2,7,47,0,0
5435,337.078651685393,4,2,7,47,1,0
5603,312.5,4,2,7,47,1,0
5915,315.789473684211,4,2,7,57,1,0
5915,-149.253731343284,4,2,7,57,0,0
9704,-114.942528735632,4,2,7,77,0,0
23599,-129.87012987013,4,2,7,57,0,0
43809,-114.942528735633,4,2,7,77,0,0
52651,352.941176470588,4,2,7,77,1,0
53003,302.267002518892,4,2,7,77,1,0
53003,-103.092783505155,4,2,7,77,0,0
53607,-114.942528735633,4,2,7,77,0,0
53909,315.789473684211,4,2,7,87,1,0
53909,-103.092783505155,4,2,7,87,0,0
64014,-93.4579439252339,4,2,7,97,0,0
87856,292.682926829268,4,2,7,27,1,0
87856,-212.765957446809,4,2,7,27,0,0
88148,315.789473684211,4,2,7,27,1,0
88148,-1000,4,2,7,27,0,0

[Colours]
Combo1 : 255,255,170
Combo2 : 255,140,79
Combo3 : 255,200,170
Combo4 : 255,255,79

[HitObjects]
140,72,715,5,8,0:0:0:0:
140,72,794,1,8,0:0:0:0:
140,72,873,1,2,1:0:0:0:
279,52,5603,5,10,0:0:0:0:
279,52,5915,22,0,L|380:37,2,91.789995658127,4|0|0,1:0|1:0|1:0,0:0:0:0:
151,72,6862,1,0,1:0:0:0:
175,197,7178,2,0,L|84:210,2,91.789995658127,0|0|0,1:0|1:0|1:0,0:0:0:0:
302,177,8125,1,0,1:0:0:0:
246,292,8441,2,0,L|155:305,2,91.789995658127,0|0|0,1:0|1:0|1:0,0:0:0:0:
373,274,9388,1,2,1:0:0:0:
465,135,9704,5,8,0:0:0:0:
402,79,9862,2,0,P|371:70|335:67,1,59.5950005001411,8|0,0:0|1:0,0:0:0:0:
269,104,10178,1,8,0:0:0:0:
194,141,10336,2,0,P|164:137|135:129,1,59.5950005001411,8|8,0:0|0:0,0:0:0:0:
79,66,10651,1,8,0:0:0:0:
79,66,10967,21,6,1:0:0:0:
104,145,11125,2,0,P|112:182|115:227,1,59.5950005001411,2|8,0:0|0:0,0:0:0:0:
93,284,11441,1,2,1:0:0:0:
159,333,11599,2,0,P|188:329|217:322,1,59.5950005001411,2|2,0:0|1:0,0:0:0:0:
286,274,11915,2,0,P|315:277|344:284,1,59.5950005001411,10|0,0:0|0:0,0:0:0:0:
419,322,12230,21,2,1:0:0:0:
466,252,12388,2,0,P|467:211|461:172,1,59.5950005001411,2|8,1:0|0:0,0:0:0:0:
425,118,12704,1,2,0:0:0:0:
369,180,12862,2,0,P|339:180|300:171,1,59.5950005001411,2|2,1:0|1:0,0:0:0:0:
245,121,13178,2,0,P|215:120|186:126,1,59.5950005001411,10|0,0:0|0:0,0:0:0:0:
135,194,13493,21,6,1:0:0:0:
59,159,13651,2,0,P|49:118|48:80,1,59.5950005001411,2|8,1:0|0:0,0:0:0:0:
88,27,13967,1,2,1:0:0:0:
162,64,14125,2,0,P|197:72|226:72,1,59.5950005001411,2|2,0:0|1:0,0:0:0:0:
295,33,14441,2,0,P|323:25|353:24,1,59.5950005001411,10|0,0:0|0:0,0:0:0:0:
428,61,14757,21,2,1:0:0:0:
377,127,14915,1,2,1:0:0:0:
420,197,15072,2,0,P|412:225|411:255,1,59.5950005001411,10|10,0:0|0:0,0:0:0:0:
445,331,15388,1,2,1:0:0:0:
361,332,15546,1,0,3:0:0:0:
361,332,15625,1,0,3:0:0:0:
361,332,15704,2,0,L|321:354,3,29.7975002500706,2|0|8|8,1:0|3:0|0:0|0:0,0:0:0:0:
299,370,16020,21,6,1:0:0:0:
227,327,16178,2,0,P|196:317|163:315,1,59.5950005001411,2|8,0:0|0:0,0:0:0:0:
93,352,16493,1,2,1:0:0:0:
40,286,16651,2,0,P|30:255|28:222,1,59.5950005001411,2|2,0:0|1:0,0:0:0:0:
96,180,16967,2,0,P|105:151|108:122,1,59.5950005001411,10|0,0:0|3:0,0:0:0:0:
86,41,17283,21,0,1:0:0:0:
166,64,17441,2,0,P|195:61|223:51,1,59.5950005001411,2|8,1:0|0:0,0:0:0:0:
300,17,17757,1,2,0:0:0:0:
378,45,17915,2,0,P|367:74|361:112,1,59.5950005001411,2|2,1:0|1:0,0:0:0:0:
299,158,18230,2,0,P|309:185|315:215,1,59.5950005001411,10|0,0:0|3:0,0:0:0:0:
275,289,18546,21,6,1:0:0:0:
334,347,18704,2,0,P|359:356|393:355,1,59.5950005001411,0|8,0:0|0:0,0:0:0:0:
459,306,19020,1,2,1:0:0:0:
428,229,19178,2,0,P|420:192|420:153,1,59.5950005001411,2|2,0:0|1:0,0:0:0:0:
452,93,19493,2,0,P|422:90|393:83,1,59.5950005001411,10|0,0:0|0:0,0:0:0:0:
316,49,19809,21,2,1:0:0:0:
237,8,19967,1,2,1:0:0:0:
177,67,20125,2,0,P|184:94|189:136,1,59.5950005001411,10|0,0:0|3:0,0:0:0:0:
183,167,20362,1,0,3:0:0:0:
183,167,20441,2,0,P|175:194|171:236,1,59.5950005001411,2|0,1:0|1:0,0:0:0:0:
199,303,20757,2,0,P|227:310|257:314,1,59.5950005001411,10|0,0:0|3:0,0:0:0:0:
292,291,20993,21,0,3:0:0:0:
292,291,21072,2,0,L|308:244,5,29.7975002500706,2|0|0|0|0|0,1:0|0:0|3:0|3:0|3:0|3:0,0:0:0:0:
332,233,21546,2,0,L|328:181,5,29.7975002500706,2|0|0|0|0|0,1:0|3:0|3:0|3:0|3:0|3:0,0:0:0:0:
300,172,22020,2,0,L|304:120,5,29.7975002500706,2|0|0|0|0|0,1:0|3:0|3:0|3:0|3:0|3:0,0:0:0:0:
343,135,22493,2,0,L|339:83,5,29.7975002500706,2|0|0|0|0|0,1:0|3:0|3:0|3:0|3:0|3:0,0:0:0:0:
372,77,22967,22,0,L|421:60,7,29.7975002500706,2|2|2|2|2|0|8|8,1:0|3:0|3:0|3:0|1:0|3:0|0:0|0:0,0:0:0:0:
434,82,23599,6,0,P|422:137|418:202,1,105.489997907455,6|8,1:0|0:0,0:0:0:0:
471,251,24072,1,2,3:0:0:0:
434,327,24230,2,0,P|384:331|326:305,1,105.489997907455,2|8,1:0|0:0,0:0:0:0:
270,254,24704,1,2,0:0:0:0:
221,323,24862,22,0,B|158:334|177:295|100:297,1,105.489997907455,2|8,1:0|0:0,0:0:0:0:
47,338,25336,1,2,0:0:0:0:
96,269,25493,2,0,P|115:206|120:148,1,105.489997907455,2|8,1:0|0:0,0:0:0:0:
81,90,25967,1,0,0:0:0:0:
165,97,26125,22,0,P|214:76|278:72,1,105.489997907455,2|8,1:0|0:0,0:0:0:0:
346,95,26599,1,0,0:0:0:0:
287,155,26757,2,0,P|275:185|271:226,1,52.7449989537277,0|0,1:0|1:0,0:0:0:0:
294,286,27072,22,0,P|341:299|393:263,1,105.489997907455,8|0,0:0|1:0,0:0:0:0:
427,196,27546,1,2,0:0:0:0:
434,111,27704,2,0,P|462:99|491:93,2,52.7449989537277,10|2|2,0:0|0:0|1:0,0:0:0:0:
356,144,28178,1,2,1:0:0:0:
272,131,28336,2,0,P|257:104|245:70,1,52.7449989537277,10|0,0:0|0:0,0:0:0:0:
175,41,28651,22,0,P|154:85|134:160,1,105.489997907455,2|8,1:0|0:0,0:0:0:0:
143,224,29125,1,2,0:0:0:0:
204,282,29283,2,0,P|248:261|323:241,1,105.489997907455,2|8,1:0|0:0,0:0:0:0:
385,260,29757,1,2,0:0:0:0:
386,344,29915,22,0,P|338:334|260:333,1,105.489997907455,2|8,1:0|0:0,0:0:0:0:
202,361,30388,2,0,P|172:350|132:346,1,52.7449989537277,2|0,0:0|1:0,0:0:0:0:
94,283,30704,2,0,P|119:277|144:269,1,52.7449989537277,2|8,1:0|0:0,0:0:0:0:
189,196,31020,1,2,0:0:0:0:
143,125,31178,22,0,P|167:70|240:52,1,105.489997907455,2|8,1:0|0:0,0:0:0:0:
270,105,31651,1,0,0:0:0:0:
333,160,31809,2,0,P|364:161|398:170,1,52.7449989537277,0|0,1:0|1:0,0:0:0:0:
424,241,32125,2,0,P|397:242|371:247,1,52.7449989537277,8|0,0:0|0:0,0:0:0:0:
300,293,32441,21,0,1:0:0:0:
256,365,32599,1,0,1:0:0:0:
182,324,32757,2,0,P|170:294|168:257,1,52.7449989537277,8|0,0:0|3:0,0:0:0:0:
160,231,32993,1,0,3:0:0:0:
160,231,33072,1,8,0:0:0:0:
197,155,33230,1,8,0:0:0:0:
141,91,33388,2,0,L|136:65,3,26.3724994768639,8|8|8|8,3:2|3:0|3:0|3:0,0:0:0:0:
154,26,33704,22,0,B|210:21|190:55|254:47,1,105.489997907455,6|8,1:0|0:0,0:0:0:0:
334,20,34178,1,2,0:0:0:0:
390,82,34336,2,0,P|375:125|354:202,1,105.489997907455,2|8,1:0|0:0,0:0:0:0:
406,253,34809,1,2,0:0:0:0:
377,332,34967,22,0,P|319:342|273:296,1,105.489997907455,2|8,1:0|0:0,0:0:0:0:
234,246,35441,1,2,0:0:0:0:
252,163,35599,2,0,P|295:136|345:147,1,105.489997907455,2|8,1:0|0:0,0:0:0:0:
392,217,36072,1,0,0:0:0:0:
436,145,36230,22,0,P|421:99|364:61,1,105.489997907455,2|8,1:0|0:0,0:0:0:0:
293,47,36704,1,0,0:0:0:0:
242,111,36862,2,0,P|250:146|253:183,1,52.7449989537277,0|0,1:0|1:0,0:0:0:0:
241,246,37178,22,0,P|191:226|136:246,1,105.489997907455,8|0,0:0|1:0,0:0:0:0:
87,303,37651,1,2,0:0:0:0:
7,332,37809,2,0,P|9:364|18:397,2,52.7449989537277,8|2|2,0:0|0:0|1:0,0:0:0:0:
24,248,38283,1,2,0:0:0:0:
67,175,38441,2,0,P|75:140|79:108,1,52.7449989537277,10|0,0:0|0:0,0:0:0:0:
16,65,38757,22,0,P|59:40|113:45,1,105.489997907455,6|8,1:0|0:0,0:0:0:0:
164,112,39230,1,2,0:0:0:0:
219,48,39388,2,0,P|270:42|315:68,1,105.489997907455,2|8,1:0|0:0,0:0:0:0:
290,149,39862,1,2,0:0:0:0:
319,228,40020,22,0,P|368:211|399:170,1,105.489997907455,2|8,1:0|0:0,0:0:0:0:
478,141,40493,2,0,P|482:169|489:200,1,52.7449989537277,2|0,0:0|1:0,0:0:0:0:
445,267,40809,2,0,P|440:292|435:318,1,52.7449989537277,2|8,1:0|0:0,0:0:0:0:
368,372,41125,1,2,0:0:0:0:
296,326,41283,22,0,B|236:319|257:350|185:354,1,105.489997907455,2|8,1:0|0:0,0:0:0:0:
112,349,41757,1,0,0:0:0:0:
155,276,41915,2,0,P|162:246|163:213,1,52.7449989537277,0|0,1:0|1:0,0:0:0:0:
130,145,42230,1,8,0:0:0:0:
186,82,42388,38,0,P|238:52|305:58,1,105.489997907455,4|0,1:0|1:0,0:0:0:0:
339,113,42862,1,8,0:0:0:0:
407,64,43020,2,0,L|413:22,2,26.3724994768639,0|0|8,1:0|1:0|0:0,0:0:0:0:
415,147,43336,1,8,0:0:0:0:
491,182,43493,1,8,0:0:0:0:
491,182,43809,22,0,P|467:230|452:303,1,119.190001000282,6|8,1:0|0:0,0:0:0:0:
365,333,44283,1,2,0:0:0:0:
365,333,44441,1,10,0:0:0:0:
272,355,44599,2,0,L|208:363,1,59.5950005001411,8|0,0:0|1:0,0:0:0:0:
174,274,44915,22,0,L|233:281,1,59.5950005001411,10|0,0:0|1:0,0:0:0:0:
195,192,45230,2,0,L|135:199,1,59.5950005001411,10|0,0:0|1:0,0:0:0:0:
106,107,45546,2,0,L|166:114,1,59.5950005001411,10|8,0:0|0:0,0:0:0:0:
260,128,45862,1,10,0:0:0:0:
260,128,46020,1,8,0:0:0:0:
450,119,46336,22,0,P|407:166|329:154,1,119.190001000282,6|8,1:0|0:0,0:0:0:0:
295,92,46809,1,2,0:0:0:0:
295,92,46967,1,10,0:0:0:0:
229,161,47125,2,0,L|236:227,1,59.5950005001411,8|0,0:0|1:0,0:0:0:0:
214,313,47441,1,8,0:0:0:0:
303,347,47599,22,0,L|362:340,1,59.5950005001411,2|8,1:0|0:0,0:0:0:0:
430,273,47915,1,0,1:0:0:0:
430,273,48072,1,10,0:0:0:0:
430,177,48230,2,0,L|353:170,1,59.5950005001411,10|8,0:0|0:0,0:0:0:0:
274,177,48546,1,8,0:0:0:0:
175,31,48862,22,0,P|192:115|195:169,1,119.190001000282,6|8,1:0|0:0,0:0:0:0:
167,239,49336,1,2,0:0:0:0:
167,239,49493,1,10,0:0:0:0:
100,307,49651,2,0,L|41:297,1,59.5950005001411,8|0,0:0|1:0,0:0:0:0:
7,207,49967,22,0,L|17:148,1,59.5950005001411,10|0,0:0|1:0,0:0:0:0:
96,93,50283,2,0,L|106:152,1,59.5950005001411,10|0,0:0|1:0,0:0:0:0:
193,190,50599,2,0,L|203:131,1,59.5950005001411,10|8,0:0|0:0,0:0:0:0:
220,37,50915,1,10,0:0:0:0:
220,37,51072,1,8,0:0:0:0:
316,201,51388,22,0,B|385:207|349:149|438:156,1,119.190001000282,6|8,1:0|0:0,0:0:0:0:
502,203,51862,1,2,0:0:0:0:
502,203,52020,1,10,0:0:0:0:
430,264,52178,2,0,L|413:345,1,59.5950005001411,8|0,0:0|1:0,0:0:0:0:
325,349,52493,22,0,P|296:333|259:327,1,59.5950005001411,10|0,0:0|1:0,0:0:0:0:
174,339,52827,1,10,0:0:0:0:
86,378,53003,1,10,0:0:0:0:
43,192,53305,21,8,0:0:0:0:
101,116,53456,1,0,3:0:0:0:
101,116,53531,1,0,3:0:0:0:
101,116,53607,2,0,L|108:69,3,29.7975002500706,0|0|8|8,1:0|3:0|0:0|0:0,0:0:0:0:
133,49,53909,22,0,P|175:34|203:34,1,66.4450015714989,6|0,1:0|0:0,0:0:0:0:
265,96,54224,2,0,P|295:108|328:111,1,66.4450015714989,10|0,0:0|0:0,0:0:0:0:
398,49,54540,1,2,1:0:0:0:
469,109,54698,2,0,P|481:139|484:172,1,66.4450015714989,2|8,1:0|0:0,0:0:0:0:
440,255,55014,22,0,P|409:242|376:239,1,66.4450015714989,2|0,1:0|0:0,0:0:0:0:
309,304,55330,2,0,P|278:316|245:319,1,66.4450015714989,2|8,1:0|0:0,0:0:0:0:
183,248,55645,2,0,L|192:209,2,33.2225007857495,2|0|2,3:0|3:0|1:0,0:0:0:0:
99,292,55961,2,0,P|66:285|38:268,1,66.4450015714989,2|8,1:0|0:0,0:0:0:0:
40,174,56277,21,2,3:0:0:0:
40,174,56356,1,0,3:0:0:0:
40,174,56435,2,0,P|55:131|56:92,1,66.4450015714989,4|0,1:0|0:0,0:0:0:0:
138,64,56751,2,0,P|142:96|155:127,1,66.4450015714989,10|2,0:0|3:0,0:0:0:0:
237,172,57066,1,2,1:0:0:0:
286,93,57224,2,0,P|316:80|349:75,1,66.4450015714989,2|8,1:0|0:0,0:0:0:0:
441,94,57540,22,0,P|428:124|423:157,1,66.4450015714989,6|0,1:0|0:0,0:0:0:0:
342,203,57856,2,0,P|354:233|359:266,1,66.4450015714989,2|8,1:0|0:0,0:0:0:0:
332,355,58172,2,0,P|299:350|268:337,1,66.4450015714989,2|0,0:0|1:0,0:0:0:0:
213,262,58487,2,0,P|180:266|149:279,1,66.4450015714989,2|8,1:0|0:0,0:0:0:0:
72,333,58803,21,2,3:0:0:0:
72,333,58882,1,0,3:0:0:0:
72,333,58961,2,0,P|84:257|93:182,1,132.890003142998,6|8,1:0|0:0,0:0:0:0:
94,107,59435,1,2,0:0:0:0:
164,167,59593,2,0,P|197:176|239:175,1,66.4450015714989,2|0,1:0|1:0,0:0:0:0:
307,126,59909,1,8,0:0:0:0:
350,208,60066,22,0,P|383:207|414:197,1,66.4450015714989,0|0,1:0|0:0,0:0:0:0:
455,113,60382,1,0,1:0:0:0:
390,46,60540,2,0,P|356:34|309:31,1,66.4450015714989,10|0,0:0|0:0,0:0:0:0:
237,59,60856,2,0,P|204:54|172:43,1,66.4450015714989,2|0,1:0|1:0,0:0:0:0:
81,27,61172,2,0,L|50:-17,2,33.2225007857495,10|0|0,0:0|3:0|3:0,0:0:0:0:
41,111,61487,22,0,P|51:142|57:180,1,66.4450015714989,6|0,1:0|0:0,0:0:0:0:
146,201,61803,2,0,P|151:168|161:136,1,66.4450015714989,8|0,0:0|0:0,0:0:0:0:
247,101,62119,2,0,P|257:132|262:165,1,66.4450015714989,0|0,1:0|1:0,0:0:0:0:
273,258,62435,1,10,0:0:0:0:
359,216,62593,1,10,0:0:0:0:
359,216,62672,1,8,0:0:0:0:
359,216,62751,2,0,L|408:208,3,33.2225007857495,8|8|8|8,3:0|3:0|0:0|0:0,0:0:0:0:
438,210,63066,22,0,P|468:144|460:90,1,99.6675023572484,8|8,0:0|0:0,0:0:0:0:
443,77,63382,2,0,L|454:26,3,33.2225007857495,8|8|8|8,0:0|3:0|3:0|3:0,0:0:0:0:
427,3,63698,1,12,0:0:0:0:
280,146,64014,22,0,P|250:157|196:163,1,73.2949977632142,6|0,1:0|0:0,0:0:0:0:
136,90,64330,2,0,P|101:77|65:72,1,73.2949977632142,10|0,0:0|1:0,0:0:0:0:
6,157,64645,1,10,0:0:0:0:
70,236,64803,2,0,P|83:270|87:317,1,73.2949977632142,2|8,1:0|0:0,0:0:0:0:
178,355,65119,22,0,P|182:318|195:284,1,73.2949977632142,2|8,1:0|0:0,0:0:0:0:
272,216,65435,1,0,1:0:0:0:
331,299,65593,2,0,P|364:315|402:319,1,73.2949977632142,8|0,0:0|1:0,0:0:0:0:
465,240,65909,2,0,P|470:194|482:150,1,73.2949977632142,8|0,0:0|1:0,0:0:0:0:
492,65,66224,1,8,0:0:0:0:
411,4,66382,1,2,1:0:0:0:
331,69,66540,22,0,P|339:103|342:147,1,73.2949977632142,14|0,0:0|1:0,0:0:0:0:
272,216,66856,2,0,P|263:250|260:294,1,73.2949977632142,10|0,0:0|1:0,0:0:0:0:
314,375,67172,1,10,0:0:0:0:
211,382,67330,2,0,P|175:371|140:346,1,73.2949977632142,2|8,1:0|0:0,0:0:0:0:
76,274,67645,22,0,P|72:237|58:203,1,73.2949977632142,2|8,1:0|0:0,0:0:0:0:
77,102,67961,1,0,1:0:0:0:
162,158,68119,2,0,P|198:154|232:140,1,73.2949977632142,8|0,0:0|1:0,0:0:0:0:
308,71,68435,2,0,P|341:84|378:88,1,73.2949977632142,8|0,0:0|1:0,0:0:0:0:
478,66,68751,2,0,P|464:99|460:136,1,73.2949977632142,8|0,0:0|1:0,0:0:0:0:
482,237,69066,21,14,0:0:0:0:
399,297,69224,2,0,P|362:296|316:283,1,73.2949977632142,2|10,1:0|0:0,0:0:0:0:
248,219,69540,1,2,1:0:0:0:
179,295,69698,1,10,0:0:0:0:
129,205,69856,2,0,P|130:168|143:122,1,73.2949977632142,2|8,1:0|0:0,0:0:0:0:
192,45,70172,22,0,P|155:44|109:31,1,73.2949977632142,2|8,1:0|0:0,0:0:0:0:
18,17,70487,1,0,1:0:0:0:
71,104,70645,2,0,P|79:139|80:176,1,73.2949977632142,8|0,0:0|1:0,0:0:0:0:
168,230,70961,2,0,P|159:265|158:302,1,73.2949977632142,8|0,0:0|1:0,0:0:0:0:
230,375,71277,1,8,0:0:0:0:
293,294,71435,1,2,1:0:0:0:
361,370,71593,22,0,P|399:368|456:336,1,73.2949977632142,14|0,0:0|1:0,0:0:0:0:
433,252,71909,2,0,P|437:215|452:182,1,73.2949977632142,10|0,0:0|1:0,0:0:0:0:
509,96,72224,1,10,0:0:0:0:
407,113,72382,2,0,P|367:112|320:94,1,73.2949977632142,2|8,1:0|0:0,0:0:0:0:
241,59,72698,22,0,P|250:99|253:140,1,73.2949977632142,2|8,1:0|0:0,0:0:0:0:
224,230,73014,1,0,1:0:0:0:
157,152,73172,2,0,P|120:155|84:163,1,73.2949977632142,8|2,0:0|0:0,0:0:0:0:
19,243,73487,2,0,L|9:287,3,36.6474988816071,10|0|2|0,3:2|3:0|3:0|3:0,0:0:0:0:
50,312,73803,2,0,L|60:356,3,36.6474988816071,2|0|0|0,3:0|3:0|3:0|3:0,0:0:0:0:
107,364,74119,22,0,P|144:340|198:333,1,73.2949977632142,6|0,1:0|0:0,0:0:0:0:
273,313,74435,2,0,P|302:333|337:344,1,73.2949977632142,10|0,0:0|1:0,0:0:0:0:
423,286,74751,1,10,0:0:0:0:
341,223,74909,2,0,P|324:190|319:154,1,73.2949977632142,2|8,1:0|0:0,0:0:0:0:
372,65,75224,22,0,P|335:59|303:43,1,73.2949977632142,2|8,1:0|0:0,0:0:0:0:
206,7,75540,1,0,1:0:0:0:
130,76,75698,2,0,P|113:108|108:144,1,73.2949977632142,8|0,0:0|1:0,0:0:0:0:
205,178,76014,2,0,P|221:210|226:246,1,73.2949977632142,8|0,0:0|1:0,0:0:0:0:
181,339,76330,1,8,0:0:0:0:
80,360,76487,1,2,1:0:0:0:
1,294,76645,22,0,P|6:257|22:225,1,73.2949977632142,14|0,0:0|1:0,0:0:0:0:
116,184,76961,2,0,P|111:147|95:115,1,73.2949977632142,10|0,0:0|1:0,0:0:0:0:
22,42,77277,1,10,0:0:0:0:
111,91,77435,2,0,P|147:86|179:70,1,73.2949977632142,2|8,1:0|0:0,0:0:0:0:
270,22,77751,22,0,P|302:38|338:42,1,73.2949977632142,2|8,1:0|0:0,0:0:0:0:
440,24,78066,1,0,1:0:0:0:
384,110,78224,2,0,P|372:144|368:189,1,73.2949977632142,8|0,0:0|1:0,0:0:0:0:
282,239,78540,2,0,P|277:202|265:168,1,73.2949977632142,8|0,0:0|1:0,0:0:0:0:
185,103,78856,2,0,P|180:139|168:173,1,73.2949977632142,8|0,0:0|1:0,0:0:0:0:
85,233,79172,21,14,0:0:0:0:
130,325,79330,2,0,B|181:325|164:299|228:301,1,73.2949977632142,2|8,1:0|0:0,0:0:0:0:
301,295,79645,1,2,1:0:0:0:
379,361,79803,1,10,0:0:0:0:
456,293,79961,2,0,P|469:254|470:214,1,73.2949977632142,2|8,1:0|0:0,0:0:0:0:
385,163,80277,22,0,P|372:128|370:92,1,73.2949977632142,2|8,1:0|0:0,0:0:0:0:
443,18,80593,1,0,1:0:0:0:
351,62,80751,2,0,P|314:59|280:47,1,73.2949977632142,8|0,0:0|1:0,0:0:0:0:
180,19,81066,1,8,0:0:0:0:
89,67,81224,1,0,1:0:0:0:
156,144,81382,2,0,P|165:181|165:232,1,73.2949977632142,8|0,0:0|0:0,0:0:0:0:
123,309,81698,22,0,P|165:298|206:292,1,73.2949977632142,14|0,0:0|0:0,0:0:0:0:
288,250,82014,2,0,P|324:256|359:265,1,73.2949977632142,14|0,0:0|0:0,0:0:0:0:
441,327,82330,1,10,0:0:0:0:
441,327,82487,1,8,0:0:0:0:
442,224,82645,1,10,0:0:0:0:
442,224,82803,1,14,0:0:0:0:
