osu file format v14

[General]
AudioFilename: audio.mp3
AudioLeadIn: 0
PreviewTime: 63698
Countdown: 0
SampleSet: Soft
StackLeniency: 0.7
Mode: 0
LetterboxInBreaks: 0
WidescreenStoryboard: 1

[Editor]
DistanceSpacing: 1.1
BeatDivisor: 4
GridSize: 8
TimelineZoom: 2.199999

[Metadata]
Title:Shitteru? Madousho wa Donki ni mo Naru no yo
TitleUnicode:知ってる?魔導書は鈍器にもなるのよ
Artist:KISIDA KYODAN & THE AKEBOSI ROCKETS
ArtistUnicode:岸田教団&THE明星ロケッツ
Creator:404 AimNotFound
Version:Expert
Source:東方紅魔郷 ~ the Embodiment of Scarlet Devil.
Tags:ZUN ラクトガール ~ 少女密室
BeatmapID:2086896
BeatmapSetID:997729

[Difficulty]
HPDrainRate:5.4
CircleSize:4.2
OverallDifficulty:8.5
ApproachRate:9.4
SliderMultiplier:2.07
SliderTickRate:1

[Events]
//Background and Video events
0,0,"2bc573ddb0f57b3cd3a03947e4e7245f.jpg",0,0
//Break Periods
//Storyboard Layer 0 (Background)
//Storyboard Layer 1 (Fail)
//Storyboard Layer 2 (Pass)
//Storyboard Layer 3 (Foreground)
//Storyboard Sound Samples

[TimingPoints]
-390,315.789473684211,4,2,7,47,1,0
1188,300,4,2,7,47,1,0
1338,324.324324324324,4,2,7,47,1,0
1500,300,4,2,7,47,1,0
1799,308.483290488432,4,2,7,47,1,0
2107,312.5,4,2,7,47,1,0
2575,340.909090909091,4,2,7,47,1,0
2745,315.789473684211,4,2,7,47,1,0
3376,317.460317460317,4,2,7,47,1,0
4010,314.13612565445,4,2,7,47,1,0
4638,319.148936170213,4,2,7,47,1,0
5435,337.078651685393,4,2,7,47,1,0
5603,312.5,4,2,7,47,1,0
5915,315.789473684211,4,2,7,57,1,0
9704,-64.5161290322581,4,2,7,57,0,0
12230,-76.3358778625954,4,2,7,57,0,0
13493,-60.9756097560976,4,2,7,57,0,0
15388,-75.187969924812,4,2,7,57,0,0
16336,-62.5,4,2,7,57,0,0
18546,-80.6451612903226,4,2,7,57,0,0
19493,-66.6666666666667,4,2,7,57,0,0
20757,-57.8034682080925,4,2,7,57,0,0
21388,-69.9300699300699,4,2,7,57,0,0
23599,-100,4,2,7,57,0,0
26757,-75.187969924812,4,2,7,57,0,0
28651,-90.9090909090909,4,2,7,57,0,0
32283,-74.0740740740741,4,2,7,57,0,0
33704,-94.3396226415094,4,2,7,57,0,0
34178,-68.4931506849315,4,2,7,57,0,0
38757,-76.9230769230769,4,2,7,57,0,0
39388,-125,4,2,7,57,0,0
39704,-89.2857142857143,4,2,7,57,0,0
40020,-73.5294117647059,4,2,7,57,0,0
41599,-73.5294117647059,4,2,7,57,0,0
43809,-181.818181818182,4,2,7,57,0,0
44125,-66.6666666666667,4,2,7,57,0,0
44441,-66.6666666666667,4,2,7,57,0,0
44915,-1000,4,2,7,57,0,0
46336,-166.666666666667,4,2,7,57,0,0
46651,-111.111111111111,4,2,7,57,0,0
46967,-79.3650793650794,4,2,7,57,0,0
48862,-166.666666666667,4,2,7,57,0,0
49178,-111.111111111111,4,2,7,57,0,0
51072,-79.3650793650794,4,2,7,57,0,0
51388,-66.6666666666667,4,2,7,57,0,0
52651,352.941176470588,4,2,7,77,1,0
53003,302.267002518892,4,2,7,77,1,0
53305,-71.4285714285714,4,2,7,77,0,0
53909,315.789473684211,4,2,7,87,1,0
53909,-100,4,2,7,87,0,0
54382,-76.3358778625954,4,2,7,87,0,0
55014,-61.3496932515337,4,2,7,87,0,0
55803,-100,4,2,7,87,0,0
56277,-61.3496932515337,4,2,7,87,0,0
57066,-121.951219512195,4,2,7,87,0,0
57856,-88.4955752212389,4,2,7,87,0,0
58172,-60.2409638554217,4,2,7,87,0,0
58645,-76.3358778625954,4,2,7,87,0,0
58961,-69.4444444444444,4,2,7,87,0,0
59277,-100,4,2,7,87,0,0
60066,-69.4444444444444,4,2,7,87,0,0
60540,-112.359550561798,4,2,7,87,0,0
60856,-86.2068965517241,4,2,7,87,0,0
62119,-68.4931506849315,4,2,7,87,0,0
62751,-90.9090909090909,4,2,7,87,0,0
63066,-76.9230769230769,4,2,7,87,0,0
64014,-76.9230769230769,4,2,7,87,0,1
72856,-62.5,4,2,7,87,0,1
73330,-50,4,2,7,87,0,1
78540,-81.3008130081301,4,2,7,87,0,1
82803,-1000,4,2,7,87,0,1
87856,292.682926829268,4,2,7,27,1,0
88148,315.789473684211,4,2,7,27,1,0

[Colours]
Combo1 : 255,255,170
Combo2 : 255,140,79
Combo3 : 255,200,170
Combo4 : 255,255,79

[HitObjects]
137,57,5603,5,8,0:0:0:0:
34,259,5915,5,0,0:0:0:0:
50,255,6230,1,0,0:0:0:0:
67,251,6546,1,0,0:0:0:0:
84,247,6862,1,0,0:0:0:0:
101,243,7178,1,0,0:0:0:0:
117,239,7493,1,0,0:0:0:0:
134,235,7809,1,0,0:0:0:0:
150,231,8125,1,0,0:0:0:0:
427,278,8441,5,0,0:0:0:0:
401,271,8756,1,0,0:0:0:0:
374,265,9072,1,0,0:0:0:0:
347,258,9388,1,0,0:0:0:0:
238,332,9704,6,0,P|199:353|118:315,1,80.2125006119728,2|0,0:0|0:0,0:0:0:0:
118,202,9862,2,0,P|152:182|191:182,1,80.2125006119728,2|0,0:0|0:0,0:0:0:0:
31,321,10020,1,0,0:0:0:0:
31,321,10178,5,2,0:0:0:0:
151,106,10336,1,2,0:0:0:0:
315,223,10493,1,0,0:0:0:0:
118,116,10651,2,0,P|211:82|121:-5,1,240.637501835918,8|0,0:0|0:0,0:0:0:0:
39,50,10967,6,0,P|23:109|79:220,1,160.425001223946,4|0,0:0|0:0,0:0:0:0:
185,161,11283,1,8,0:0:0:0:
15,288,11441,1,0,0:0:0:0:
235,288,11599,2,0,P|180:261|70:275,1,160.425001223946
123,346,11915,1,8,0:0:0:0:
135,370,12072,1,0,0:0:0:0:
380,321,12230,6,0,P|392:264|371:170,1,135.585002482636
382,49,12546,2,0,L|362:190,1,135.585002482636,8|0,0:0|0:0,0:0:0:0:
278,144,12862,1,0,0:0:0:0:
296,141,13020,1,0,0:0:0:0:
486,189,13178,1,8,0:0:0:0:
240,223,13336,1,0,0:0:0:0:
309,341,13493,6,0,P|271:281|162:279,1,169.740002590027
76,303,13809,1,8,0:0:0:0:
101,337,13967,1,0,0:0:0:0:
213,364,14125,1,0,0:0:0:0:
119,109,14283,1,0,0:0:0:0:
207,159,14441,1,8,0:0:0:0:
302,124,14599,1,0,0:0:0:0:
500,258,14757,6,0,P|432:271|309:261,1,169.740002590027
251,231,15072,1,8,0:0:0:0:
86,348,15230,1,0,0:0:0:0:
86,348,15309,1,0,0:0:0:0:
16,309,15388,6,0,P|15:268|38:215,1,68.8274971643945,8|0,0:0|0:0,0:0:0:0:
184,258,15546,2,0,P|185:217|162:164,1,68.8274971643945
23,101,15704,2,0,P|8:138|7:188,1,68.8274971643945,8|0,0:0|0:0,0:0:0:0:
253,160,15862,2,0,P|244:119|210:73,1,68.8274971643945
117,280,16020,6,0,B|236:335|217:234|334:291,1,206.482491493183,4|0,0:0|0:0,0:0:0:0:
275,359,16336,2,0,P|319:249|461:290,1,248.4,8|0,0:0|0:0,0:0:0:0:
484,314,16651,1,0,0:0:0:0:
399,105,16809,1,0,0:0:0:0:
399,105,16967,1,8,0:0:0:0:
143,31,17125,5,0,0:0:0:0:
156,129,17283,1,0,0:0:0:0:
242,177,17441,1,0,0:0:0:0:
66,321,17599,5,8,0:0:0:0:
163,299,17757,1,0,0:0:0:0:
374,371,17915,6,0,P|327:280|172:273,1,248.4
241,333,18230,2,0,B|272:249|272:249|206:180|217:66,1,248.4,8|0,0:0|0:0,0:0:0:0:
125,142,18546,6,0,P|72:150|-15:108,1,128.339994908386
166,15,18862,1,8,0:0:0:0:
392,179,19020,2,0,P|397:107|350:42,1,128.339994908386
270,250,19336,1,0,0:0:0:0:
0,329,19493,2,0,P|93:265|251:324,1,232.875008883477,8|0,0:0|0:0,0:0:0:0:
259,340,19809,5,0,0:0:0:0:
169,65,19967,1,0,0:0:0:0:
152,232,20125,1,8,0:0:0:0:
152,232,20204,1,0,0:0:0:0:
152,232,20283,2,0,P|190:204|205:148,1,77.6250029611589
86,142,20441,6,0,P|40:124|-20:137,1,77.6250029611589,8|0,0:0|0:0,0:0:0:0:
293,190,20599,2,0,P|294:138|264:93,1,77.6250029611589
93,284,20757,2,0,P|234:275|385:300,1,268.58250655719,8|0,0:0|0:0,0:0:0:0:
379,310,21072,5,12,0:0:0:0:
347,255,21151,1,0,0:0:0:0:
379,200,21230,1,0,0:0:0:0:
441,200,21309,1,0,0:0:0:0:
473,255,21388,2,0,P|478:305|467:327,1,74.0025010162697
379,310,21546,5,8,0:0:0:0:
315,290,21625,1,0,0:0:0:0:
277,234,21704,1,0,0:0:0:0:
225,192,21783,1,0,0:0:0:0:
158,188,21862,2,0,P|127:189|51:229,1,74.0025010162697
281,238,22020,5,8,2:0:0:0:
337,204,22099,1,0,2:0:0:0:
355,139,22178,1,0,2:0:0:0:
320,82,22257,1,0,2:0:0:0:
255,65,22336,1,0,2:0:0:0:
198,99,22415,1,0,2:0:0:0:
229,164,22493,5,8,0:0:0:0:
267,109,22572,1,0,0:0:0:0:
258,44,22651,1,0,0:0:0:0:
204,4,22730,1,0,0:0:0:0:
138,13,22809,1,0,0:0:0:0:
98,68,22888,1,0,0:0:0:0:
143,146,22967,5,8,0:0:0:0:
137,190,23046,1,0,0:0:0:0:
133,219,23125,1,0,0:0:0:0:
131,233,23204,1,8,0:0:0:0:
130,240,23283,1,0,0:0:0:0:
129,247,23362,1,0,0:0:0:0:
128,254,23441,1,8,0:0:0:0:
127,261,23520,1,0,0:0:0:0:
176,310,23599,6,0,P|279:299|370:218,1,207
183,81,24072,1,0,0:0:0:0:
433,180,24230,2,0,P|373:154|288:167,1,103.5
437,308,24546,1,0,0:0:0:0:
485,69,24704,2,0,P|466:157|523:275,1,207
480,364,25178,1,0,0:0:0:0:
400,245,25336,1,0,0:0:0:0:
388,381,25493,1,0,0:0:0:0:
355,217,25651,1,0,0:0:0:0:
295,368,25809,1,0,0:0:0:0:
77,215,26125,6,0,P|187:217|253:168,1,155.25
13,153,26441,2,0,P|-4:202|8:277,1,103.5
272,334,26757,2,0,P|187:272|62:312,1,206.482491493183
101,319,27072,1,0,0:0:0:0:
336,250,27230,2,0,P|334:119|230:69,1,206.482491493183
210,26,27546,5,0,0:0:0:0:
190,114,27704,1,0,0:0:0:0:
275,86,27862,1,0,0:0:0:0:
482,249,28020,1,0,0:0:0:0:
410,333,28178,1,0,0:0:0:0:
300,324,28336,1,0,0:0:0:0:
27,211,28493,1,0,0:0:0:0:
27,211,28572,1,0,0:0:0:0:
27,211,28651,6,0,P|126:196|231:260,1,227.700006948853
52,285,29125,1,0,0:0:0:0:
168,94,29283,2,0,P|152:145|162:212,1,113.850003474426
308,326,29599,1,0,0:0:0:0:
249,159,29757,1,0,0:0:0:0:
154,348,29915,6,0,P|284:314|406:318,1,227.700006948853
491,346,30388,1,0,0:0:0:0:
491,346,30467,1,0,0:0:0:0:
491,346,30546,1,0,0:0:0:0:
405,170,30704,1,0,0:0:0:0:
503,140,30862,1,0,0:0:0:0:
497,243,31020,1,0,0:0:0:0:
236,215,31178,6,0,P|215:147|241:69,1,113.850003474426
425,24,31493,2,0,P|357:45|279:19,1,113.850003474426
29,57,31809,1,0,0:0:0:0:
102,31,31967,1,0,0:0:0:0:
169,191,32125,1,0,0:0:0:0:
446,280,32283,6,0,P|340:230|209:301,1,209.587500799513
192,310,32599,2,0,P|248:335|299:315,1,69.8625002665043
324,188,32757,1,0,0:0:0:0:
367,371,32915,1,0,0:0:0:0:
68,256,33072,6,0,P|26:250|-16:240,1,69.8625002665043
80,247,33230,2,0,P|122:253|164:263,1,69.8625002665043
55,113,33388,1,0,0:0:0:0:
49,136,33467,1,0,0:0:0:0:
46,160,33546,1,0,0:0:0:0:
47,184,33625,1,0,0:0:0:0:
126,159,33704,6,0,P|129:78|-4:44,1,219.420000334808
124,305,34178,2,0,B|173:321|162:291|237:315,1,75.5550020751801
273,344,34336,1,0,0:0:0:0:
185,221,34493,1,0,0:0:0:0:
43,343,34651,1,0,0:0:0:0:
267,264,34809,1,0,0:0:0:0:
475,275,34967,6,0,P|409:194|289:193,1,226.66500622554
343,251,35283,2,0,L|367:95,1,151.11000415036
0,133,35599,2,0,P|118:166|189:95,1,226.66500622554
113,2,35915,2,0,B|99:31|99:31|116:92,1,75.5550020751801
266,180,36072,2,0,B|280:151|280:151|263:90,1,75.5550020751801
19,242,36230,5,0,0:0:0:0:
242,205,36388,1,0,0:0:0:0:
194,344,36546,1,0,0:0:0:0:
169,171,36704,1,0,0:0:0:0:
404,273,36862,5,0,0:0:0:0:
273,297,37020,1,0,0:0:0:0:
404,273,37178,1,0,0:0:0:0:
95,358,37336,6,0,P|184:329|141:181,1,226.66500622554
93,138,37651,1,0,0:0:0:0:
273,215,37809,1,0,0:0:0:0:
427,154,37967,1,0,0:0:0:0:
313,154,38125,1,0,0:0:0:0:
332,169,38283,1,0,0:0:0:0:
268,370,38441,1,0,0:0:0:0:
16,209,38757,6,0,P|101:188|277:224,1,269.09998768158
421,337,39230,1,0,0:0:0:0:
421,337,39309,1,0,0:0:0:0:
485,297,39388,2,0,P|484:238|464:196,1,82.8
280,62,39704,2,0,P|319:147|418:118,1,173.880002122559
459,92,40020,2,0,B|422:184|353:107|310:225,1,211.140001288696
343,332,40336,6,0,P|298:343|240:314,1,70.3800004295654
18,260,40493,2,0,P|123:236|232:261,1,211.140001288696
156,362,40809,1,0,0:0:0:0:
135,162,40967,1,0,0:0:0:0:
191,96,41125,1,0,0:0:0:0:
345,173,41283,5,0,0:0:0:0:
144,236,41441,1,0,0:0:0:0:
413,232,41599,2,0,P|433:170|382:81,1,140.760000859131
256,310,41915,2,0,P|264:343|296:377,1,70.3800004295654
364,330,42072,2,0,P|355:296|323:262,1,70.3800004295654
463,343,42230,1,0,0:0:0:0:
63,310,42388,6,0,P|176:287|134:126,1,281.520001718262
51,28,42862,1,0,0:0:0:0:
105,225,43020,1,0,0:0:0:0:
384,102,43178,5,8,0:0:0:0:
100,127,43336,1,8,0:0:0:0:
384,102,43493,1,8,0:0:0:0:
363,296,43809,6,0,P|372:255|358:204,1,85.3875026058198,8|0,0:0|0:0,0:0:0:0:
282,343,44125,6,0,P|346:385|399:372,1,77.6250029611589,8|0,0:0|0:0,0:0:0:0:
89,107,44441,6,0,P|87:158|109:192,1,77.6250029611589,8|0,0:0|0:0,0:0:0:0:
174,210,44599,2,0,P|176:159|154:125,1,77.6250029611589,8|0,0:0|0:0,0:0:0:0:
443,53,44915,6,0,L|422:58,2,20.7,8|8|8,0:0|0:0|0:0,0:0:0:0:
471,207,45704,5,8,0:0:0:0:
256,192,45862,1,8,0:0:0:0:
41,177,46020,1,8,0:0:0:0:
336,218,46336,6,0,P|340:166|301:118,1,93.1499971572877,8|0,0:0|0:0,0:0:0:0:
152,293,46651,2,0,P|215:264|295:286,1,139.724995735932,8|0,0:0|0:0,0:0:0:0:
354,377,46967,2,0,P|349:329|366:301,1,65.2049980101014,8|0,0:0|0:0,0:0:0:0:
478,252,47125,1,8,0:0:0:0:
61,75,47441,5,8,0:0:0:0:
112,334,47757,1,8,0:0:0:0:
61,75,48072,1,8,0:0:0:0:
112,334,48230,1,8,0:0:0:0:
61,75,48388,1,8,0:0:0:0:
112,334,48546,2,0,P|175:254|84:184,1,195.614994030304,8|0,0:0|0:0,0:0:0:0:
56,208,48862,6,0,P|65:150|106:118,1,93.1499971572877,8|0,0:0|0:0,0:0:0:0:
307,164,49178,2,0,P|225:190|163:192,1,139.724995735932,8|0,0:0|0:0,0:0:0:0:
167,119,49493,1,8,0:0:0:0:
324,353,49651,1,8,0:0:0:0:
29,319,49967,5,8,0:0:0:0:
290,281,50283,1,8,0:0:0:0:
29,319,50598,1,8,0:0:0:0:
290,281,50756,1,8,0:0:0:0:
29,319,50914,1,8,0:0:0:0:
290,281,51072,2,0,P|241:219|90:224,1,195.614994030304,8|0,0:0|0:0,0:0:0:0:
11,43,51388,6,0,P|11:157|76:257,1,232.875008883477,8|0,0:0|0:0,0:0:0:0:
187,384,51704,2,0,P|187:270|122:170,1,232.875008883477,8|0,0:0|0:0,0:0:0:0:
0,277,52020,2,0,P|65:271|110:248,1,77.6250029611589,8|0,0:0|0:0,0:0:0:0:
293,154,52178,1,8,0:0:0:0:
474,305,52493,5,8,0:0:0:0:
55,196,52827,1,8,0:0:0:0:
55,196,53003,1,8,0:0:0:0:
200,34,53305,6,0,P|199:110|252:180,1,144.899995578003,2|2,0:0|0:0,0:0:0:0:
328,139,53531,1,2,0:0:0:0:
328,139,53607,2,0,P|374:133|431:158,1,72.4499977890015,2|0,0:0|0:0,0:0:0:0:
365,306,53758,2,0,P|376:246|366:208,1,72.4499977890015,2|0,0:0|0:0,0:0:0:0:
125,263,53909,6,4,P|186:277|246:256,1,103.5,4|0,0:0|0:0,0:0:0:0:
58,191,54224,1,8,0:0:0:0:
287,342,54382,1,0,0:0:0:0:
287,342,54461,1,0,0:0:0:0:
287,342,54540,2,0,P|308:256|259:165,1,135.585002482636
225,160,54856,1,8,0:0:0:0:
504,190,55014,6,0,P|436:202|314:5,1,337.409999742577
399,18,55487,1,8,0:0:0:0:
131,121,55645,1,0,0:0:0:0:
131,121,55724,1,0,0:0:0:0:
131,121,55803,2,0,P|193:121|240:93,1,103.5
164,33,56119,1,8,0:0:0:0:
253,382,56277,6,0,P|184:262|-33:268,1,337.409999742577
39,311,56751,1,8,0:0:0:0:
273,201,56909,1,0,0:0:0:0:
57,78,57066,2,0,P|52:119|64:186,1,84.8700012950134
138,157,57382,1,8,0:0:0:0:
369,257,57540,6,0,P|314:235|259:243,1,84.8700012950134
454,303,57856,2,0,P|467:226|427:149,1,116.955000356918,0|8,0:0|0:0,0:0:0:0:
216,330,58172,2,0,P|324:369|404:318,1,171.810002490532
40,227,58487,1,0,0:0:0:0:
40,227,58566,1,0,0:0:0:0:
40,227,58645,2,0,P|32:269|39:313,1,67.7925012413178,8|0,0:0|0:0,0:0:0:0:
238,125,58803,2,0,P|249:90|236:32,1,67.7925012413178,8|0,0:0|0:0,0:0:0:0:
118,220,58961,6,0,B|241:277|222:157|378:223,1,223.560005458008,4|0,0:0|0:0,0:0:0:0:
466,364,59277,2,0,P|395:318|446:238,1,155.25,8|0,0:0|0:0,0:0:0:0:
485,260,59593,1,0,0:0:0:0:
397,188,59751,1,0,0:0:0:0:
200,312,59909,1,8,0:0:0:0:
0,106,60066,6,0,P|53:176|262:139,1,298.080007277344
162,33,60540,2,0,P|156:92|182:147,1,92.1150000702782,8|0,0:0|0:0,0:0:0:0:
359,103,60856,2,0,P|299:75|225:80,1,120.060003663941
415,170,61093,1,0,0:0:0:0:
415,170,61172,2,0,P|444:123|442:69,1,60.0300018319703,8|0,0:0|0:0,0:0:0:0:
332,187,61330,2,0,P|358:235|405:260,1,60.0300018319703
476,292,61487,5,0,0:0:0:0:
226,379,61645,1,0,0:0:0:0:
9,227,61803,1,8,0:0:0:0:
194,178,61961,1,0,0:0:0:0:
254,273,62119,2,0,P|133:271|86:215,1,151.11000415036
118,169,62356,1,0,0:0:0:0:
118,169,62435,2,0,P|121:117|111:77,1,75.5550020751801,8|0,0:0|0:0,0:0:0:0:
18,343,62593,2,0,P|63:354|119:346,1,75.5550020751801
364,226,62751,5,2,0:0:0:0:
381,280,62830,1,2,0:0:0:0:
357,332,62909,2,0,P|328:350|279:349,1,56.9250017372132,2|0,0:0|0:0,0:0:0:0:
219,106,63066,5,2,0:0:0:0:
277,72,63145,1,2,0:0:0:0:
344,75,63224,2,0,P|389:79|424:109,1,67.274996920395,2|0,0:0|0:0,0:0:0:0:
166,211,63382,5,2,0:0:0:0:
99,220,63461,1,2,0:0:0:0:
165,254,63540,1,2,0:0:0:0:
202,233,63619,1,2,0:0:0:0:
295,202,63698,5,8,0:0:0:0:
295,202,64014,5,12,0:0:0:0:
21,340,64172,1,0,0:0:0:0:
92,377,64330,5,8,0:0:0:0:
457,219,64487,1,0,0:0:0:0:
419,147,64645,5,8,0:0:0:0:
178,384,64803,1,0,0:0:0:0:
250,348,64961,5,8,0:0:0:0:
19,180,65119,1,0,0:0:0:0:
84,132,65277,5,8,0:0:0:0:
276,191,65435,1,0,0:0:0:0:
335,0,65593,5,8,0:0:0:0:
276,192,65751,1,0,0:0:0:0:
468,251,65909,5,8,0:0:0:0:
276,192,66067,1,0,0:0:0:0:
217,384,66224,5,8,0:0:0:0:
276,192,66382,1,0,0:0:0:0:
47,301,66540,5,12,0:0:0:0:
352,223,66698,1,0,0:0:0:0:
325,299,66856,5,8,0:0:0:0:
72,79,67014,1,0,0:0:0:0:
150,59,67172,5,8,0:0:0:0:
405,270,67330,1,0,0:0:0:0:
425,192,67487,5,8,0:0:0:0:
108,323,67645,1,0,0:0:0:0:
364,333,67803,5,8,0:0:0:0:
375,339,67961,1,0,0:0:0:0:
85,185,68119,5,8,0:0:0:0:
72,189,68277,1,0,0:0:0:0:
324,72,68435,5,8,0:0:0:0:
331,60,68593,1,0,0:0:0:0:
422,299,68751,5,8,0:0:0:0:
427,311,68909,1,0,0:0:0:0:
119,56,69066,5,12,0:0:0:0:
236,282,69224,1,0,0:0:0:0:
314,302,69382,5,8,0:0:0:0:
452,95,69540,1,0,0:0:0:0:
407,27,69698,5,8,0:0:0:0:
90,143,69856,1,0,0:0:0:0:
110,221,70014,5,8,0:0:0:0:
396,271,70172,1,0,0:0:0:0:
384,350,70330,5,8,0:0:0:0:
326,162,70487,1,0,0:0:0:0:
7,122,70645,5,8,0:0:0:0:
65,310,70802,1,0,0:0:0:0:
401,165,70961,5,8,0:0:0:0:
337,8,71119,1,0,0:0:0:0:
156,219,71277,5,8,0:0:0:0:
236,384,71435,1,0,0:0:0:0:
307,346,71593,5,12,0:0:0:0:
279,55,71751,1,0,0:0:0:0:
198,65,71909,5,8,0:0:0:0:
184,331,72066,1,0,0:0:0:0:
104,344,72224,5,8,0:0:0:0:
3,190,72382,1,0,0:0:0:0:
78,219,72540,5,8,0:0:0:0:
348,169,72698,1,0,0:0:0:0:
410,229,72856,5,2,0:0:0:0:
410,229,72935,1,0,0:0:0:0:
410,229,73014,2,0,P|433:178|407:105,1,82.8
269,292,73172,2,0,P|327:297|374:323,1,82.8,2|0,0:0|0:0,0:0:0:0:
163,177,73330,2,0,P|141:295|253:351,1,207
206,334,73566,1,2,0:0:0:0:
146,351,73645,5,2,0:0:0:0:
86,333,73724,1,2,0:0:0:0:
27,354,73803,1,2,0:0:0:0:
88,345,73882,1,2,0:0:0:0:
112,287,73961,1,2,0:0:0:0:
98,226,74040,1,2,0:0:0:0:
44,194,74119,5,12,0:0:0:0:
294,364,74277,1,0,0:0:0:0:
359,313,74435,5,8,0:0:0:0:
86,127,74593,1,0,0:0:0:0:
154,81,74751,5,8,0:0:0:0:
223,384,74909,1,0,0:0:0:0:
144,359,75066,5,8,0:0:0:0:
236,77,75224,1,0,0:0:0:0:
377,179,75382,5,8,0:0:0:0:
23,227,75540,1,0,0:0:0:0:
377,179,75698,5,8,0:0:0:0:
23,227,75856,1,0,0:0:0:0:
389,280,76014,5,10,0:0:0:0:
179,176,76172,1,2,0:0:0:0:
179,176,76251,1,2,0:0:0:0:
179,176,76330,2,0,P|231:208|304:189,1,103.5,10|0,0:0|0:0,0:0:0:0:
338,17,76487,2,0,P|316:79|321:131,1,103.5,2|0,0:0|0:0,0:0:0:0:
377,179,76645,5,12,0:0:0:0:
178,358,76803,1,0,0:0:0:0:
0,244,76961,5,8,0:0:0:0:
199,65,77119,1,0,0:0:0:0:
368,285,77277,5,8,2:0:0:0:
106,340,77435,1,0,2:0:0:0:
0,164,77593,5,8,2:0:0:0:
262,109,77751,1,0,2:0:0:0:
131,22,77909,5,8,0:0:0:0:
115,102,78066,1,0,0:0:0:0:
430,121,78224,5,8,0:0:0:0:
446,201,78381,1,0,0:0:0:0:
131,272,78540,6,8,P|238:300|282:279,1,127.30500194252,10|2,0:0|0:0,0:0:0:0:
330,267,78777,1,2,0:0:0:0:
330,267,78856,2,0,P|339:310|321:361,1,63.6525009712601,10|0,0:0|0:0,0:0:0:0:
174,215,79014,2,0,P|165:172|183:121,1,63.6525009712601,2|0,0:0|0:0,0:0:0:0:
485,65,79172,5,12,0:0:0:0:
237,176,79330,1,0,0:0:0:0:
86,206,79487,5,8,0:0:0:0:
359,90,79645,1,0,0:0:0:0:
446,121,79803,5,8,0:0:0:0:
120,14,79961,1,0,0:0:0:0:
87,112,80119,5,8,0:0:0:0:
439,0,80277,1,0,0:0:0:0:
145,72,80435,5,8,0:0:0:0:
65,50,80593,1,0,0:0:0:0:
402,198,80751,5,8,0:0:0:0:
482,176,80909,1,0,0:0:0:0:
114,260,81066,5,8,0:0:0:0:
36,236,81224,1,0,0:0:0:0:
373,384,81382,5,8,0:0:0:0:
453,362,81540,1,0,0:0:0:0:
151,125,81698,6,0,P|145:173|162:218,1,63.6525009712601,2|0,0:0|0:0,0:0:0:0:
321,317,81856,2,0,P|327:269|310:224,1,63.6525009712601,2|0,0:0|0:0,0:0:0:0:
91,289,82014,2,0,B|194:303|159:220|266:223,1,190.95750291378,2|0,0:0|0:0,0:0:0:0:
304,199,82330,5,8,0:0:0:0:
1,163,82487,1,8,0:0:0:0:
153,181,82645,1,8,0:0:0:0:
459,218,82803,6,0,L|303:199,1,155.25,4|0,0:0|0:0,0:0:0:0:
256,192,85487,12,0,88148,0:0:0:0:
