osu file format v14

[General]
AudioFilename: audio.mp3
AudioLeadIn: 0
PreviewTime: 57897
Countdown: 0
SampleSet: Soft
StackLeniency: 0.7
Mode: 0
LetterboxInBreaks: 0
WidescreenStoryboard: 0

[Editor]
DistanceSpacing: 1.2
BeatDivisor: 4
GridSize: 4
TimelineZoom: 3.399997

[Metadata]
Title:Rewriter
TitleUnicode:Rewriter
Artist:KISIDA KYODAN & THE AKEBOSI ROCKETS
ArtistUnicode:岸田教団&THE明星ロケッツ
Creator:wenect
Version:Hard
Source:
Tags:japanese j-core j-rock セブンスワールド Seventh World short cut version Maruoko Unranked Mapper NeKroMan4ik komore schoolboy
BeatmapID:2225447
BeatmapSetID:1062721

[Difficulty]
HPDrainRate:5
CircleSize:3.5
OverallDifficulty:6.5
ApproachRate:7.5
SliderMultiplier:1.3
SliderTickRate:1

[Events]
//Background and Video events
0,0,"Rewrite.jpg",0,0
//Break Periods
//Storyboard Layer 0 (Background)
//Storyboard Layer 1 (Fail)
//Storyboard Layer 2 (Pass)
//Storyboard Layer 3 (Foreground)
//Storyboard Layer 4 (Overlay)
//Storyboard Sound Samples

[TimingPoints]
10055,322.58064516129,4,2,1,70,1,0
10398,322.58064516129,4,2,2,70,1,0
10398,-90.9090909090909,4,2,2,70,0,0
18785,-90.9090909090909,4,2,2,71,0,0
19107,-90.9090909090909,4,2,2,73,0,0
19430,-90.9090909090909,4,2,1,75,0,0
19994,-90.9090909090909,4,2,1,5,0,0
20075,-90.9090909090909,4,2,1,65,0,0
20720,-90.9090909090909,4,2,1,70,0,0
20962,-90.9090909090909,4,2,1,5,0,0
21043,-90.9090909090909,4,2,2,70,0,0
29752,-90.9090909090909,4,2,3,75,0,0
31043,-90.9090909090909,4,2,3,70,0,0
32333,-111.111111111111,4,2,4,60,0,0
36849,-111.111111111111,4,2,2,63,0,0
37172,-111.111111111111,4,2,2,65,0,0
37494,-100,4,2,2,70,0,0
38462,-100,4,2,1,70,0,0
38704,-100,4,2,1,5,0,0
38785,-100,4,2,2,65,0,0
39752,-100,4,2,4,60,0,0
40075,-111.111111111111,4,2,4,65,0,0
44591,-111.111111111111,4,2,2,66,0,0
44914,-111.111111111111,4,2,2,68,0,0
45236,-100,4,2,2,70,0,0
46527,-100,4,2,1,70,0,0
47656,-100,4,2,2,60,0,0
47817,-111.111111111111,4,2,3,65,0,0
49430,-111.111111111111,4,2,4,65,0,0
49752,-111.111111111111,4,2,2,65,0,0
50236,-111.111111111111,4,2,2,70,0,0
50720,-111.111111111111,4,2,1,70,0,0
51527,-111.111111111111,4,2,1,60,0,0
52656,-111.111111111111,4,2,4,60,0,0
52978,-111.111111111111,4,2,3,65,0,0
54914,-111.111111111111,4,2,4,65,0,0
55236,-111.111111111111,4,2,2,65,0,0
55397,-111.111111111111,4,2,2,70,0,0
56123,-111.111111111111,4,2,2,5,0,0
56204,-111.111111111111,4,2,3,65,0,0
58139,-83.3333333333333,4,2,2,80,0,1
60639,-83.3333333333333,4,2,2,5,0,1
60720,-83.3333333333333,4,2,1,85,0,1
61204,-83.3333333333333,4,2,3,85,0,1
61849,-83.3333333333333,4,2,2,85,0,1
62575,-83.3333333333333,4,2,2,5,0,1
62656,-83.3333333333333,4,2,2,75,0,1
63301,-83.3333333333333,4,2,1,80,0,1
63543,-83.3333333333333,4,2,1,5,0,1
63623,-83.3333333333333,4,2,3,80,0,1
65881,-83.3333333333333,4,2,2,80,0,1
67656,-83.3333333333333,4,2,3,75,0,1
67978,-83.3333333333333,4,2,3,70,0,1
68462,-83.3333333333333,4,2,2,80,0,1
70962,-83.3333333333333,4,2,2,5,0,1
71043,-83.3333333333333,4,2,1,85,0,1
71527,-83.3333333333333,4,2,3,85,0,1
72172,-83.3333333333333,4,2,2,85,0,1
72897,-83.3333333333333,4,2,2,5,0,1
72978,-83.3333333333333,4,2,2,75,0,1
73623,-83.3333333333333,4,2,1,80,0,1
73865,-83.3333333333333,4,2,1,5,0,1
73946,-83.3333333333333,4,2,3,80,0,1
76204,-83.3333333333333,4,2,2,80,0,1
78785,-90.9090909090909,4,2,2,70,0,0
83301,-90.9090909090909,4,2,1,70,0,0
83623,-90.9090909090909,4,2,2,70,0,0
88785,-90.9090909090909,4,2,1,75,0,0
89107,-83.3333333333333,4,2,2,80,0,1
89591,-83.3333333333333,4,2,2,70,0,1
90075,-83.3333333333333,4,2,2,75,0,1
90397,-83.3333333333333,4,2,1,80,0,1
90720,-83.3333333333333,4,2,3,80,0,1
91204,-83.3333333333333,4,2,3,70,0,1
91365,-83.3333333333333,4,2,3,75,0,1
91688,-83.3333333333333,4,2,2,80,0,1
92978,-83.3333333333333,4,2,3,80,0,1
93220,-83.3333333333333,4,2,1,70,0,1
93946,-83.3333333333333,4,2,4,60,0,1
94268,-83.3333333333333,4,2,2,80,0,1
95559,-83.3333333333333,4,2,3,80,0,1
96123,-83.3333333333333,4,2,1,70,0,1
96527,-83.3333333333333,4,2,1,75,0,1
96849,-83.3333333333333,4,2,2,80,0,1
97817,-83.3333333333333,4,2,1,80,0,1
98139,-83.3333333333333,4,2,3,75,0,1
99430,-100,4,2,4,80,0,0
104268,-100,4,2,1,40,0,0

[Colours]
Combo1 : 244,106,47
Combo2 : 214,215,245
Combo3 : 20,102,204
Combo4 : 92,204,209
SliderTrackOverride : 0,0,0

[HitObjects]
12,287,10398,6,0,B|53:269|53:269|155:302,1,143.000004364014,14|10,3:2|1:2,0:0:0:0:
229,260,10881,1,0,3:0:0:0:
229,260,11043,2,0,L|317:251,1,71.5000021820069,10|0,3:2|3:0,0:0:0:0:
362,318,11365,2,0,L|450:327,1,71.5000021820069,10|2,1:2|0:3,0:0:0:0:
504,266,11688,2,0,P|489:226|465:123,1,143.000004364014,10|10,3:2|1:2,0:0:0:0:
397,70,12172,1,0,3:0:0:0:
397,70,12333,2,0,P|382:139|358:207,1,143.000004364014,10|10,3:2|1:2,0:0:0:0:
394,64,12978,6,0,B|353:46|353:46|251:79,1,143.000004364014,14|10,3:2|1:2,0:0:0:0:
194,140,13462,1,0,0:0:0:0:
194,140,13623,2,0,L|203:228,1,71.5000021820069,10|0,3:2|3:0,0:0:0:0:
274,266,13946,2,0,L|265:354,1,71.5000021820069,10|2,1:2|0:3,0:0:0:0:
189,383,14268,2,0,P|151:380|107:360,1,71.5000021820069,10|0,3:2|0:0,0:0:0:0:
30,359,14591,2,0,P|68:356|112:336,1,71.5000021820069,10|0,1:2|3:0,0:0:0:0:
159,275,14914,2,0,P|121:272|77:252,1,71.5000021820069,10|0,3:2|0:0,0:0:0:0:
0,251,15236,2,0,P|38:248|82:228,1,71.5000021820069,10|0,1:2|0:0,0:0:0:0:
128,168,15559,6,0,B|197:158|194:205|264:198,1,143.000004364014,14|10,3:2|1:2,0:0:0:0:
341,148,16043,1,0,0:0:0:0:
341,148,16204,2,0,L|330:70,1,71.5000021820069,10|0,3:2|3:0,0:0:0:0:
420,62,16527,2,0,L|429:132,1,71.5000021820069,10|2,1:2|0:3,0:0:0:0:
409,221,16849,2,0,P|372:283|352:360,1,143.000004364014,10|10,3:2|1:2,0:0:0:0:
270,329,17333,1,0,3:0:0:0:
270,329,17494,2,0,P|201:348|140:384,1,143.000004364014,10|10,3:2|1:2,0:0:0:0:
276,326,18139,6,0,B|297:255|297:255|265:187,1,143.000004364014,14|10,3:2|1:2,0:0:0:0:
185,220,18623,1,0,0:0:0:0:
185,220,18785,2,0,L|107:209,1,71.5000021820069,10|0,3:2|3:0,0:0:0:0:
67,132,19107,2,0,L|145:121,1,71.5000021820069,10|2,1:2|3:0,0:0:0:0:
207,62,19430,1,14,1:2:0:0:
207,62,19591,1,0,3:0:0:0:
299,88,19752,2,0,B|330:94|330:94|424:77,1,107.25000327301,10|0,1:2|0:0,0:0:0:0:
404,80,20075,2,0,L|398:119,3,35.7500010910034,2|0|0|0,1:2|1:0|1:0|1:0,0:0:0:0:
425,138,20397,2,0,L|419:177,3,35.7500010910034,2|0|0|0,1:2|1:0|1:0|1:0,0:0:0:0:
460,223,20720,6,0,P|404:235|356:259,1,107.25000327301,14|0,3:2|0:0,0:0:0:0:
359,256,21043,2,0,L|261:244,1,71.5000021820069,14|0,1:2|3:0,0:0:0:0:
214,196,21365,1,10,3:2:0:0:
153,264,21527,1,0,3:0:0:0:
89,198,21688,2,0,L|-9:186,1,71.5000021820069,10|2,1:2|0:3,0:0:0:0:
0,100,22010,2,0,L|162:80,1,143.000004364014,10|10,3:2|1:2,0:0:0:0:
210,22,22494,1,0,3:0:0:0:
210,22,22656,2,0,L|191:184,1,143.000004364014,10|10,3:2|1:2,0:0:0:0:
216,19,23301,6,0,P|310:44|332:78,1,143.000004364014,14|10,3:2|1:2,0:0:0:0:
287,158,23785,1,0,0:0:0:0:
287,158,23946,2,0,L|299:256,1,71.5000021820069,10|0,3:2|3:0,0:0:0:0:
380,265,24268,2,0,L|388:194,1,71.5000021820069,10|2,1:2|0:3,0:0:0:0:
466,147,24591,2,0,P|483:186|481:221,1,71.5000021820069,10|0,3:2|0:0,0:0:0:0:
512,299,24914,2,0,P|507:341|487:370,1,71.5000021820069,10|0,1:2|3:0,0:0:0:0:
403,381,25236,2,0,P|371:364|336:361,1,71.5000021820069,10|0,3:2|0:0,0:0:0:0:
263,308,25559,2,0,P|227:308|195:324,1,71.5000021820069,10|0,1:2|0:0,0:0:0:0:
127,384,25881,6,0,B|147:327|147:327|108:243,1,143.000004364014,14|10,3:2|1:2,0:0:0:0:
161,174,26365,1,0,0:0:0:0:
161,174,26527,2,0,L|232:182,1,71.5000021820069,10|0,3:2|3:0,0:0:0:0:
294,115,26849,2,0,L|365:107,1,71.5000021820069,10|2,1:2|0:3,0:0:0:0:
446,149,27172,2,0,P|419:203|398:312,1,143.000004364014,10|10,3:2|1:2,0:0:0:0:
327,336,27656,1,0,3:0:0:0:
327,336,27817,2,0,P|311:266|280:201,1,143.000004364014,10|10,3:2|1:2,0:0:0:0:
324,342,28462,6,0,B|255:352|258:305|188:312,1,143.000004364014,14|10,3:2|1:2,0:0:0:0:
112,260,28946,1,0,0:0:0:0:
112,260,29107,2,0,L|120:189,1,71.5000021820069,10|0,3:2|3:0,0:0:0:0:
44,139,29430,2,0,L|36:68,1,71.5000021820069,10|2,1:2|0:3,0:0:0:0:
108,13,29752,1,10,3:2:0:0:
108,13,29914,1,0,3:0:0:0:
174,77,30075,1,10,1:2:0:0:
174,77,30236,1,0,3:0:0:0:
246,22,30397,2,0,L|317:14,1,71.5000021820069,14|0,1:2|3:0,0:0:0:0:
399,56,30720,2,0,L|381:206,1,143.000004364014,10|0,1:2|3:0,0:0:0:0:
382,198,31123,5,0,1:0:0:0:
382,198,31204,1,0,1:0:0:0:
130,186,32010,1,4,3:0:0:0:
133,192,32333,6,0,P|180:209|243:264,2,116.999996429443,4|2|2,3:1|1:2|3:2,0:0:0:0:
67,146,33139,1,2,3:2:0:0:
114,79,33301,1,2,1:2:0:0:
182,122,33462,2,0,P|239:114|312:98,1,116.999996429443,2|0,0:0|0:0,0:0:0:0:
364,55,33946,2,0,B|394:73|394:73|390:169,1,116.999996429443,2|2,1:2|3:2,0:0:0:0:
345,223,34430,1,2,3:2:0:0:
409,273,34591,1,2,1:2:0:0:
363,341,34752,2,0,P|306:346|244:358,1,116.999996429443,2|0,0:0|0:0,0:0:0:0:
184,306,35236,6,0,B|159:297|159:297|86:313,1,87.7499973220826,2|2,1:2|1:3,0:0:0:0:
77,289,35559,2,0,L|18:282,2,58.4999982147217,2|0|2,3:2|3:0|1:2,0:0:0:0:
119,218,36043,2,0,L|108:80,1,116.999996429443,10|2,3:2|3:2,0:0:0:0:
168,44,36527,2,0,B|193:35|193:35|266:51,1,87.7499973220826,0|0,1:0|1:0,0:0:0:0:
276,30,36849,2,0,L|335:23,1,58.4999982147217,8|2,3:2|3:2,0:0:0:0:
414,12,37172,1,8,1:2:0:0:
417,18,37494,6,0,P|402:78|392:152,1,130,14|8,3:2|1:2,0:0:0:0:
461,212,37978,1,0,0:0:0:0:
461,212,38139,2,0,B|469:240|469:240|460:275,1,65,10|0,3:2|3:0,0:0:0:0:
393,335,38462,2,0,B|358:342|358:342|343:359|343:359|305:367,1,97.5,12|0,1:2|0:0,0:0:0:0:
304,367,38785,2,0,L|247:359,3,32.5,2|0|0|0,3:2|3:0|3:0|1:0,0:0:0:0:
249,338,39107,2,0,L|192:346,3,32.5,0|0|0|0,1:0|3:0|3:0|1:0,0:0:0:0:
204,311,39430,2,0,L|147:303,3,32.5,2|0|0|0,1:2|3:0|3:0|3:0,0:0:0:0:
149,282,39752,2,0,L|92:290,3,32.5,0|0|0|0,3:0|3:0|3:0|3:0,0:0:0:0:
69,274,40075,6,0,P|53:225|21:162,2,116.999996429443,4|2|2,3:1|1:2|3:2,0:0:0:0:
18,336,40881,1,2,3:2:0:0:
84,384,41043,1,2,1:2:0:0:
137,321,41204,2,0,P|199:309|256:305,1,116.999996429443,2|0,0:0|0:0,0:0:0:0:
330,326,41688,2,0,B|352:299|352:299|324:216,1,116.999996429443,2|2,1:2|3:2,0:0:0:0:
377,158,42172,1,2,3:2:0:0:
319,101,42333,1,2,1:2:0:0:
371,38,42494,2,0,P|433:50|490:54,1,116.999996429443,2|0,0:0|0:0,0:0:0:0:
512,131,42978,6,0,B|493:151|493:151|482:221,1,87.7499973220826,2|2,1:2|1:3,0:0:0:0:
462,231,43301,2,0,L|472:308,2,58.4999982147217,2|2|2,3:2|3:2|1:2,0:0:0:0:
397,182,43785,2,0,B|354:178|354:178|329:191|329:191|282:187,1,116.999996429443,10|2,3:2|3:2,0:0:0:0:
232,125,44268,2,0,B|212:144|212:144|142:155,1,87.7499973220826,0|0,1:0|1:0,0:0:0:0:
140,180,44591,2,0,L|63:170,1,58.4999982147217,8|2,3:2|3:2,0:0:0:0:
3,159,44914,1,8,1:2:0:0:
6,165,45236,6,0,P|29:210|50:293,1,130,14|8,3:2|1:2,0:0:0:0:
128,333,45720,1,0,3:0:0:0:
128,333,45881,2,0,B|160:322|160:322|219:320,1,65,10|0,1:2|3:0,0:0:0:0:
263,266,46204,2,0,B|295:277|295:277|354:279,1,65,8|0,1:2|3:0,0:0:0:0:
399,223,46527,1,14,1:2:0:0:
399,223,46688,1,0,3:0:0:0:
483,254,46849,2,0,B|494:286|494:286|496:345,1,65,0|0,1:0|3:0,0:0:0:0:
422,374,47172,2,0,B|390:363|390:363|331:361,1,65,8|0,3:0|3:0,0:0:0:0:
326,278,47494,2,0,B|295:277|295:277|263:266,1,65,0|2,1:0|0:3,0:0:0:0:
205,196,47817,6,0,B|151:198|153:233|97:236,2,116.999996429443,6|0|2,3:2|3:0|3:2,0:0:0:0:
291,101,48785,1,0,3:0:0:0:
285,104,49107,2,0,B|231:101|233:66|177:63,2,116.999996429443,2|4|2,3:2|3:2|3:2,0:0:0:0:
355,62,49914,1,0,3:0:0:0:
415,117,50075,1,0,1:0:0:0:
378,190,50236,2,0,P|362:244|353:315,1,116.999996429443,14|0,3:2|3:0,0:0:0:0:
279,338,50720,2,0,P|270:280|254:223,1,116.999996429443,12|10,1:2|3:2,0:0:0:0:
190,175,51204,1,0,1:0:0:0:
128,228,51365,1,2,3:2:0:0:
166,310,51527,1,0,1:0:0:0:
166,310,51607,1,0,1:0:0:0:
166,310,51688,6,0,B|161:325|161:325|159:340,3,29.2499991073609,2|0|0|0,1:2|1:0|3:0|3:0,0:0:0:0:
143,363,52010,2,0,B|126:365|126:365|113:370,3,29.2499991073609,2|0|0|0,3:2|3:0|3:0|3:0,0:0:0:0:
86,360,52333,2,0,B|70:354|70:354|56:353,3,29.2499991073609,2|0|0|0,3:2|3:0|3:0|3:0,0:0:0:0:
46,325,52656,2,0,B|43:308|43:308|39:295,3,29.2499991073609,0|0|0|0,3:0|3:0|3:0|3:0,0:0:0:0:
63,262,52978,6,0,P|48:197|17:132,2,116.999996429443,6|0|2,3:2|3:0|3:2,0:0:0:0:
175,198,53946,1,0,3:0:0:0:
181,201,54268,2,0,P|234:178|291:165,2,116.999996429443,2|0|6,3:2|3:0|3:2,0:0:0:0:
42,88,55236,1,0,1:0:0:0:
103,35,55397,2,0,P|159:47|213:71,1,116.999996429443,14|0,3:2|3:0,0:0:0:0:
294,48,55881,2,0,P|326:44|392:28,1,87.7499973220826,8|0,1:2|0:0,0:0:0:0:
380,31,56204,6,0,L|373:76,3,29.2499991073609,2|0|0|0,3:2|3:0|3:0|1:0,0:0:0:0:
402,82,56527,2,0,L|409:127,3,29.2499991073609,2|0|0|0,1:2|3:0|3:0|3:0,0:0:0:0:
381,135,56849,2,0,L|374:180,3,29.2499991073609,2|0|0|0,3:2|3:0|3:0|1:0,0:0:0:0:
403,187,57172,2,0,L|410:232,3,29.2499991073609,2|0|0|0,1:2|3:0|3:0|1:0,0:0:0:0:
387,245,57494,1,2,1:2:0:0:
108,115,58139,6,0,L|194:126,1,77.999997619629,14|2,3:2|0:0,0:0:0:0:
269,92,58462,2,0,B|288:128|288:128|280:178,1,77.999997619629,10|2,1:2|0:0,0:0:0:0:
211,222,58785,2,0,B|192:258|192:258|200:308,1,77.999997619629,10|2,3:2|3:2,0:0:0:0:
273,345,59107,2,0,L|359:334,1,77.999997619629,10|2,1:2|0:0,0:0:0:0:
423,281,59430,2,0,B|373:256|373:256|270:269,2,155.999995239258,10|10|10,3:2|1:2|3:2,0:0:0:0:
503,242,60236,1,0,3:0:0:0:
447,178,60397,2,0,P|424:115|416:53,1,116.999996429443,10|0,1:2|0:0,0:0:0:0:
416,65,60720,6,0,L|493:72,2,77.999997619629,14|0|2,0:0|3:0|1:2,0:0:0:0:
340,113,61204,2,0,B|285:118|285:118|247:97|247:97|190:102,1,155.999995239258,14|2,3:2|3:2,0:0:0:0:
106,69,61688,1,0,1:0:0:0:
48,139,61849,2,0,P|83:213|102:290,1,155.999995239258,14|0,3:2|3:0,0:0:0:0:
168,357,62333,2,0,P|198:287|209:223,1,116.999996429443,8|0,1:2|0:0,0:0:0:0:
206,247,62656,2,0,B|204:222|204:222|208:192,2,38.9999988098145,2|0|0,1:2|1:0|1:0,0:0:0:0:
284,256,62978,1,2,1:2:0:0:
302,249,63059,1,0,1:0:0:0:
320,253,63139,1,2,1:2:0:0:
338,246,63220,1,0,1:0:0:0:
356,252,63301,6,0,B|412:256|406:288|464:294,1,116.999996429443,14|0,3:2|0:0,0:0:0:0:
463,293,63623,1,14,1:2:0:0:
511,216,63785,2,0,L|495:135,1,77.999997619629,2|8,0:0|3:2,0:0:0:0:
418,93,64107,2,0,L|402:169,1,77.999997619629,2|8,3:2|1:2,0:0:0:0:
314,149,64430,2,0,L|329:72,1,77.999997619629,2|8,0:0|3:2,0:0:0:0:
249,30,64752,1,2,3:2:0:0:
249,30,64914,2,0,B|209:54|209:54|226:177,1,155.999995239258,10|8,1:2|3:2,0:0:0:0:
160,228,65397,1,0,3:0:0:0:
160,228,65559,2,0,L|83:212,1,77.999997619629,10|2,1:2|0:0,0:0:0:0:
0,248,65881,6,0,B|44:225|44:225|162:249,1,155.999995239258,14|10,3:2|1:2,0:0:0:0:
213,309,66365,2,0,L|290:293,1,77.999997619629,2|8,0:0|3:2,0:0:0:0:
375,260,66688,2,0,B|363:296|363:296|379:342,1,77.999997619629,2|8,3:2|1:2,0:0:0:0:
469,333,67010,2,0,B|482:295|482:295|470:259,1,77.999997619629,2|8,0:0|3:2,0:0:0:0:
512,177,67333,1,2,3:2:0:0:
512,177,67494,2,0,L|435:161,1,77.999997619629,10|0,1:2|1:0,0:0:0:0:
425,120,67736,1,0,1:0:0:0:
425,120,67817,2,0,L|348:136,1,77.999997619629,4|0,1:3|3:0,0:0:0:0:
297,57,68139,2,0,L|177:32,1,116.999996429443,2|0,3:2|3:0,0:0:0:0:
149,55,68462,6,0,L|158:132,1,77.999997619629,14|2,3:2|0:0,0:0:0:0:
198,213,68785,2,0,B|162:232|162:232|125:226,1,77.999997619629,10|2,1:2|0:0,0:0:0:0:
37,248,69107,2,0,B|73:229|73:229|109:234,1,77.999997619629,10|2,3:2|3:2,0:0:0:0:
163,307,69430,2,0,L|172:384,1,77.999997619629,10|2,1:2|0:0,0:0:0:0:
261,375,69752,2,0,L|239:186,2,155.999995239258,10|10|10,3:2|1:2|3:2,0:0:0:0:
359,384,70559,1,2,3:2:0:0:
359,384,70720,2,0,B|385:347|385:347|351:243,1,116.999996429443,10|0,1:2|0:0,0:0:0:0:
362,278,71043,6,0,L|439:287,2,77.999997619629,14|0|2,3:2|3:0|1:2,0:0:0:0:
320,197,71527,2,0,B|376:186|376:186|417:202|417:202|472:191,1,155.999995239258,14|2,3:2|3:2,0:0:0:0:
511,111,72010,1,0,1:0:0:0:
440,56,72172,2,0,P|360:74|298:115,1,155.999995239258,14|0,3:2|3:0,0:0:0:0:
220,73,72656,2,0,P|162:62|108:40,1,116.999996429443,8|0,1:2|0:0,0:0:0:0:
108,40,72978,2,0,B|83:38|83:38|53:42,2,38.9999988098145,2|0|2,1:2|1:0|1:2,0:0:0:0:
92,117,73301,1,2,1:2:0:0:
99,135,73381,1,0,1:0:0:0:
95,153,73462,1,0,1:0:0:0:
102,171,73543,1,0,1:0:0:0:
96,189,73623,6,0,P|43:227|9:293,1,116.999996429443,14|0,3:2|0:0,0:0:0:0:
16,270,73946,1,14,1:2:0:0:
87,335,74107,2,0,P|126:326|178:322,1,77.999997619629,2|8,0:0|3:2,0:0:0:0:
222,252,74430,2,0,P|261:261|313:265,1,77.999997619629,2|8,3:2|1:2,0:0:0:0:
359,339,74752,2,0,P|320:348|268:352,1,77.999997619629,2|8,0:0|3:2,0:0:0:0:
299,265,75075,1,2,3:2:0:0:
299,265,75236,2,0,B|352:240|352:240|448:275,1,155.999995239258,10|8,1:2|3:2,0:0:0:0:
512,214,75720,1,0,3:0:0:0:
512,214,75881,2,0,P|503:175|499:123,1,77.999997619629,10|2,1:2|0:0,0:0:0:0:
437,66,76204,6,0,B|364:74|376:124|296:136,1,155.999995239258,14|10,3:2|1:2,0:0:0:0:
224,80,76688,2,0,P|185:101|156:141,1,77.999997619629,2|8,0:0|3:2,0:0:0:0:
74,155,77010,2,0,P|72:199|92:244,1,77.999997619629,2|8,3:2|1:2,0:0:0:0:
143,303,77333,1,2,3:2:0:0:
224,257,77494,2,0,B|217:227|217:227|234:167,2,77.999997619629,8|0|8,3:2|1:0|0:0,0:0:0:0:
261,343,77978,1,0,3:0:0:0:
326,276,78139,2,0,B|356:269|356:269|416:286,1,77.999997619629,0|0,1:0|3:0,0:0:0:0:
484,238,78462,1,4,3:0:0:0:
490,235,78785,6,0,L|469:93,1,143.000004364014,14|10,3:2|1:2,0:0:0:0:
384,74,79268,1,0,0:0:0:0:
384,74,79430,2,0,B|351:86|351:86|313:84,1,71.5000021820069,10|0,3:2|3:0,0:0:0:0:
244,141,79752,2,0,B|211:129|211:129|173:130,1,71.5000021820069,10|2,1:2|0:3,0:0:0:0:
110,195,80075,2,0,P|141:260|163:344,1,143.000004364014,10|10,3:2|1:2,0:0:0:0:
245,375,80559,1,0,3:0:0:0:
245,375,80720,2,0,P|264:306|295:241,1,143.000004364014,10|10,3:2|1:2,0:0:0:0:
242,381,81365,6,0,L|78:367,1,143.000004364014,10|10,3:2|1:2,0:0:0:0:
31,310,81849,1,0,0:0:0:0:
31,310,82010,2,0,B|43:277|43:277|41:239,1,71.5000021820069,10|0,3:2|3:0,0:0:0:0:
112,184,82333,2,0,B|100:151|100:151|101:113,1,71.5000021820069,10|2,1:2|0:3,0:0:0:0:
174,62,82656,2,0,P|211:64|245:75,1,71.5000021820069,10|0,3:2|0:0,0:0:0:0:
330,46,82978,2,0,P|346:78|353:113,1,71.5000021820069,10|0,1:2|3:0,0:0:0:0:
283,169,83301,2,0,P|266:201|259:236,1,71.5000021820069,14|0,3:2|0:0,0:0:0:0:
202,305,83623,2,0,P|221:335|248:359,1,71.5000021820069,10|0,1:2|0:0,0:0:0:0:
337,369,83946,6,0,B|386:361|386:361|414:333|414:333|467:324,1,143.000004364014,14|10,3:2|1:2,0:0:0:0:
512,244,84430,1,0,0:0:0:0:
512,244,84591,2,0,L|437:235,1,71.5000021820069,10|0,3:2|3:0,0:0:0:0:
384,163,84914,2,0,L|309:172,1,71.5000021820069,10|2,1:2|0:3,0:0:0:0:
224,154,85236,2,0,P|246:217|262:319,1,143.000004364014,10|10,3:2|1:2,0:0:0:0:
183,340,85720,1,0,3:0:0:0:
183,340,85881,2,0,P|120:318|18:302,1,143.000004364014,10|10,3:2|1:2,0:0:0:0:
186,346,86527,6,0,B|239:340|239:340|272:358|272:358|323:352,1,143.000004364014,10|10,3:2|1:2,0:0:0:0:
402,302,87010,1,0,0:0:0:0:
402,302,87172,2,0,L|410:224,1,71.5000021820069,10|0,3:2|3:0,0:0:0:0:
494,200,87494,2,0,L|501:271,1,71.5000021820069,10|2,1:2|0:3,0:0:0:0:
487,363,87817,1,10,3:2:0:0:
487,363,87978,1,0,3:0:0:0:
491,272,88139,2,0,L|483:200,1,71.5000021820069,10|0,1:2|3:0,0:0:0:0:
395,174,88462,2,0,L|387:246,1,71.5000021820069,10|0,1:2|3:0,0:0:0:0:
298,268,88785,2,0,L|290:196,1,71.5000021820069,14|0,1:2|3:0,0:0:0:0:
214,128,89107,5,14,3:2:0:0:
214,128,89268,1,0,3:0:0:0:
278,64,89430,2,0,L|352:85,1,77.999997619629,10|0,1:2|3:0,0:0:0:0:
426,29,89752,2,0,L|475:20,3,38.9999988098145,2|0|0|0,3:2|3:0|3:0|1:0,0:0:0:0:
503,24,90075,2,0,L|512:73,3,38.9999988098145,2|0|0|0,1:2|3:0|3:0|1:0,0:0:0:0:
491,114,90397,6,0,L|469:188,1,77.999997619629,14|0,3:2|3:0,0:0:0:0:
381,210,90720,2,0,L|402:284,1,77.999997619629,14|0,1:2|3:0,0:0:0:0:
316,307,91043,2,0,L|294:381,1,77.999997619629,10|0,1:2|1:0,0:0:0:0:
255,376,91285,1,0,1:0:0:0:
255,376,91365,2,0,L|206:385,3,38.9999988098145,2|0|0|0,1:2|1:0|1:0|1:0,0:0:0:0:
164,359,91688,6,0,L|142:284,1,77.999997619629,14|0,3:2|3:0,0:0:0:0:
72,225,92010,2,0,L|50:299,1,77.999997619629,10|0,1:2|3:0,0:0:0:0:
0,373,92333,1,10,1:2:0:0:
0,373,92494,1,0,3:0:0:0:
41,291,92656,2,0,L|62:216,1,77.999997619629,10|0,1:2|3:0,0:0:0:0:
140,166,92978,6,0,B|176:154|176:154|265:191,1,116.999996429443,14|0,3:2|3:0,0:0:0:0:
248,184,93301,2,0,L|254:230,3,38.9999988098145,14|0|0|0,1:2|3:0|3:0|1:0,0:0:0:0:
284,245,93623,2,0,L|290:291,3,38.9999988098145,2|0|0|0,1:2|3:0|3:0|3:0,0:0:0:0:
323,303,93946,2,0,L|329:349,3,38.9999988098145,2|0|0|0,3:2|3:0|3:0|3:0,0:0:0:0:
365,383,94268,6,0,B|401:370|401:370|443:373,1,77.999997619629,14|0,3:2|3:0,0:0:0:0:
510,316,94591,2,0,L|492:218,1,77.999997619629,10|0,1:2|3:0,0:0:0:0:
512,152,94914,1,10,1:2:0:0:
512,152,95075,1,0,3:0:0:0:
462,77,95236,2,0,B|426:64|426:64|384:67,1,77.999997619629,10|0,1:2|3:0,0:0:0:0:
299,49,95559,6,0,L|317:147,1,77.999997619629,14|0,3:2|3:0,0:0:0:0:
254,195,95881,2,0,B|214:197|214:197|178:184,1,77.999997619629,10|0,1:2|0:0,0:0:0:0:
96,225,96204,2,0,L|89:264,3,38.9999988098145,14|0|0|0,3:2|3:0|1:0|1:0,0:0:0:0:
106,299,96527,2,0,L|99:338,3,38.9999988098145,2|0|0|0,1:2|1:0|1:0|1:0,0:0:0:0:
141,370,96849,6,0,L|234:360,1,77.999997619629,14|0,3:2|3:0,0:0:0:0:
263,283,97172,2,0,L|356:293,1,77.999997619629,10|0,1:2|3:0,0:0:0:0:
420,346,97494,1,10,1:2:0:0:
420,346,97656,1,0,3:0:0:0:
359,279,97817,2,0,L|281:270,1,77.999997619629,14|0,1:2|3:0,0:0:0:0:
213,209,98139,6,0,B|197:172|197:172|205:132,1,77.999997619629,14|0,3:2|3:0,0:0:0:0:
169,52,98462,2,0,L|246:44,1,77.999997619629,2|0,1:2|3:0,0:0:0:0:
326,8,98785,2,0,B|342:45|342:45|334:85,1,77.999997619629,2|0,3:2|3:0,0:0:0:0:
370,165,99107,2,0,L|293:173,1,77.999997619629,2|0,1:2|0:0,0:0:0:0:
204,135,99430,5,4,3:1:0:0:
256,192,99510,12,2,104268,0:0:0:0:
