osu file format v14

[General]
AudioFilename: audio.mp3
AudioLeadIn: 0
PreviewTime: 57897
Countdown: 0
SampleSet: Soft
StackLeniency: 0.7
Mode: 0
LetterboxInBreaks: 0
WidescreenStoryboard: 0

[Editor]
DistanceSpacing: 1
BeatDivisor: 4
GridSize: 4
TimelineZoom: 3.399997

[Metadata]
Title:Rewriter
TitleUnicode:Rewriter
Artist:KISIDA KYODAN & THE AKEBOSI ROCKETS
ArtistUnicode:岸田教団&THE明星ロケッツ
Creator:wenect
Version:Expert
Source:
Tags:japanese j-core j-rock セブンスワールド Seventh World short cut version Maruoko Unranked Mapper NeKroMan4ik komore schoolboy
BeatmapID:2306588
BeatmapSetID:1062721

[Difficulty]
HPDrainRate:7
CircleSize:3.8
OverallDifficulty:8.5
ApproachRate:9.3
SliderMultiplier:1.7
SliderTickRate:1

[Events]
//Background and Video events
0,0,"Rewrite.jpg",0,0
//Break Periods
//Storyboard Layer 0 (Background)
//Storyboard Layer 1 (Fail)
//Storyboard Layer 2 (Pass)
//Storyboard Layer 3 (Foreground)
//Storyboard Layer 4 (Overlay)
//Storyboard Sound Samples

[TimingPoints]
10055,322.58064516129,4,2,1,70,1,0
10398,322.58064516129,4,2,2,70,1,0
10398,-90.9090909090909,4,2,2,70,0,0
10639,-90.9090909090909,4,2,2,5,0,0
10720,-90.9090909090909,4,2,2,70,0,0
13220,-90.9090909090909,4,2,2,5,0,0
13301,-90.9090909090909,4,2,2,70,0,0
15801,-90.9090909090909,4,2,2,5,0,0
15881,-90.9090909090909,4,2,2,70,0,0
18381,-90.9090909090909,4,2,2,5,0,0
18462,-90.9090909090909,4,2,2,70,0,0
18785,-90.9090909090909,4,2,2,71,0,0
19107,-90.9090909090909,4,2,2,73,0,0
19430,-90.9090909090909,4,2,1,75,0,0
20075,-90.9090909090909,4,2,1,65,0,0
20720,-90.9090909090909,4,2,1,70,0,0
20962,-90.9090909090909,4,2,1,5,0,0
21043,-90.9090909090909,4,2,2,70,0,0
23543,-90.9090909090909,4,2,2,5,0,0
23623,-90.9090909090909,4,2,2,70,0,0
26123,-90.9090909090909,4,2,2,5,0,0
26204,-90.9090909090909,4,2,2,70,0,0
28704,-90.9090909090909,4,2,2,5,0,0
28785,-90.9090909090909,4,2,2,70,0,0
29752,-90.9090909090909,4,2,3,75,0,0
30962,-90.9090909090909,4,2,3,5,0,0
31043,-90.9090909090909,4,2,3,70,0,0
32333,-125,4,2,4,60,0,0
36849,-125,4,2,2,63,0,0
37172,-125,4,2,2,65,0,0
37494,-100,4,2,2,70,0,0
37736,-100,4,2,2,5,0,0
37817,-100,4,2,2,70,0,0
38462,-100,4,2,1,70,0,0
38704,-100,4,2,1,5,0,0
38785,-100,4,2,2,65,0,0
39752,-100,4,2,4,60,0,0
40075,-111.111111111111,4,2,4,65,0,0
44591,-111.111111111111,4,2,2,66,0,0
44914,-111.111111111111,4,2,2,68,0,0
45236,-100,4,2,2,70,0,0
45478,-100,4,2,2,5,0,0
45559,-100,4,2,2,70,0,0
46527,-100,4,2,1,70,0,0
47656,-100,4,2,2,60,0,0
47817,-100,4,2,3,65,0,0
49430,-100,4,2,4,65,0,0
49752,-100,4,2,2,65,0,0
50236,-100,4,2,2,70,0,0
50720,-100,4,2,1,70,0,0
51527,-100,4,2,1,60,0,0
52656,-100,4,2,4,60,0,0
52978,-100,4,2,3,65,0,0
54914,-100,4,2,4,65,0,0
55156,-100,4,2,4,5,0,0
55236,-100,4,2,2,65,0,0
55397,-100,4,2,2,70,0,0
56123,-100,4,2,2,5,0,0
56204,-100,4,2,3,65,0,0
57494,-125,4,2,3,65,0,0
57575,-125,4,2,3,5,0,0
57978,-125,4,2,4,60,0,0
58139,-83.3333333333333,4,2,2,80,0,1
59672,-83.3333333333333,4,2,2,5,0,1
59752,-83.3333333333333,4,2,2,80,0,1
60639,-83.3333333333333,4,2,2,5,0,1
60720,-83.3333333333333,4,2,1,85,0,1
61204,-83.3333333333333,4,2,3,85,0,1
61849,-83.3333333333333,4,2,2,85,0,1
62575,-83.3333333333333,4,2,2,5,0,1
62656,-83.3333333333333,4,2,2,75,0,1
63301,-83.3333333333333,4,2,1,80,0,1
63543,-83.3333333333333,4,2,1,5,0,1
63623,-83.3333333333333,4,2,3,80,0,1
65881,-83.3333333333333,4,2,2,80,0,1
66123,-83.3333333333333,4,2,2,5,0,1
66204,-83.3333333333333,4,2,2,80,0,1
67656,-83.3333333333333,4,2,2,75,0,1
67978,-83.3333333333333,4,2,2,70,0,1
68462,-83.3333333333333,4,2,2,80,0,1
69994,-83.3333333333333,4,2,2,5,0,1
70075,-83.3333333333333,4,2,2,80,0,1
70962,-83.3333333333333,4,2,2,5,0,1
71043,-83.3333333333333,4,2,1,85,0,1
71527,-83.3333333333333,4,2,3,85,0,1
72172,-83.3333333333333,4,2,2,85,0,1
72897,-83.3333333333333,4,2,2,5,0,1
72978,-83.3333333333333,4,2,2,75,0,1
73623,-83.3333333333333,4,2,1,80,0,1
73865,-83.3333333333333,4,2,1,5,0,1
73946,-83.3333333333333,4,2,3,80,0,1
76204,-83.3333333333333,4,2,2,80,0,1
76446,-83.3333333333333,4,2,2,5,0,1
76527,-83.3333333333333,4,2,2,80,0,1
78785,-90.9090909090909,4,2,2,70,0,0
79027,-90.9090909090909,4,2,2,5,0,0
79107,-90.9090909090909,4,2,2,70,0,0
81607,-90.9090909090909,4,2,2,5,0,0
81688,-90.9090909090909,4,2,2,70,0,0
83301,-90.9090909090909,4,2,1,70,0,0
83623,-90.9090909090909,4,2,2,70,0,0
84188,-90.9090909090909,4,2,2,5,0,0
84268,-90.9090909090909,4,2,2,70,0,0
86768,-90.9090909090909,4,2,2,5,0,0
86849,-90.9090909090909,4,2,2,70,0,0
88785,-90.9090909090909,4,2,1,75,0,0
89027,-90.9090909090909,4,2,1,5,0,0
89107,-83.3333333333333,4,2,2,80,0,1
89591,-83.3333333333333,4,2,2,70,0,1
90075,-83.3333333333333,4,2,2,75,0,1
90397,-83.3333333333333,4,2,1,80,0,1
90720,-83.3333333333333,4,2,3,80,0,1
91204,-83.3333333333333,4,2,3,70,0,1
91365,-83.3333333333333,4,2,3,75,0,1
91688,-83.3333333333333,4,2,2,80,0,1
92978,-83.3333333333333,4,2,3,80,0,1
93220,-83.3333333333333,4,2,1,70,0,1
93946,-83.3333333333333,4,2,4,60,0,1
94268,-83.3333333333333,4,2,2,80,0,1
95559,-83.3333333333333,4,2,3,80,0,1
96123,-83.3333333333333,4,2,1,70,0,1
96527,-83.3333333333333,4,2,1,75,0,1
96849,-83.3333333333333,4,2,2,80,0,1
97817,-83.3333333333333,4,2,1,80,0,1
98139,-83.3333333333333,4,2,3,75,0,1
99107,-125,4,2,1,75,0,1
99349,-125,4,2,1,5,0,1
99430,-178.571428571429,4,2,4,80,0,0
99510,-178.571428571429,4,2,4,5,0,0
104268,-178.571428571429,4,2,1,40,0,0

[Colours]
Combo1 : 244,106,47
Combo2 : 214,215,245
Combo3 : 20,102,204
Combo4 : 92,204,209
SliderTrackOverride : 0,0,0

[HitObjects]
43,313,10398,6,0,B|117:309|94:260|167:256,1,140.25000428009,14|0,3:2|0:0,0:0:0:0:
241,283,10720,2,0,B|257:330|257:330|231:371,1,93.5000028533936,10|0,1:2|3:0,0:0:0:0:
166,256,11043,1,10,3:2:0:0:
227,206,11204,1,0,3:0:0:0:
122,100,11365,2,0,P|121:155|154:191,1,93.5000028533936,10|2,1:2|0:3,0:0:0:0:
227,206,11607,1,2,0:3:0:0:
227,206,11688,6,0,P|273:211|337:236,1,93.5000028533936,10|0,3:2|0:0,0:0:0:0:
497,134,12010,2,0,P|451:139|407:154,1,93.5000028533936,10|0,1:2|3:0,0:0:0:0:
210,98,12333,2,0,P|256:103|301:118,1,93.5000028533936,10|0,3:2|0:0,0:0:0:0:
474,23,12656,2,0,P|427:28|383:42,1,93.5000028533936,10|0,1:2|0:0,0:0:0:0:
408,321,12978,6,0,B|443:283|443:283|402:164,1,140.25000428009,14|0,3:2|0:0,0:0:0:0:
435,125,13301,1,10,1:2:0:0:
358,130,13462,1,0,0:0:0:0:
310,193,13623,1,10,3:2:0:0:
326,270,13785,1,0,3:0:0:0:
144,117,13946,2,0,P|188:90|259:108,1,93.5000028533936,10|2,1:2|0:3,0:0:0:0:
310,193,14188,1,2,0:3:0:0:
310,193,14268,6,0,L|215:183,1,93.5000028533936,10|0,3:2|0:0,0:0:0:0:
41,345,14591,2,0,L|136:335,1,93.5000028533936,10|0,1:2|3:0,0:0:0:0:
109,197,14914,2,0,L|14:187,1,93.5000028533936,10|0,3:2|0:0,0:0:0:0:
228,364,15236,2,0,L|323:354,1,93.5000028533936,10|0,1:2|0:0,0:0:0:0:
378,91,15559,6,0,P|318:122|298:195,1,140.25000428009,14|0,3:2|0:0,0:0:0:0:
353,246,15881,2,0,P|396:252|444:271,1,93.5000028533936,10|0,1:2|0:0,0:0:0:0:
321,354,16204,1,10,3:2:0:0:
281,286,16365,1,0,3:0:0:0:
147,222,16527,2,0,P|126:271|131:349,1,93.5000028533936,10|2,1:2|0:3,0:0:0:0:
44,338,16768,1,2,0:3:0:0:
44,338,16849,6,0,L|23:215,1,93.5000028533936,10|0,3:2|0:0,0:0:0:0:
198,81,17172,2,0,B|223:119|223:119|205:169,1,93.5000028533936,10|0,1:2|3:0,0:0:0:0:
22,90,17494,2,0,L|144:69,1,93.5000028533936,10|0,3:2|0:0,0:0:0:0:
257,248,17817,2,0,B|219:273|219:273|173:256,1,93.5000028533936,10|0,1:2|0:0,0:0:0:0:
296,29,18139,6,0,B|370:33|347:82|420:86,1,140.25000428009,14|0,3:2|0:0,0:0:0:0:
490,52,18462,2,0,B|515:89|515:89|500:144,1,93.5000028533936,10|0,1:2|0:0,0:0:0:0:
367,245,18785,1,10,3:2:0:0:
387,164,18946,1,0,3:0:0:0:
344,88,19107,1,10,1:2:0:0:
376,14,19268,1,2,3:0:0:0:
376,14,19349,1,2,0:3:0:0:
376,14,19430,5,14,1:2:0:0:
261,206,19591,1,0,3:0:0:0:
223,70,19752,5,10,1:2:0:0:
410,316,19914,1,0,3:0:0:0:
307,381,20075,5,2,1:2:0:0:
307,340,20156,1,0,1:0:0:0:
316,302,20236,1,0,1:0:0:0:
339,269,20317,1,0,1:0:0:0:
365,239,20397,1,2,1:2:0:0:
383,203,20478,1,0,1:0:0:0:
389,163,20559,1,0,1:0:0:0:
389,123,20639,1,0,1:0:0:0:
389,123,20720,6,0,P|320:140|263:190,1,140.25000428009,14|0,3:2|0:0,0:0:0:0:
108,189,21043,2,0,P|153:179|191:152,1,93.5000028533936,14|0,1:2|3:0,0:0:0:0:
264,281,21365,1,10,3:2:0:0:
335,241,21527,1,0,3:0:0:0:
414,359,21688,2,0,P|431:306|404:261,1,93.5000028533936,10|2,1:2|0:3,0:0:0:0:
335,241,21930,1,2,0:3:0:0:
335,241,22010,6,0,P|327:290|324:342,1,93.5000028533936,10|0,3:2|0:0,0:0:0:0:
94,202,22333,2,0,P|102:251|105:303,1,93.5000028533936,10|0,1:2|3:0,0:0:0:0:
345,148,22656,2,0,P|337:197|334:249,1,93.5000028533936,10|0,3:2|0:0,0:0:0:0:
83,109,22978,2,0,P|91:158|94:210,1,93.5000028533936,10|0,1:2|0:0,0:0:0:0:
365,52,23301,6,0,B|316:45|316:45|278:64|278:64|226:57,1,140.25000428009,14|0,3:2|0:0,0:0:0:0:
176,114,23623,1,10,1:2:0:0:
205,188,23785,1,0,0:0:0:0:
283,207,23946,1,10,3:2:0:0:
346,159,24107,1,0,3:0:0:0:
414,357,24268,2,0,P|383:309|392:238,1,93.5000028533936,10|2,1:2|0:3,0:0:0:0:
456,175,24510,1,2,0:3:0:0:
456,175,24591,6,0,B|483:210|483:210|474:268,1,93.5000028533936,10|0,3:2|0:0,0:0:0:0:
253,285,24914,2,0,B|226:320|226:320|235:378,1,93.5000028533936,10|0,1:2|3:0,0:0:0:0:
308,228,25236,2,0,B|315:179|315:179|288:144,1,93.5000028533936,10|0,3:2|0:0,0:0:0:0:
92,128,25559,2,0,B|85:80|85:80|112:45,1,93.5000028533936,10|0,1:2|0:0,0:0:0:0:
373,166,25881,6,0,L|358:-3,1,140.25000428009,14|0,3:2|0:0,0:0:0:0:
287,0,26204,2,0,P|255:32|253:96,1,93.5000028533936,10|0,1:2|0:0,0:0:0:0:
138,200,26527,1,10,3:2:0:0:
171,128,26688,1,0,3:0:0:0:
305,260,26849,2,0,P|298:190|273:145,1,93.5000028533936,10|2,1:2|0:3,0:0:0:0:
349,116,27091,1,2,0:3:0:0:
349,116,27172,6,0,L|460:133,1,93.5000028533936,10|0,3:2|0:0,0:0:0:0:
381,339,27494,2,0,L|492:322,1,93.5000028533936,10|0,1:2|3:0,0:0:0:0:
183,101,27817,2,0,L|276:87,1,93.5000028533936,10|0,3:2|0:0,0:0:0:0:
123,355,28139,2,0,L|215:369,1,93.5000028533936,10|0,1:2|0:0,0:0:0:0:
78,73,28462,6,0,P|24:133|39:190,1,140.25000428009,14|0,3:2|0:0,0:0:0:0:
100,229,28785,1,10,1:2:0:0:
216,167,28946,1,0,0:0:0:0:
178,235,29107,1,10,3:2:0:0:
136,157,29268,1,0,3:0:0:0:
251,293,29430,2,0,P|294:298|354:312,1,93.5000028533936,10|2,1:2|0:3,0:0:0:0:
450,228,29672,1,2,0:3:0:0:
450,228,29752,5,10,3:2:0:0:
437,306,29914,1,0,3:0:0:0:
285,379,30075,5,10,1:2:0:0:
216,167,30236,1,0,3:0:0:0:
77,103,30397,5,14,1:2:0:0:
14,378,30559,1,0,3:0:0:0:
178,235,30720,6,0,P|149:186|71:184,1,140.25000428009,10|0,1:2|0:0,0:0:0:0:
4,138,31043,5,0,3:0:0:0:
4,138,31123,1,0,1:0:0:0:
4,138,31204,1,0,1:0:0:0:
511,179,32010,1,4,3:0:0:0:
450,228,32333,6,0,B|386:223|399:177|330:170,1,136,4|2,3:1|1:2,0:0:0:0:
265,357,32897,1,2,1:3:0:0:
265,357,32978,2,0,L|255:290,1,68,2|2,3:2|3:2,0:0:0:0:
132,278,33301,1,2,1:2:0:0:
186,220,33462,6,0,L|161:379,1,136,2|0,0:0|0:0,0:0:0:0:
61,237,33946,1,2,1:2:0:0:
104,169,34107,1,2,0:3:0:0:
104,169,34188,1,2,1:3:0:0:
104,169,34268,1,2,3:2:0:0:
177,144,34430,1,2,3:2:0:0:
35,82,34591,1,2,1:2:0:0:
70,11,34752,6,0,L|94:161,1,136,2|0,0:0|0:0,0:0:0:0:
238,88,35236,2,0,L|248:20,1,68,2|2,1:2|0:3,0:0:0:0:
330,34,35478,1,2,1:3:0:0:
330,34,35559,2,0,L|319:101,1,68,2|0,3:2|3:0,0:0:0:0:
451,201,35881,1,2,1:2:0:0:
411,134,36043,6,0,P|380:153|358:180,1,68,10|0,3:2|0:0,0:0:0:0:
265,200,36365,2,0,P|248:232|242:266,1,68,2|0,3:2|1:0,0:0:0:0:
306,330,36688,1,2,0:0:0:0:
306,330,36768,1,0,1:0:0:0:
306,330,36849,1,8,3:2:0:0:
380,288,37010,1,2,3:2:0:0:
310,118,37172,1,8,1:2:0:0:
348,50,37494,6,0,L|362:200,1,127.5,14|0,3:2|0:0,0:0:0:0:
435,157,37817,2,0,L|445:49,1,85,8|0,1:2|0:0,0:0:0:0:
286,1,38139,1,10,3:2:0:0:
247,70,38301,1,0,3:0:0:0:
85,25,38462,2,0,P|143:0|207:2,1,127.5,12|0,1:2|0:0,0:0:0:0:
247,70,38785,6,0,P|226:109|220:161,1,85,2|0,3:2|3:0,0:0:0:0:
370,199,39027,1,0,1:0:0:0:
370,199,39107,2,0,P|327:200|288:215,1,85,0|0,1:0|3:0,0:0:0:0:
326,370,39349,1,0,1:0:0:0:
326,370,39430,2,0,P|304:334|272:307,1,85,2|0,1:2|3:0,0:0:0:0:
214,256,39672,1,0,3:0:0:0:
214,256,39752,1,0,3:0:0:0:
191,291,39833,1,0,3:0:0:0:
192,333,39914,1,0,3:0:0:0:
216,367,39994,1,0,3:0:0:0:
216,367,40075,6,0,P|146:360|55:345,1,152.999995330811,4|2,3:1|1:2,0:0:0:0:
36,145,40639,1,2,0:3:0:0:
36,145,40720,2,0,P|43:182|46:220,1,76.4999976654053,2|2,3:2|3:2,0:0:0:0:
223,155,41043,1,2,1:2:0:0:
153,121,41204,1,2,0:0:0:0:
153,121,41285,1,0,1:0:0:0:
153,121,41365,6,0,P|147:151|142:206,1,76.4999976654053,0|0,3:0|0:0,0:0:0:0:
298,281,41688,2,0,P|291:244|288:206,1,76.4999976654053,2|2,1:2|0:3,0:0:0:0:
338,146,41930,1,2,1:3:0:0:
338,146,42010,2,0,B|374:141|374:141|424:160,1,76.4999976654053,2|2,3:2|3:2,0:0:0:0:
512,48,42333,1,2,1:2:0:0:
448,1,42494,6,0,P|473:64|499:156,1,152.999995330811,2|0,0:0|0:0,0:0:0:0:
399,269,42978,2,0,B|363:274|363:274|313:255,1,76.4999976654053,2|2,1:2|0:3,0:0:0:0:
280,196,43220,1,2,1:3:0:0:
280,196,43301,2,0,L|194:206,1,76.4999976654053,2|2,3:2|3:2,0:0:0:0:
69,107,43623,1,2,1:2:0:0:
138,68,43785,6,0,P|151:101|152:148,1,76.4999976654053,10|0,3:2|0:0,0:0:0:0:
236,276,44107,2,0,P|230:311|208:352,1,76.4999976654053,2|0,3:2|1:0,0:0:0:0:
136,364,44430,1,2,0:0:0:0:
136,364,44510,1,0,1:0:0:0:
136,364,44591,1,8,3:2:0:0:
92,293,44752,1,2,3:2:0:0:
323,267,44914,1,8,1:2:0:0:
369,331,45236,6,0,P|309:309|248:290,1,127.5,14|0,3:2|0:0,0:0:0:0:
196,233,45559,1,8,1:2:0:0:
268,198,45720,1,0,3:0:0:0:
401,62,45881,1,10,1:2:0:0:
310,48,46043,1,0,3:0:0:0:
393,221,46204,1,8,1:2:0:0:
512,198,46365,1,0,3:0:0:0:
298,36,46527,5,14,1:2:0:0:
240,89,46688,1,0,3:0:0:0:
332,129,46849,2,0,P|319:87|306:31,1,85,0|0,1:0|3:0,0:0:0:0:
103,20,47172,5,8,3:0:0:0:
240,89,47333,1,0,3:0:0:0:
135,245,47494,2,0,P|154:187|167:122,1,127.5,0|2,1:0|0:3,0:0:0:0:
240,89,47817,5,6,3:2:0:0:
228,172,48139,1,0,3:0:0:0:
162,215,48462,1,2,3:2:0:0:
84,198,48785,1,0,3:0:0:0:
24,251,49107,1,2,3:2:0:0:
19,330,49430,1,4,3:2:0:0:
158,335,49752,5,2,3:2:0:0:
90,293,49914,1,0,3:0:0:0:
87,371,50075,1,0,1:0:0:0:
237,181,50236,6,0,P|292:187|386:262,1,170,14|0,3:2|3:0,0:0:0:0:
510,145,50720,2,0,P|468:153|429:169,1,85,12|0,1:2|0:0,0:0:0:0:
319,83,51043,1,10,3:2:0:0:
469,25,51204,1,0,1:0:0:0:
424,89,51365,1,2,3:2:0:0:
330,4,51527,5,0,1:0:0:0:
330,4,51607,1,0,1:0:0:0:
330,4,51688,2,0,P|299:7|288:11,3,42.5,2|0|0|0,1:2|1:0|3:0|3:0,0:0:0:0:
240,75,52010,2,0,P|215:93|207:102,3,42.5,2|0|0|0,3:2|3:0|3:0|3:0,0:0:0:0:
197,181,52333,2,0,P|184:209|182:220,3,42.5,2|0|0|0,3:2|3:0|3:0|3:0,0:0:0:0:
212,294,52656,2,0,P|215:324|219:335,3,42.5,0|0|0|0,3:0|3:0|3:0|3:0,0:0:0:0:
324,369,52978,5,6,3:2:0:0:
394,333,53301,1,0,3:0:0:0:
418,258,53623,1,2,3:2:0:0:
382,188,53946,1,0,3:0:0:0:
406,113,54268,1,2,3:2:0:0:
476,76,54591,1,0,3:0:0:0:
461,191,54914,2,0,P|403:212|327:270,1,127.5,6|0,3:2|0:0,0:0:0:0:
276,221,55236,1,0,1:0:0:0:
204,77,55397,6,0,P|288:81|317:158,1,170,14|0,3:2|3:0,0:0:0:0:
231,287,55881,2,0,P|184:277|99:269,1,127.5,8|0,1:2|0:0,0:0:0:0:
47,218,56204,6,0,P|55:197|62:174,1,42.5,2|0,3:2|3:0,0:0:0:0:
218,117,56365,1,0,3:0:0:0:
218,117,56446,1,0,1:0:0:0:
218,117,56527,2,0,P|209:96|203:73,1,42.5,2|0,1:2|3:0,0:0:0:0:
45,5,56688,5,0,3:0:0:0:
45,5,56768,1,0,3:0:0:0:
45,5,56849,1,2,3:2:0:0:
45,56,56930,1,0,3:0:0:0:
80,94,57010,1,0,3:0:0:0:
132,97,57091,1,0,1:0:0:0:
172,63,57172,1,2,1:2:0:0:
208,42,57252,1,0,3:0:0:0:
250,43,57333,1,0,3:0:0:0:
284,67,57414,1,0,1:0:0:0:
284,67,57494,6,0,P|224:135|217:274,1,204,2|2,1:2|0:0,0:0:0:0:
342,352,58139,5,14,3:2:0:0:
296,282,58301,1,2,0:0:0:0:
366,236,58462,1,10,1:2:0:0:
412,306,58623,1,2,0:0:0:0:
259,358,58785,5,10,3:2:0:0:
405,166,58946,1,2,3:2:0:0:
209,244,59107,5,10,1:2:0:0:
483,339,59268,1,2,0:0:0:0:
512,128,59430,6,0,P|456:149|448:239,1,152.999995330811,10|0,3:2|0:0,0:0:0:0:
412,306,59752,2,0,P|361:291|305:287,1,101.999996887207,10|0,1:2|0:0,0:0:0:0:
162,150,60075,1,10,3:2:0:0:
235,121,60236,1,0,3:0:0:0:
192,331,60397,2,0,P|112:345|31:377,1,152.999995330811,10|0,1:2|0:0,0:0:0:0:
0,283,60720,6,0,L|23:180,1,101.999996887207,14|0,0:0|3:0,0:0:0:0:
175,72,61043,1,2,1:2:0:0:
109,29,61204,2,0,L|146:259,1,203.999993774414,14|2,3:2|3:2,0:0:0:0:
4,101,61688,1,0,1:0:0:0:
218,5,61849,6,0,B|321:10|288:91|391:96,1,203.999993774414,14|0,3:2|3:0,0:0:0:0:
237,86,62333,2,0,L|373:15,1,152.999995330811,8|0,1:2|0:0,0:0:0:0:
498,92,62656,1,2,1:2:0:0:
482,122,62736,1,0,1:0:0:0:
485,157,62817,1,0,1:0:0:0:
469,189,62897,1,0,1:0:0:0:
469,189,62978,2,0,P|437:195|400:203,1,50.9999984436036,2|0,1:2|1:0,0:0:0:0:
321,292,63139,2,0,P|289:285|252:278,1,50.9999984436036,2|0,1:2|1:0,0:0:0:0:
48,175,63301,6,0,B|202:157,1,152.999995330811,14|0,3:2|0:0,0:0:0:0:
313,217,63623,1,14,1:2:0:0:
271,282,63785,2,0,P|252:330|245:380,1,101.999996887207,2|8,0:0|3:2,0:0:0:0:
87,272,64107,2,0,P|137:264|184:246,1,101.999996887207,2|8,3:2|1:2,0:0:0:0:
364,101,64430,6,0,B|312:60|250:97|250:97|240:140|196:158,1,203.999993774414,2|2,0:0|3:2,0:0:0:0:
50,70,64914,2,0,L|152:59,1,101.999996887207,10|0,1:2|0:0,0:0:0:0:
184,246,65236,1,8,3:2:0:0:
126,188,65397,1,0,3:0:0:0:
358,113,65559,1,10,1:2:0:0:
278,270,65720,1,2,0:0:0:0:
441,130,65881,6,0,B|491:145|491:145|455:271,1,152.999995330811,14|0,3:2|0:0,0:0:0:0:
389,261,66204,1,10,1:2:0:0:
244,119,66365,2,0,L|368:102,1,101.999996887207,2|8,0:0|3:2,0:0:0:0:
215,325,66688,2,0,L|316:339,1,101.999996887207,2|8,3:2|1:2,0:0:0:0:
74,177,67010,6,0,B|53:127|53:127|84:69,1,101.999996887207,2|8,0:0|3:2,0:0:0:0:
224,207,67333,1,2,3:2:0:0:
12,284,67494,1,10,1:2:0:0:
215,325,67656,1,0,1:0:0:0:
187,302,67736,1,0,1:0:0:0:
156,287,67817,1,4,1:3:0:0:
224,207,67978,1,0,3:0:0:0:
216,192,68059,1,0,3:0:0:0:
213,174,68139,1,2,3:2:0:0:
383,184,68301,1,0,3:0:0:0:
389,192,68381,1,0,3:0:0:0:
391,201,68462,5,14,3:2:0:0:
314,216,68623,1,2,0:0:0:0:
261,274,68785,1,10,1:2:0:0:
246,352,68946,1,2,0:0:0:0:
415,306,69107,5,10,3:2:0:0:
218,154,69268,1,2,3:2:0:0:
166,295,69430,5,10,1:2:0:0:
376,105,69591,1,2,0:0:0:0:
118,0,69752,6,0,L|136:158,1,152.999995330811,10|0,3:2|0:0,0:0:0:0:
218,154,70075,2,0,L|230:47,1,101.999996887207,10|0,1:2|0:0,0:0:0:0:
411,35,70397,1,10,3:2:0:0:
376,105,70559,1,2,3:2:0:0:
471,253,70720,2,0,L|453:100,1,152.999995330811,10|0,1:2|0:0,0:0:0:0:
398,23,71043,6,0,B|345:21|345:21|303:55,1,101.999996887207,14|0,3:2|3:0,0:0:0:0:
352,232,71365,1,2,1:2:0:0:
371,308,71527,2,0,B|376:101,1,203.999993774414,14|2,3:2|3:2,0:0:0:0:
474,259,72010,1,0,1:0:0:0:
263,374,72172,6,0,B|156:367|200:288|91:282,1,203.999993774414,14|0,3:2|3:0,0:0:0:0:
244,293,72656,2,0,L|108:363,1,152.999995330811,8|0,1:2|0:0,0:0:0:0:
0,280,72978,1,2,1:2:0:0:
18,252,73059,1,0,1:0:0:0:
23,215,73139,1,2,1:2:0:0:
36,185,73220,1,0,1:0:0:0:
65,171,73301,1,2,1:2:0:0:
62,120,73381,1,0,1:0:0:0:
32,78,73462,1,0,1:0:0:0:
37,27,73543,1,0,1:0:0:0:
37,27,73623,6,0,B|91:9|91:9|198:65,1,152.999995330811,14|0,3:2|0:0,0:0:0:0:
258,156,73946,1,14,1:2:0:0:
316,104,74107,2,0,P|286:59|277:9,1,101.999996887207,2|8,0:0|3:2,0:0:0:0:
471,115,74430,2,0,P|421:125|379:154,1,101.999996887207,2|8,3:2|1:2,0:0:0:0:
254,350,74752,6,0,B|303:365|330:328|330:328|322:272|321:210,1,203.999993774414,2|2,0:0|3:2,0:0:0:0:
180,135,75236,2,0,L|168:236,1,101.999996887207,10|0,1:2|0:0,0:0:0:0:
0,318,75559,1,8,3:2:0:0:
75,345,75720,1,0,3:0:0:0:
180,135,75881,1,10,1:2:0:0:
35,202,76043,1,2,0:0:0:0:
6,28,76204,6,0,P|71:27|103:121,1,152.999995330811,14|0,3:2|0:0,0:0:0:0:
180,135,76527,1,10,1:2:0:0:
324,52,76688,2,0,P|273:60|222:64,1,101.999996887207,2|8,0:0|3:2,0:0:0:0:
254,325,77010,2,0,P|203:316|152:312,1,101.999996887207,2|8,3:2|1:2,0:0:0:0:
16,124,77333,5,2,3:2:0:0:
16,124,77494,1,8,3:2:0:0:
57,281,77656,2,0,L|80:78,1,203.999993774414,0|0,1:0|3:0,0:0:0:0:
98,87,78059,1,0,3:0:0:0:
119,118,78139,1,0,1:0:0:0:
191,90,78301,1,0,3:0:0:0:
227,158,78462,1,4,3:0:0:0:
291,118,78785,6,0,B|356:122|349:171|414:176,1,140.25000428009,14|0,3:2|0:0,0:0:0:0:
485,140,79107,2,0,B|501:94|501:94|469:44,1,93.5000028533936,10|0,1:2|0:0,0:0:0:0:
414,176,79430,1,10,3:2:0:0:
492,226,79591,1,0,3:0:0:0:
403,348,79752,2,0,P|410:299|411:227,1,93.5000028533936,10|2,1:2|0:3,0:0:0:0:
492,226,79994,1,2,0:3:0:0:
492,226,80075,6,0,L|500:343,1,93.5000028533936,10|0,3:2|0:0,0:0:0:0:
299,384,80397,2,0,B|279:340|279:340|297:286,1,93.5000028533936,10|0,1:2|3:0,0:0:0:0:
273,127,80720,2,0,B|293:171|293:171|275:225,1,93.5000028533936,10|0,3:2|0:0,0:0:0:0:
88,152,81043,2,0,L|96:35,1,93.5000028533936,10|0,1:2|0:0,0:0:0:0:
364,2,81365,6,0,P|394:62|357:118,1,140.25000428009,10|0,3:2|0:0,0:0:0:0:
273,127,81688,1,10,1:2:0:0:
217,34,81849,1,0,0:0:0:0:
297,44,82010,1,10,3:2:0:0:
200,116,82172,1,0,3:0:0:0:
1,68,82333,2,0,P|59:64|123:50,1,93.5000028533936,10|2,1:2|0:3,0:0:0:0:
200,116,82575,1,2,0:3:0:0:
200,116,82656,6,0,P|197:158|183:209,1,93.5000028533936,10|0,3:2|0:0,0:0:0:0:
280,384,82978,2,0,P|283:337|297:293,1,93.5000028533936,10|0,1:2|3:0,0:0:0:0:
355,96,83301,2,0,P|351:142|338:187,1,93.5000028533936,14|0,3:2|0:0,0:0:0:0:
435,363,83623,2,0,P|437:316|451:271,1,93.5000028533936,10|0,1:2|0:0,0:0:0:0:
340,0,83946,6,0,P|289:32|279:108,1,140.25000428009,14|0,3:2|0:0,0:0:0:0:
355,96,84268,2,0,P|398:108|454:147,1,93.5000028533936,10|0,1:2|0:0,0:0:0:0:
368,262,84591,1,10,3:2:0:0:
338,188,84752,1,0,3:0:0:0:
199,169,84914,2,0,P|179:228|171:294,1,93.5000028533936,10|2,1:2|0:3,0:0:0:0:
108,309,85156,1,2,0:3:0:0:
108,309,85236,6,0,B|88:264|88:264|112:212,1,93.5000028533936,10|0,3:2|0:0,0:0:0:0:
197,83,85559,2,0,B|217:128|217:128|193:180,1,93.5000028533936,10|0,1:2|3:0,0:0:0:0:
58,95,85881,2,0,P|66:46|72:-3,1,93.5000028533936,10|0,3:2|0:0,0:0:0:0:
258,291,86204,2,0,P|248:335|244:383,1,93.5000028533936,10|0,1:2|0:0,0:0:0:0:
501,206,86527,6,0,B|461:198|432:190|432:190|411:219|373:249,1,140.25000428009,10|0,3:2|0:0,0:0:0:0:
308,214,86849,1,10,1:2:0:0:
304,135,87010,1,0,0:0:0:0:
236,94,87172,1,10,3:2:0:0:
162,120,87333,1,0,3:0:0:0:
8,85,87494,2,0,P|59:80|109:65,1,93.5000028533936,10|2,1:2|0:3,0:0:0:0:
226,176,87736,1,2,0:3:0:0:
226,176,87817,5,10,3:2:0:0:
310,138,87978,1,0,3:0:0:0:
236,94,88139,5,10,1:2:0:0:
427,168,88301,1,0,3:0:0:0:
297,235,88462,5,10,1:2:0:0:
510,126,88623,1,0,3:0:0:0:
488,345,88785,6,0,B|425:337|427:295|364:286,1,140.25000428009,14|0,1:2|0:0,0:0:0:0:
297,235,89107,6,0,B|273:280|273:280|298:336,1,101.999996887207,14|0,3:2|3:0,0:0:0:0:
507,218,89430,2,0,B|531:173|531:173|506:117,1,101.999996887207,10|0,1:2|3:0,0:0:0:0:
458,75,89672,1,0,3:0:0:0:
458,75,89752,2,0,P|430:72|397:66,1,50.9999984436036,2|0,3:2|3:0,0:0:0:0:
348,120,89914,2,0,P|320:123|287:129,1,50.9999984436036,0|0,3:0|1:0,0:0:0:0:
164,2,90075,1,2,1:2:0:0:
129,38,90156,1,0,3:0:0:0:
80,45,90236,1,0,3:0:0:0:
37,19,90317,1,0,1:0:0:0:
37,19,90397,5,14,3:2:0:0:
0,88,90559,1,0,3:0:0:0:
292,237,90720,5,14,1:2:0:0:
164,2,90881,1,0,3:0:0:0:
458,75,91043,5,10,1:2:0:0:
362,202,91204,1,0,1:0:0:0:
344,154,91285,1,0,1:0:0:0:
305,122,91365,1,2,1:2:0:0:
255,113,91446,1,0,1:0:0:0:
208,130,91527,1,0,1:0:0:0:
174,167,91607,1,0,1:0:0:0:
174,167,91688,5,14,3:2:0:0:
292,237,91849,1,0,3:0:0:0:
238,39,92010,5,10,1:2:0:0:
357,287,92172,1,0,3:0:0:0:
177,318,92333,5,10,1:2:0:0:
362,202,92494,1,0,3:0:0:0:
105,208,92656,5,10,1:2:0:0:
436,344,92817,1,0,3:0:0:0:
495,266,92978,6,0,B|408:256|446:210|361:201,1,152.999995330811,14|0,3:2|3:0,0:0:0:0:
282,214,93301,2,0,P|288:238|293:263,1,50.9999984436036,14|0,1:2|3:0,0:0:0:0:
214,165,93462,2,0,P|218:139|225:115,1,50.9999984436036,0|0,3:0|1:0,0:0:0:0:
366,10,93623,1,2,1:2:0:0:
414,15,93704,1,0,3:0:0:0:
441,45,93785,1,0,3:0:0:0:
441,77,93865,1,0,3:0:0:0:
421,99,93946,1,2,3:2:0:0:
400,99,94027,1,0,3:0:0:0:
386,90,94107,1,0,3:0:0:0:
371,94,94188,1,0,3:0:0:0:
371,94,94268,5,14,3:2:0:0:
412,206,94430,1,0,3:0:0:0:
215,46,94591,5,10,1:2:0:0:
119,285,94752,1,0,3:0:0:0:
56,72,94914,5,10,1:2:0:0:
288,307,95075,1,0,3:0:0:0:
353,4,95236,6,0,B|302:-5|302:-5|215:46,1,152.999995330811,10|0,1:2|3:0,0:0:0:0:
268,129,95559,6,0,P|317:125|388:115,1,101.999996887207,14|0,3:2|3:0,0:0:0:0:
173,334,95881,2,0,P|124:338|53:348,1,101.999996887207,10|0,1:2|0:0,0:0:0:0:
378,262,96204,1,14,3:2:0:0:
328,272,96285,1,0,3:0:0:0:
277,270,96365,1,0,1:0:0:0:
232,247,96446,1,0,1:0:0:0:
194,214,96527,1,2,1:2:0:0:
148,191,96607,1,0,1:0:0:0:
98,189,96688,1,0,1:0:0:0:
47,198,96768,1,0,1:0:0:0:
47,198,96849,5,14,3:2:0:0:
262,126,97010,1,0,3:0:0:0:
56,72,97172,5,10,1:2:0:0:
337,196,97333,1,0,3:0:0:0:
361,94,97494,5,10,1:2:0:0:
113,265,97656,1,0,3:0:0:0:
460,297,97817,5,14,1:2:0:0:
185,168,97978,1,0,3:0:0:0:
282,349,98139,6,0,P|278:293|267:235,1,101.999996887207,14|0,3:2|3:0,0:0:0:0:
408,355,98462,6,0,B|427:313|427:313|387:272,1,101.999996887207,2|0,1:2|3:0,0:0:0:0:
198,67,98785,6,0,P|193:122|183:181,1,101.999996887207,2|0,3:2|3:0,0:0:0:0:
56,72,99107,6,0,B|37:114|37:114|77:155,1,101.999996887207,2|0,1:2|0:0,0:0:0:0:
198,67,99430,6,0,B|243:-61|426:-52|432:92|421:146|286:232|220:142|210:118|209:113|207:109|226:-16|19:-90|-113:37|-131:244|-56:372|155:369|286:247|229:198|226:194|222:192|174:150|326:49|533:22|584:220|557:402|348:432|260:338,1,1428.00001743164,4|2,3:1|0:0,0:0:0:0:
