osu file format v14

[General]
AudioFilename: audio.mp3
AudioLeadIn: 0
PreviewTime: 286408
Countdown: 0
SampleSet: Soft
StackLeniency: 0.6
Mode: 0
LetterboxInBreaks: 0
WidescreenStoryboard: 1

[Editor]
Bookmarks: 51060,319448
DistanceSpacing: 0.1
BeatDivisor: 4
GridSize: 4
TimelineZoom: 4.900003

[Metadata]
Title:Jiyuu e no Sanka
TitleUnicode:自由への賛歌
Artist:KISIDA KYODAN & THE AKEBOSI ROCKETS
ArtistUnicode:岸田教団&THE明星ロケッツ
Creator:Cellina
Version:RLQuillab Extra
Source:東方文花帖 ~ Shoot the Bullet.
Tags:kaze ni naru milr_ reana touhou project rock japanese 風神少女 RD-Sounds c83 fuujin shoujo wind god girl ロックンロール ラボラトリー ichigo みっちゃん mi chan はやぴ~ hayapi~ rlc nyquill 東方Project kyoudan akeboshi and kishida video game xlni [_white_music_] [ white music ] rokkunrouru rabatorii
BeatmapID:2535464
BeatmapSetID:1161103

[Difficulty]
HPDrainRate:6
CircleSize:4
OverallDifficulty:8
ApproachRate:9
SliderMultiplier:1.8
SliderTickRate:1

[Events]
//Background and Video events
0,0,"Konachan.com - 148357 fan feathers monochrome shameimaru_aya short_hair sketch tie touhou wings wink yoshioka_yoshiko.jpg",0,0
//Break Periods
2,138017,150190
2,248287,253973
//Storyboard Layer 0 (Background)
//Storyboard Layer 1 (Fail)
//Storyboard Layer 2 (Pass)
//Storyboard Layer 3 (Foreground)
//Storyboard Layer 4 (Overlay)
//Storyboard Sound Samples

[TimingPoints]
1601,202.702702702703,4,2,10,50,1,0
1601,-166.666666666667,4,2,10,50,0,0
21060,-200,4,2,10,50,0,0
25519,-133.333333333333,4,2,10,50,0,0
26736,-133.333333333333,4,2,10,60,0,0
26938,-133.333333333333,4,2,10,70,0,0
27141,-133.333333333333,4,2,10,80,0,0
27344,-133.333333333333,4,2,10,90,0,0
27546,-100,4,2,10,100,0,0
33222,-100,4,2,10,60,0,0
33425,-100,4,2,10,70,0,0
33628,-100,4,2,10,80,0,0
33830,-100,4,2,10,90,0,0
34033,-100,4,2,10,100,0,0
42141,-133.333333333333,4,2,10,70,0,0
42546,-133.333333333333,4,2,10,40,0,0
42952,-133.333333333333,4,2,10,70,0,0
43357,-133.333333333333,4,2,10,40,0,0
43763,-133.333333333333,4,2,10,70,0,0
44168,-133.333333333333,4,2,10,40,0,0
44573,-133.333333333333,4,2,10,70,0,0
44979,-133.333333333333,4,2,10,40,0,0
45384,-133.333333333333,4,2,10,70,0,0
45790,-133.333333333333,4,2,10,40,0,0
46195,-133.333333333333,4,2,10,70,0,0
46601,-133.333333333333,4,2,10,40,0,0
47006,-133.333333333333,4,2,10,70,0,0
47411,-133.333333333333,4,2,10,40,0,0
47817,-133.333333333333,4,2,10,60,0,0
48019,-133.333333333333,4,2,10,70,0,0
48222,-133.333333333333,4,2,10,80,0,0
48425,-133.333333333333,4,2,10,90,0,0
48628,-100,4,2,10,100,0,0
58053,-90.9090909090909,4,2,10,100,0,0
58357,-80,4,2,10,100,0,0
58661,-100,4,2,10,100,0,0
61296,-90.9090909090909,4,2,10,100,0,0
61905,-100,4,2,10,100,0,0
64540,-90.9090909090909,4,2,10,100,0,0
64844,-80,4,2,10,100,0,0
65148,-100,4,2,10,100,0,0
71026,-90.9090909090909,4,2,10,100,0,0
71330,-80,4,2,10,100,0,0
71736,-100,4,2,10,100,0,0
74269,-90.9090909090909,4,2,10,100,0,0
74573,-80,4,2,10,100,0,0
74979,-100,4,2,10,100,0,0
77513,-90.9090909090909,4,2,10,100,0,0
77817,-80,4,2,10,100,0,0
78121,-100,4,2,10,100,0,0
89979,-100,4,2,10,60,0,0
90182,-100,4,2,10,70,0,0
90384,-100,4,2,10,80,0,0
90587,-100,4,2,10,90,0,0
90790,-100,4,2,10,100,0,0
96668,-100,4,2,10,70,0,0
96871,-100,4,2,10,80,0,0
97073,-100,4,2,10,90,0,0
97276,-100,4,2,10,100,0,0
108830,-100,4,2,10,30,0,0
109033,-100,4,2,10,40,0,0
109236,-100,4,2,10,50,0,0
109438,-100,4,2,10,60,0,0
109641,-100,4,2,10,70,0,0
109844,-100,4,2,10,80,0,0
110046,-100,4,2,10,90,0,0
110148,-100,4,2,10,5,0,0
110249,-100,4,2,10,100,0,0
110655,-100,4,2,10,25,0,0
111060,-100,4,2,10,50,0,0
111465,-200,4,2,10,75,0,0
111769,-200,4,2,10,5,0,0
111871,-100,4,2,10,100,0,1
132952,-133.333333333333,4,2,10,100,0,0
134168,-166.666666666667,4,2,10,100,0,0
134573,-100,4,2,10,100,0,1
137817,-100,4,2,10,100,0,0
143492,-100,4,2,10,60,0,0
143695,-100,4,2,10,70,0,0
143898,-100,4,2,10,80,0,0
144101,-100,4,2,10,90,0,0
144303,-100,4,2,10,100,0,0
150790,-100,4,2,10,25,0,0
150992,-100,4,2,10,50,0,0
151195,-100,4,2,10,75,0,0
151398,-100,4,2,10,100,0,0
151601,-100,4,2,10,60,0,0
152006,-100,4,2,10,60,0,0
152057,-100,4,2,10,60,0,0
152411,-133.333333333333,4,2,10,100,0,0
158898,-100,4,2,10,100,0,0
168019,-133.333333333333,4,2,10,100,0,0
168323,-100,4,2,10,100,0,0
168628,-66.6666666666667,4,2,10,100,0,0
168830,-100,4,2,10,100,0,0
170249,-100,4,2,10,60,0,0
170452,-100,4,2,10,70,0,0
170655,-100,4,2,10,50,0,0
170756,-100,4,2,10,80,0,0
170857,-100,4,2,10,60,0,0
170959,-100,4,2,10,90,0,0
171060,-100,4,2,10,75,0,0
171161,-100,4,2,10,100,0,0
171263,-133.333333333333,4,2,10,100,0,0
171465,-100,4,2,10,100,0,0
171871,-66.6666666666667,4,2,10,100,0,0
172073,-100,4,2,10,100,0,0
173492,-100,4,2,10,60,0,0
173695,-100,4,2,10,50,0,0
173796,-100,4,2,10,70,0,0
173898,-100,4,2,10,60,0,0
173999,-100,4,2,10,80,0,0
174101,-100,4,2,10,75,0,0
174202,-100,4,2,10,90,0,0
174303,-100,4,2,10,100,0,0
174506,-133.333333333333,4,2,10,100,0,0
174810,-100,4,2,10,100,0,0
175114,-66.6666666666667,4,2,10,100,0,0
175317,-100,4,2,10,100,0,0
177749,-133.333333333333,4,2,10,100,0,0
178053,-100,4,2,10,100,0,0
178357,-66.6666666666667,4,2,10,100,0,0
178560,-100,4,2,10,100,0,0
181296,-80,4,2,10,100,0,0
181601,-57.1428571428571,4,2,10,100,0,0
181803,-100,4,2,10,100,0,0
184540,-80,4,2,10,100,0,0
184844,-57.1428571428571,4,2,10,100,0,0
185046,-100,4,2,10,100,0,0
186465,-200,4,2,10,100,0,0
186871,-142.857142857143,4,2,10,100,0,0
187276,-117.647058823529,4,2,10,100,0,0
187479,-100,4,2,10,100,0,0
187783,-80,4,2,10,100,0,0
188087,-57.1428571428571,4,2,10,100,0,0
188290,-100,4,2,10,100,0,0
191026,-80,4,2,10,100,0,0
191330,-100,4,2,10,100,0,0
197006,-133.333333333333,4,2,10,100,0,0
201060,-100,4,2,10,100,0,0
214033,-111.111111111111,4,2,10,100,0,0
220925,-100,4,2,10,50,0,0
221736,-200,4,2,10,75,0,0
222141,-100,4,2,10,100,0,1
234303,-100,4,2,10,60,0,1
234506,-100,4,2,10,70,0,1
234709,-100,4,2,10,80,0,1
234911,-100,4,2,10,90,0,1
235114,-100,4,2,10,100,0,1
243222,-100,4,2,10,100,0,0
244236,-100,4,2,10,70,0,0
244438,-200,4,2,10,50,0,0
244844,-100,4,2,10,100,0,1
247276,-100,4,2,10,60,0,1
247479,-100,4,2,10,70,0,1
247682,-100,4,2,10,80,0,1
247884,-100,4,2,10,90,0,1
248087,-200,4,2,10,60,0,0
261060,-200,4,2,10,60,0,0
282344,-200,4,2,10,50,0,0
282546,-200,4,2,10,60,0,0
282749,-200,4,2,10,40,0,0
282952,-200,4,2,10,60,0,0
283155,-200,4,2,10,30,0,0
283357,-200,4,2,10,60,0,0
283661,-200,4,2,10,20,0,0
283763,-200,4,2,10,60,0,0
283965,-200,4,2,10,20,0,0
284168,-200,4,2,10,60,0,0
284371,-200,4,2,10,30,0,0
284573,-200,4,2,10,60,0,0
284776,-200,4,2,10,40,0,0
284979,-200,4,2,10,60,0,0
285182,-200,4,2,10,50,0,0
285384,-200,4,2,10,60,0,0
285587,-133.333333333333,4,2,10,70,0,0
285992,-100,4,2,10,80,0,0
286398,-200,4,2,10,90,0,0
287006,-200,4,2,10,100,0,0
293492,-100,4,2,10,100,0,1
298357,-83.3333333333333,4,2,10,100,0,1
299371,-100,4,2,10,100,0,1
306465,-100,4,2,10,80,0,1
308087,-100,4,1,10,100,0,0
308290,-100,4,2,10,100,0,0
308391,-100,4,1,10,100,0,0
308898,-100,4,2,10,20,0,0
309101,-100,4,2,10,80,0,0
309151,-100,4,2,10,40,0,0
309303,-100,4,2,10,60,0,0
309506,-100,4,2,10,80,0,0
309709,-100,4,2,10,100,0,1
314573,-100,4,1,10,100,0,0
314776,-100,4,2,10,100,0,0
314878,-100,4,1,10,100,0,0
315587,-100,4,2,10,80,0,0
315638,-100,4,2,10,25,0,0
315790,-100,4,2,10,50,0,0
315992,-100,4,2,10,75,0,0
316195,-100,4,2,10,100,0,1
318323,-100,4,2,10,40,0,1
318425,-100,4,2,10,100,0,1
318526,-100,4,2,10,50,0,1
318628,-100,4,2,10,100,0,1
318729,-100,4,2,10,60,0,1
318830,-100,4,2,10,100,0,1
318932,-100,4,2,10,70,0,1
319033,-100,4,2,10,100,0,1
319134,-100,4,2,10,80,0,1
319236,-100,4,2,10,100,0,1
319337,-100,4,2,10,90,0,1
319438,-90.9090909090909,4,2,10,100,0,0
319742,-100,4,2,10,100,0,0
342952,-117.647058823529,4,2,10,100,0,0
343763,-133.333333333333,4,2,10,100,0,0
344573,-192.307692307692,4,2,10,100,0,0
345080,-192.307692307692,4,2,10,15,0,0

[Colours]
Combo1 : 196,19,0
Combo2 : 121,123,123

[HitObjects]
184,144,1195,5,2,0:0:0:0:
192,164,1296,1,2,0:0:0:0:
200,184,1398,1,2,0:0:0:0:
208,204,1499,1,2,0:0:0:0:
216,224,1601,2,0,P|272:232|328:196,1,107.999996704102,0|2,0:0|0:0,0:0:0:0:
256,84,2006,2,0,P|204:100|176:152,1,107.999996704102,2|0,0:0|0:0,0:0:0:0:
348,120,2411,2,0,B|432:88|416:164|512:104,2,161.999995056153,2|2|2,0:0|0:0|0:0,0:0:0:0:
392,208,3222,6,0,P|392:280|364:320,1,107.999996704102,2|0,0:0|0:0,0:0:0:0:
168,176,3628,2,0,P|212:136|260:124,1,107.999996704102,2|0,0:0|0:0,0:0:0:0:
228,280,4033,2,0,B|136:332|144:256|56:288,2,161.999995056153,0|2|2,0:0|0:0|0:0,0:0:0:0:
388,192,4844,6,0,P|396:140|380:88,1,107.999996704102
132,88,5249,2,0,P|116:140|124:192,1,107.999996704102,2|2,0:0|0:0,0:0:0:0:
256,252,5655,2,0,B|280:164|236:180|256:72,2,161.999995056153,2|0|0,0:0|0:0|0:0,0:0:0:0:
256,336,6668,5,0,0:0:0:0:
256,160,6871,1,2,0:0:0:0:
256,336,7073,1,0,0:0:0:0:
256,336,7175,1,2,0:0:0:0:
256,336,7682,1,2,0:0:0:0:
256,336,8087,6,0,P|208:312|136:316,1,107.999996704102,0|2,0:0|0:0,0:0:0:0:
384,184,8492,2,0,P|344:232|348:284,1,107.999996704102,2|0,0:0|0:0,0:0:0:0:
168,212,8898,2,0,P|248:204|288:120,2,161.999995056153,0|2|2,0:0|0:0|0:0,0:0:0:0:
128,116,9709,6,0,P|168:72|236:56,1,107.999996704102,0|2,0:0|0:0,0:0:0:0:
388,164,10114,2,0,P|384:228|360:264,1,107.999996704102,0|2,0:0|0:0,0:0:0:0:
336,60,10519,2,0,P|444:40|508:60,2,161.999995056153,0|2|2,0:0|0:0|0:0,0:0:0:0:
204,172,11330,6,0,P|256:184|312:168,1,107.999996704102,2|0,0:0|0:0,0:0:0:0:
128,104,11736,2,0,P|112:168|116:228,1,107.999996704102,2|0,0:0|0:0,0:0:0:0:
348,280,12141,2,0,P|416:180|368:88,1,215.999993408203,2|2,0:0|0:0,0:0:0:0:
125,98,12749,2,0,P|96:180|164:280,1,215.999993408203,2|2,0:0|0:0,0:0:0:0:
256,312,13357,5,0,0:0:0:0:
256,312,13560,1,0,0:0:0:0:
320,240,13763,2,0,B|336:184|336:184|316:124,1,107.999996704102,8|0,0:0|0:0,0:0:0:0:
188,136,14168,2,0,B|172:188|172:188|186:241,1,107.999996704102,0|0,3:0|0:0,0:0:0:0:
256,72,14573,6,0,P|144:56|92:92,1,161.999995056153,4|0,0:0|0:0,0:0:0:0:
64,152,14979,2,0,L|54:33,1,107.999996704102,0|2,0:0|0:0,0:0:0:0:
188,140,15384,1,0,0:0:0:0:
320,236,15587,2,0,L|308:352,1,107.999996704102,2|0,0:0|0:0,0:0:0:0:
176,368,15992,1,0,0:0:0:0:
80,272,16195,6,0,P|52:192|64:104,1,161.999995056153,2|0,0:0|0:0,0:0:0:0:
116,56,16600,2,0,B|176:64|176:64|240:32,1,107.999996704102,0|2,0:0|0:0,0:0:0:0:
348,104,17006,2,0,B|296:96|296:96|224:128,1,107.999996704102,0|2,0:0|0:0,0:0:0:0:
312,204,17411,1,0,0:0:0:0:
428,176,17614,1,2,0:0:0:0:
428,176,17817,6,0,P|456:120|440:24,1,161.999995056153,2|0,0:0|0:0,0:0:0:0:
376,72,18222,2,0,P|308:68|256:52,1,107.999996704102,0|2,0:0|0:0,0:0:0:0:
152,108,18628,2,0,P|145:151|141:215,1,107.999996704102,0|2,0:0|0:0,0:0:0:0:
52,332,19033,2,0,P|52:248|56:204,1,107.999996704102,2|0,0:0|0:0,0:0:0:0:
328,44,19438,2,0,P|336:108|316:152,1,107.999996704102,2|0,0:0|0:0,0:0:0:0:
192,146,19844,2,0,P|176:108|184:44,1,107.999996704102,2|0,0:0|0:0,0:0:0:0:
456,224,20249,2,0,P|458:248|458:332,1,107.999996704102,2|0,0:0|0:0,0:0:0:0:
180,164,20655,2,0,P|256:140|348:172,1,161.999995056153
372,224,21060,6,0,L|384:116,1,90,8|0,0:0|0:0,0:0:0:0:
130,134,21465,2,0,L|140:224,1,90,0|2,0:0|0:0,0:0:0:0:
256,284,21871,1,8,0:0:0:0:
348,232,22073,1,2,0:0:0:0:
256,196,22276,1,8,0:0:0:0:
256,368,22479,1,2,0:0:0:0:
376,140,22682,6,0,P|376:92|364:44,1,90,8|2,0:0|0:0,0:0:0:0:
136,56,23087,2,0,P|126:96|126:144,1,90,8|2,0:0|0:0,0:0:0:0:
256,268,23492,2,0,B|292:168|220:188|264:76,2,180,8|8|8,0:0|0:0|0:0,0:0:0:0:
204,352,24506,5,8,0:0:0:0:
160,280,24709,2,0,P|136:224|140:176,1,90,8|8,0:0|0:0,0:0:0:0:
320,52,25114,2,0,P|364:72|396:120,1,90,8|8,0:0|3:0,0:0:0:0:
280,288,25519,2,0,L|288:136,1,135.000005149842,0|4,0:0|0:0,0:0:0:0:
212,120,25823,2,0,L|200:348,1,202.500007724762
32,255,26330,1,8,0:0:0:0:
32,255,26736,6,0,L|16:167,1,67.5000025749208,0|2,1:0|1:2,0:0:0:0:
120,108,26938,2,0,L|104:196,1,67.5000025749208,0|2,1:0|1:2,0:0:0:0:
156,320,27141,2,0,L|140:232,1,67.5000025749208,0|2,1:0|1:2,0:0:0:0:
212,40,27344,2,0,L|196:128,1,67.5000025749208,0|2,1:0|1:2,0:0:0:0:
84,315,27546,6,0,P|174:330|222:256,1,180,4|0,0:0|1:0,0:0:0:0:
148,166,27851,2,0,B|136:211|136:211|143:265,1,90
234,176,28053,1,0,0:0:0:0:
234,176,28155,2,0,B|246:131|246:131|239:77,2,90,0|0|0,1:0|0:0|0:0,0:0:0:0:
319,77,28459,5,0,0:0:0:0:
319,77,28560,2,0,L|407:50,1,90,2|0,1:3|0:0,0:0:0:0:
319,77,28763,2,0,L|401:131,1,90,2|0,0:3|0:0,0:0:0:0:
319,77,28965,2,0,L|345:177,1,90,2|0,1:3|1:0,0:0:0:0:
472,147,29168,6,0,P|421:221|320:236,1,180,4|0,0:0|1:0,0:0:0:0:
433,304,29472,2,0,P|480:326|501:377,2,90
347,332,29776,2,0,B|274:334|274:334|225:351|225:351|154:353,1,180,0|0,1:0|0:0,0:0:0:0:
104,279,30080,6,0,L|227:278,2,90,0|2|0,0:0|1:3|0:0,0:0:0:0:
231,205,30384,2,0,L|185:108,1,90,2|0,0:3|0:0,0:0:0:0:
308,207,30587,2,0,L|371:132,1,90,2|0,1:3|1:0,0:0:0:0:
215,30,30790,6,0,P|120:53|100:152,1,180,4|0,0:0|1:0,0:0:0:0:
192,209,31094,2,0,B|205:165|205:165|190:116,1,90
301,50,31296,1,0,0:0:0:0:
301,50,31398,2,0,B|288:94|288:94|303:143,2,90,0|0|0,1:0|0:0|0:0,0:0:0:0:
467,169,31702,5,0,0:0:0:0:
467,169,31803,2,0,L|378:168,1,90,2|0,1:3|0:0,0:0:0:0:
113,278,32006,2,0,L|202:280,1,90,2|0,0:3|0:0,0:0:0:0:
378,92,32209,2,0,L|288:91,1,90,2|0,1:3|1:0,0:0:0:0:
40,194,32411,6,0,L|151:195,1,90,4|0,0:1|0:0,0:0:0:0:
368,207,32614,2,0,B|309:207|309:207|259:241|259:241|199:240,1,180,4|0,1:2|0:0,0:0:0:0:
199,240,32918,1,0,0:0:0:0:
199,240,33019,2,0,P|208:292|195:335,1,90,4|0,1:2|1:0,0:0:0:0:
119,139,33222,6,0,B|94:76|94:76|95:39,1,90,0|2,1:0|1:2,0:0:0:0:
119,259,33425,2,0,L|102:365,1,90,4|2,1:2|1:2,0:0:0:0:
211,84,33628,2,0,L|278:20,1,90,4|2,1:2|1:2,0:0:0:0:
306,329,33830,2,0,B|263:309|263:309|211:314,1,90,0|2,1:0|1:2,0:0:0:0:
44,192,34033,6,0,L|252:192,1,180,4|0,0:0|1:0,0:0:0:0:
306,154,34337,1,0,0:0:0:0:
383,198,34438,2,0,L|388:300,1,90
449,152,34641,2,0,P|377:154|325:58,1,180,0|0,1:0|0:0,0:0:0:0:
246,40,34945,5,0,0:0:0:0:
246,40,35046,2,0,P|246:97|257:136,1,90,2|0,1:3|0:0,0:0:0:0:
470,227,35249,2,0,P|420:238|369:229,1,90,2|0,0:3|0:0,0:0:0:0:
172,118,35452,2,0,P|186:171|215:206,1,90,2|0,1:3|0:0,0:0:0:0:
353,318,35655,6,0,P|277:278|184:316,1,180,4|0,0:0|1:0,0:0:0:0:
118,359,35959,2,0,L|106:268,1,90
77,178,36161,1,0,0:0:0:0:
77,178,36263,2,0,B|166:198|156:113|252:136,1,180,0|0,1:0|0:0,0:0:0:0:
329,104,36567,5,0,0:0:0:0:
329,104,36668,2,0,P|334:152|306:202,1,90,2|0,1:3|0:0,0:0:0:0:
235,353,36871,2,0,P|230:305|258:255,1,90,2|0,0:3|0:0,0:0:0:0:
398,362,37073,2,0,L|294:325,1,90,2|0,1:3|0:0,0:0:0:0:
470,135,37276,6,0,B|391:156|448:244|356:260,1,180,4|0,0:0|1:0,0:0:0:0:
334,172,37580,1,0,0:0:0:0:
334,172,37682,2,0,L|217:168,1,90
79,170,37884,2,0,B|155:177|155:177|161:234|223:254,2,180,0|0|2,1:0|0:0|1:3,0:0:0:0:
126,93,38391,5,0,0:0:0:0:
126,93,38492,2,0,L|231:103,1,90,2|0,0:3|0:0,0:0:0:0:
397,169,38695,2,0,L|292:159,1,90,2|0,1:3|0:0,0:0:0:0:
232,24,38898,6,0,P|284:64|290:107,1,90,4|0,0:1|0:0,0:0:0:0:
222,346,39100,2,0,P|190:268|227:176,1,180,4|0,0:0|0:0,0:0:0:0:
362,96,39405,2,0,L|420:86,2,45,8|0|4,0:3|0:0|0:0,0:0:0:0:
216,101,39607,5,0,0:0:0:0:
216,101,39709,2,0,L|108:83,1,90,8|2,1:3|1:2,0:0:0:0:
153,303,39911,2,0,L|242:289,1,90,4|2,1:2|1:2,0:0:0:0:
412,122,40114,2,0,B|420:75|420:75|400:36,1,90,4|2,1:2|1:2,0:0:0:0:
401,269,40317,2,0,B|393:316|393:316|413:355,1,90,4|2,1:3|1:2,0:0:0:0:
456,192,40519,6,0,L|252:188,1,180,4|0,0:0|1:0,0:0:0:0:
456,192,40925,2,0,L|486:287,1,90,0|0,0:0|1:0,0:0:0:0:
352,144,41229,2,0,L|382:239,1,90,0|0,0:0|1:0,0:0:0:0:
246,80,41533,2,0,L|276:175,1,90,0|0,0:0|1:0,0:0:0:0:
141,23,41837,1,0,0:0:0:0:
168,108,41938,2,0,L|189:174,1,45,0|0,1:0|1:0,0:0:0:0:
276,192,42141,6,0,L|439:194,1,135.000005149842,4|0,0:0|0:0,0:0:0:0:
140,135,42546,2,0,B|135:199|200:219|200:219|182:263,1,135.000005149842,4|2,0:0|0:0,0:0:0:0:
112,256,42850,2,0,P|96:316|104:340,2,67.5000025749208,2|4|2,0:0|0:0|0:0,0:0:0:0:
218,139,43155,1,2,0:0:0:0:
176,368,43357,2,0,L|318:345,1,135.000005149842,4|0,0:0|0:0,0:0:0:0:
181,232,43763,6,0,B|162:247|162:247|157:227|157:227|109:255|45:232|31:173,1,202.500007724762,4|0,0:0|0:0,0:0:0:0:
112,154,44168,2,0,P|92:85|126:19,1,135.000005149842,4|0,0:0|0:0,0:0:0:0:
218,139,44573,1,4,0:0:0:0:
218,139,44675,1,2,0:0:0:0:
218,139,44776,1,2,0:0:0:0:
441,205,44979,2,0,L|280:190,1,135.000005149842,4|2,0:0|0:0,0:0:0:0:
138,161,45384,6,0,B|150:211|203:238|257:213|257:213|250:275,1,202.500007724762,4|2,0:0|0:0,0:0:0:0:
337,196,45790,2,0,B|331:248|331:248|385:223|438:250|450:300,1,202.500007724762,4|2,0:0|0:0,0:0:0:0:
372,321,46195,1,4,0:0:0:0:
372,321,46296,1,2,0:0:0:0:
372,321,46398,1,2,0:0:0:0:
421,108,46600,2,0,B|333:147|320:53|225:95,1,202.500007724762,4|2,0:0|0:0,0:0:0:0:
227,93,47006,5,4,0:0:0:0:
378,28,47411,1,4,0:0:0:0:
227,93,47817,2,0,L|211:173,1,67.5000025749208,0|2,1:0|1:2,0:0:0:0:
310,82,48019,2,0,L|293:161,1,67.5000025749208,0|2,1:0|1:2,0:0:0:0:
342,301,48222,2,0,L|325:221,1,67.5000025749208,0|2,1:0|1:2,0:0:0:0:
425,313,48425,2,0,L|408:233,1,67.5000025749208,0|2,1:0|1:2,0:0:0:0:
430,72,48628,5,4,0:0:0:0:
430,72,48729,1,0,0:0:0:0:
430,72,48830,2,0,P|386:160|276:163,1,180,0|0,1:0|0:0,0:0:0:0:
220,116,49134,2,0,B|207:74|207:74|221:20,1,90,0|0,0:0|1:0,0:0:0:0:
203,200,49337,6,0,P|129:216|85:304,1,180,0|0,1:0|0:0,0:0:0:0:
264,272,49641,2,0,P|289:235|288:182,1,90,2|0,1:3|0:0,0:0:0:0:
164,45,49844,2,0,P|139:82|140:135,1,90,2|0,0:3|1:0,0:0:0:0:
331,117,50046,2,0,P|356:80|355:27,1,90,2|0,1:3|1:0,0:0:0:0:
243,26,50249,6,0,L|256:226,1,180,4|0,0:0|1:0,0:0:0:0:
335,344,50553,1,0,0:0:0:0:
335,344,50655,2,0,B|352:299|352:299|344:236,2,90,0|0|0,0:0|0:0|1:0,0:0:0:0:
110,262,50959,6,0,P|205:239|263:306,1,180,0|0,1:0|0:0,0:0:0:0:
110,262,51263,2,0,P|100:208|117:154,1,90,2|0,1:3|0:0,0:0:0:0:
260,100,51465,2,0,P|270:154|253:208,2,90,2|0|0,0:2|1:0|1:2,0:0:0:0:
93,38,51769,6,0,P|115:133|210:149,1,180,4|0,1:2|0:0,0:0:0:0:
272,40,52073,2,0,L|167:32,2,90,0|0|0,1:0|0:0|0:0,0:0:0:0:
346,92,52378,2,0,L|451:100,1,90,0|0,0:0|1:0,0:0:0:0:
490,187,52580,6,0,B|384:179|384:179|377:218|338:240,1,180,0|0,1:0|0:0,0:0:0:0:
213,178,52884,2,0,P|251:160|302:165,1,90,2|0,1:3|0:0,0:0:0:0:
365,321,53087,2,0,P|274:370|193:350,1,180,2|2,0:3|1:3,0:0:0:0:
14,225,53391,6,0,L|214:281,1,180,4|0,1:2|0:0,0:0:0:0:
174,183,53695,1,0,1:0:0:0:
260,205,53796,2,0,L|442:253,1,180
411,162,54100,2,0,L|497:185,1,90,0|4,1:0|1:2,0:0:0:0:
459,61,54303,6,0,B|418:96|369:97|333:65|333:65|260:95|260:95|220:62|162:63|117:105,1,360,4|2,0:0|1:2,0:0:0:0:
148,252,54810,2,0,P|200:260|242:245,1,90,2|2,1:2|1:2,0:0:0:0:
194,168,55013,1,2,1:2:0:0:
91,178,55114,6,0,P|46:249|96:343,1,180
461,74,55519,2,0,P|377:22|302:47,1,180,8|0,0:0|0:0,0:0:0:0:
370,119,55823,2,0,L|353:315,1,180,0|8,0:0|0:0,0:0:0:0:
434,335,56128,2,0,L|442:230,2,90,0|0|8,0:0|0:0|0:0,0:0:0:0:
288,376,56432,1,0,0:0:0:0:
264,284,56533,2,0,L|276:184,1,90,0|2,0:0|0:0,0:0:0:0:
176,344,56736,6,0,P|73:365|6:313,1,180
104,272,57040,1,0,0:0:0:0:
140,184,57141,2,0,P|145:99|138:60,2,90,8|0|0,0:0|0:0|0:0,0:0:0:0:
208,256,57445,2,8,L|202:312,2,45
245,158,57749,6,0,P|323:105|417:127,1,180,4|8,0:0|0:0,0:0:0:0:
275,73,58053,6,0,P|338:53|468:130,1,198.000006042481,4|0,0:0|0:0,0:0:0:0:
343,23,58357,6,0,P|449:32|518:144,1,225,4|0,0:0|0:0,0:0:0:0:
434,181,58661,1,0,0:0:0:0:
434,181,58763,2,0,L|419:367,1,180,8|0,0:0|0:0,0:0:0:0:
506,346,59067,2,0,L|515:247,2,90,0|8|0,0:0|0:0|0:0,0:0:0:0:
312,300,59371,2,0,L|216:284,1,90
168,360,59573,2,0,P|54:326|21:254,1,180,8|0,0:0|0:0,0:0:0:0:
183,210,59878,1,0,0:0:0:0:
183,210,59979,2,0,P|198:147|190:102,1,90,2|0,0:0|0:0,0:0:0:0:
136,36,60182,2,0,P|88:12|44:11,1,90,2|0,0:0|0:0,0:0:0:0:
243,32,60384,2,0,P|295:25|339:-7,1,90,2|0,0:0|0:0,0:0:0:0:
374,89,60587,1,0,0:0:0:0:
374,89,60688,6,0,P|461:148|458:238,1,180,2|0,0:0|0:0,0:0:0:0:
258,273,60992,6,0,P|233:180|282:112,1,180,4|8,0:0|0:0,0:0:0:0:
182,203,61296,6,0,P|221:103|306:68,1,198.000006042481,4|0,0:0|0:0,0:0:0:0:
166,105,61601,6,0,P|240:22|349:29,1,198.000006042481,4|0,0:0|0:0,0:0:0:0:
393,148,61905,1,0,0:0:0:0:
393,148,62006,2,0,L|386:341,1,180,8|0,0:0|0:0,0:0:0:0:
466,336,62310,2,0,L|469:236,2,90,0|0|8,0:0|0:0|0:0,0:0:0:0:
297,263,62614,2,0,L|208:252,1,90
200,348,62817,2,0,P|98:348|60:274,1,180,8|2,0:0|0:0,0:0:0:0:
180,280,63121,1,0,0:0:0:0:
180,280,63222,6,0,P|270:293|332:219,1,180
232,204,63526,1,0,0:0:0:0:
232,204,63628,2,0,P|134:226|70:176,1,180,8|0,0:0|0:0,0:0:0:0:
164,124,63932,1,0,0:0:0:0:
164,124,64033,2,8,L|174:73,2,45
277,43,64236,6,0,P|368:31|441:89,1,180,4|0,0:0|0:0,0:0:0:0:
340,107,64540,6,0,P|257:67|147:138,1,198.000006042481,4|0,0:0|0:0,0:0:0:0:
254,134,64844,6,0,P|372:107|432:193,1,225,4|0,0:0|0:0,0:0:0:0:
367,267,65148,1,0,0:0:0:0:
367,267,65249,2,0,P|295:262|265:239,1,90,8|0,0:0|0:0,0:0:0:0:
236,332,65452,2,0,P|150:285|52:322,1,180,2|0,0:0|0:0,0:0:0:0:
95,200,65756,1,0,0:0:0:0:
95,200,65857,2,0,P|36:210|0:209,1,90,2|0,0:0|0:0,0:0:0:0:
139,114,66060,2,0,P|227:76|301:111,1,180,10|0,0:0|0:0,0:0:0:0:
392,180,66364,6,0,P|304:218|230:183,1,180,2|0,0:0|0:0,0:0:0:0:
138,113,66668,2,0,L|121:17,1,90,8|8,0:0|0:0,0:0:0:0:
44,252,66871,2,0,L|60:359,1,90,8|8,0:0|0:0,0:0:0:0:
379,279,67276,2,8,L|441:288,2,45
284,360,67479,2,0,L|99:334,1,180,8|0,0:0|0:0,0:0:0:0:
33,200,67783,2,0,L|240:232,1,180,8|0,0:0|0:0,0:0:0:0:
288,280,68087,5,4,0:0:0:0:
348,112,68290,1,0,0:0:0:0:
348,112,68391,1,0,0:0:0:0:
348,112,68492,2,0,P|453:119|496:54,1,180,8|2,0:0|0:0,0:0:0:0:
404,30,68796,1,0,0:0:0:0:
296,35,68898,2,0,P|263:72|256:116,2,90,0|8|0,0:0|0:0|0:0,0:0:0:0:
348,112,69202,1,0,0:0:0:0:
348,117,69303,2,0,P|341:179|231:206,1,180,8|0,0:0|0:0,0:0:0:0:
181,149,69607,1,0,0:0:0:0:
181,149,69709,6,0,P|238:205|211:307,1,180
84,52,70114,2,0,B|156:45|156:45|191:56|191:56|288:45,1,180,8|0,0:0|0:0,0:0:0:0:
315,118,70418,1,0,0:0:0:0:
315,116,70519,2,8,L|303:181,2,45
402,122,70722,6,0,B|395:206|395:206|375:227|375:227|365:300,1,180,4|8,0:0|0:0,0:0:0:0:
443,187,71026,6,0,B|429:224|429:224|390:254|390:254|388:291|388:291|378:327|354:363,1,198.000006042481,4|0,0:0|0:0,0:0:0:0:
454,290,71330,6,0,B|409:283|409:283|406:321|406:321|367:306|367:306|339:330|339:330|298:337|259:360,1,225,4|0,0:0|0:0,0:0:0:0:
164,383,71634,1,0,0:0:0:0:
164,383,71736,2,0,P|90:322|89:235,1,180,8|0,0:0|0:0,0:0:0:0:
140,184,72040,2,0,P|152:100|152:80,1,90
224,152,72242,2,0,P|224:204|244:268,1,90,8|0,0:0|0:0,0:0:0:0:
294,107,72445,1,0,0:0:0:0:
294,107,72546,2,0,P|390:121|420:205,1,180,8|0,0:0|0:0,0:0:0:0:
364,276,72850,1,0,0:0:0:0:
264,336,72952,6,0,B|244:291|244:291|232:228,1,90,0|10,0:0|0:0,0:0:0:0:
132,76,73155,2,0,L|120:176,1,90,8|0,0:0|0:0,0:0:0:0:
116,252,73357,2,0,B|104:308|104:308|112:356,1,90,8|0,0:0|0:0,0:0:0:0:
228,168,73560,2,0,L|220:60,1,90,8|0,0:0|0:0,0:0:0:0:
176,248,73763,2,8,L|171:293,2,45
216,120,73965,6,0,P|316:90|396:119,1,180,4|0,0:0|0:0,0:0:0:0:
192,228,74269,6,0,P|107:175|89:74,1,198.000006042481,4|0,0:0|0:0,0:0:0:0:
300,196,74573,6,0,P|312:307|239:385,1,225,4|0,0:0|0:0,0:0:0:0:
204,256,74878,5,0,0:0:0:0:
204,256,74979,2,0,P|301:214|375:235,1,180,8|0,0:0|0:0,0:0:0:0:
464,304,75283,1,0,0:0:0:0:
464,304,75384,2,0,L|470:200,2,90,0|8|0,0:0|0:0|0:0,0:0:0:0:
364,352,75688,1,0,0:0:0:0:
292,304,75790,2,0,P|202:258|104:285,1,180,8|0,0:0|0:0,0:0:0:0:
59,324,76094,1,0,0:0:0:0:
59,324,76195,6,0,B|133:303|125:217|125:217|78:157,1,180
32,240,76499,1,0,0:0:0:0:
188,328,76601,2,0,L|388:312,1,180,8|0,0:0|0:0,0:0:0:0:
456,320,76905,1,0,0:0:0:0:
456,320,77006,2,8,L|453:380,2,45
240,306,77209,6,0,P|172:279|148:170,1,180,4|8,0:0|0:0,0:0:0:0:
131,288,77513,6,0,L|103:78,1,198.000006042481,4|0,0:0|0:0,0:0:0:0:
74,204,77817,6,0,B|83:173|83:173|88:154|88:154|104:153|104:153|107:126|107:126|131:122|131:122|135:70|204:33,1,225,4|0,0:0|0:0,0:0:0:0:
233,112,78121,6,0,P|325:114|362:41,1,180,2|0,0:0|0:0,0:0:0:0:
451,75,78425,2,0,P|424:145|478:245,1,180,2|0,0:0|0:0,0:0:0:0:
382,292,78729,2,0,P|339:222|237:218,1,180,10|0,0:0|0:0,0:0:0:0:
297,291,79033,2,0,B|308:233|308:233|292:181|292:181|304:80,1,180,10|0,0:0|0:0,0:0:0:0:
221,236,79337,1,0,0:0:0:0:
221,236,79438,6,0,P|116:233|75:167,1,180,2|8,0:0|0:0,0:0:0:0:
68,98,79742,1,8,0:0:0:0:
128,44,79844,1,8,0:0:0:0:
203,67,79945,1,8,0:0:0:0:
203,67,80249,2,8,L|189:18,2,45
405,232,80553,2,8,L|467:243,2,45
149,310,80857,2,8,L|118:358,2,45
149,310,81060,5,4,0:0:0:0:
324,164,81263,1,2,0:3:0:0:
163,228,81465,2,0,L|55:214,1,90,0|0,1:0|0:0,0:0:0:0:
30,121,81668,2,0,L|42:300,1,180,2|0,0:3|0:0,0:0:0:0:
129,138,81972,6,0,B|199:147|199:147|249:181|249:181|298:187,1,180,0|0,1:0|0:0,0:0:0:0:
297,186,82276,2,0,B|310:236|310:236|306:281,1,90,2|0,1:3|0:0,0:0:0:0:
280,102,82479,2,0,B|267:52|267:52|271:7,1,90,2|2,0:3|0:3,0:0:0:0:
491,65,82682,6,0,P|460:134|353:123,1,180,0|2,0:0|0:3,0:0:0:0:
342,47,82986,1,0,0:0:0:0:
253,30,83087,2,0,L|73:48,1,180,0|2,1:0|0:3,0:0:0:0:
31,128,83391,6,0,B|64:139|64:139|134:131,1,90,0|0,0:0|1:0,0:0:0:0:
315,175,83594,2,0,B|282:164|282:164|212:172,2,90,0|2|0,1:0|0:3|0:0,0:0:0:0:
337,351,83898,2,0,P|242:383|176:321,1,180,2|0,1:3|1:0,0:0:0:0:
171,249,84202,5,0,1:0:0:0:
171,249,84303,2,0,L|186:147,2,90,0|0|2,1:0|1:0|0:3,0:0:0:0:
92,294,84607,1,0,0:0:0:0:
97,174,84709,2,0,L|114:70,2,90,0|0|2,1:0|1:0|0:3,0:0:0:0:
13,340,85013,5,0,0:0:0:0:
13,340,85114,2,0,L|202:326,1,180,0|2,1:0|0:3,0:0:0:0:
280,349,85418,1,2,1:3:0:0:
255,262,85519,2,0,B|245:218|245:218|254:174,1,90,2|0,1:3|0:0,0:0:0:0:
392,260,85722,2,0,B|402:304|402:304|393:348,1,90,2|0,0:3|0:0,0:0:0:0:
333,203,85925,6,0,P|393:211|456:107,1,180,0|2,1:0|0:3,0:0:0:0:
372,124,86229,1,2,1:3:0:0:
372,124,86330,2,0,P|348:68|227:65,1,180,4|2,1:2|0:3,0:0:0:0:
284,128,86634,1,2,1:3:0:0:
284,128,86736,2,0,P|247:175|305:282,1,180,0|2,1:0|1:3,0:0:0:0:
331,357,87040,5,2,1:3:0:0:
242,343,87141,2,0,P|199:308|178:265,1,90,2|2,1:3|1:3,0:0:0:0:
217,73,87344,2,0,P|182:118|168:172,1,90,2|2,1:3|1:3,0:0:0:0:
141,356,87546,6,0,P|203:303|205:198,1,180,4|0,1:2|0:0,0:1:0:0:
129,166,87851,1,2,0:2:0:0:
60,107,87952,2,0,P|32:51|43:6,2,90,2|2|0,1:2|0:3|1:0,0:0:0:0:
60,107,88256,1,2,1:3:0:0:
60,107,88357,6,0,B|132:101|132:101|177:77|177:77|264:70,1,180,4|0,1:1|0:0,0:0:0:0:
314,113,88661,1,2,0:2:0:0:
398,79,88763,2,0,L|498:63,2,90,2|2|0,1:2|0:3|1:0,0:0:0:0:
398,79,89067,1,2,1:3:0:0:
398,79,89168,6,0,B|311:121|308:26|208:76,1,180,4|2,1:2|0:2,0:0:0:0:
398,79,89573,2,0,B|396:173|312:128|305:240,1,180,2|0,1:2|0:0,0:0:0:0:
463,196,89979,6,0,L|468:285,1,90,0|2,1:0|1:2,0:0:0:0:
398,227,90182,2,0,L|468:285,1,90,0|2,1:0|1:2,0:0:0:0:
378,295,90384,2,0,L|468:285,1,90,0|2,1:0|1:2,0:0:0:0:
411,354,90587,2,0,L|468:285,1,90,0|2,1:0|1:2,0:0:0:0:
395,153,90790,6,0,B|329:140|329:140|274:155|274:155|189:145,1,180,4|0,0:0|1:0,0:0:0:0:
141,103,91094,1,0,0:0:0:0:
224,70,91195,2,0,B|270:74|270:74|321:58,1,90
379,226,91398,2,0,B|334:219|334:219|283:236,1,90,0|0,1:0|0:0,0:0:0:0:
194,340,91601,6,0,P|106:332|83:225,1,180,2|0,0:3|1:0,0:0:0:0:
339,246,91905,2,0,L|160:267,1,180,2|0,0:3|0:0,0:0:0:0:
160,266,92209,2,0,L|191:165,1,90,2|2,1:3|1:3,0:0:0:0:
283,335,92411,6,0,B|346:325|346:325|383:336|383:336|468:325,1,180,4|0,0:0|1:0,0:0:0:0:
473,236,92715,1,0,0:0:0:0:
425,158,92817,2,0,P|410:112|423:57,1,90
326,63,93019,1,0,1:0:0:0:
242,27,93121,6,0,P|179:85|79:48,1,180,2|0,0:3|0:0,0:0:0:0:
224,189,93425,2,0,L|94:64,1,180,2|0,1:3|0:0,0:0:0:0:
72,175,93729,2,0,L|65:280,2,90,2|2|2,0:3|1:3|1:3,0:0:0:0:
161,330,94033,6,0,L|165:228,1,90,4|0,0:0|0:0,0:0:0:0:
259,286,94236,2,0,L|263:184,1,90,0|0,1:0|0:0,0:0:0:0:
351,350,94438,2,0,L|355:248,1,90
404,184,94641,1,0,1:0:0:0:
398,94,94742,6,0,P|332:113|260:18,1,180,2|0,0:3|0:0,0:0:0:0:
398,94,95046,2,0,P|408:151|400:200,1,90,2|0,1:3|1:0,0:0:0:0:
214,293,95249,2,0,P|204:236|212:187,1,90,2|0,0:3|1:0,0:0:0:0:
345,271,95452,2,0,P|355:328|347:377,1,90,2|0,1:3|1:0,0:0:0:0:
351,359,95655,1,4,0:1:0:0:
117,167,95857,6,0,P|201:170|255:89,1,180,4|2,1:2|0:3,0:0:0:0:
353,127,96161,2,0,L|373:220,1,90,2|0,0:3|0:0,0:0:0:0:
327,41,96364,6,0,P|272:86|294:188,1,180,4|0,1:2|0:0,0:0:0:0:
434,146,96668,2,0,P|434:99|405:59,1,90,4|2,1:2|1:2,0:0:0:0:
372,215,96871,2,0,L|391:318,1,90,4|2,1:2|1:2,0:0:0:0:
497,327,97073,2,0,L|478:224,1,90,0|2,1:0|1:2,0:0:0:0:
388,303,97276,6,0,L|255:314,1,90,4|0,0:2|0:0,0:0:0:0:
298,310,97479,2,0,L|223:252,1,90,0|0,1:0|0:0,0:0:0:0:
227,255,97682,2,0,P|166:329|81:304,1,180,0|0,0:0|1:0,0:0:0:0:
140,237,97986,1,0,0:0:0:0:
193,164,98087,6,0,B|268:172|268:172|299:160|299:160|373:168,1,180,2|0,0:3|1:0,0:0:0:0:
175,74,98391,2,0,B|250:82|250:82|281:70|281:70|355:78,1,180,2|0,0:3|0:0,0:0:0:0:
462,161,98695,2,0,P|450:214|403:245,1,90,2|2,1:3|1:3,0:0:0:0:
284,374,98898,6,0,P|287:317|320:277,1,90,4|0,0:2|0:0,0:0:0:0:
304,290,99101,2,0,P|353:310|400:305,1,90,0|0,1:0|0:0,0:0:0:0:
389,308,99303,2,0,P|406:223|330:146,1,180,0|0,0:0|1:0,0:0:0:0:
277,205,99607,1,0,0:0:0:0:
200,252,99709,6,0,P|116:217|109:131,1,180,2|0,0:3|1:0,0:0:0:0:
278,205,100013,2,0,P|362:170|369:84,1,180,2|0,0:3|1:0,0:0:0:0:
192,80,100317,2,0,L|206:182,1,90,2|2,1:3|1:3,0:0:0:0:
177,355,100519,6,0,L|159:244,1,90,4|0,0:2|0:0,0:0:0:0:
98,201,100722,1,0,1:0:0:0:
98,201,100823,1,0,0:0:0:0:
32,138,100925,2,0,P|87:120|128:123,1,90
197,165,101128,2,0,P|248:180|290:173,1,90,0|0,1:0|1:0,0:0:0:0:
360,129,101330,6,0,P|440:102|513:177,1,180,2|0,0:3|1:0,0:0:0:0:
417,364,101634,2,0,L|430:166,1,180,2|0,1:3|1:0,0:0:0:0:
428,184,101938,2,0,L|364:248,1,90,2|2,1:3|1:3,0:0:0:0:
364,247,102141,1,4,0:1:0:0:
89,103,102344,6,0,P|195:86|244:156,1,180,4|0,1:2|0:0,0:0:0:0:
236,223,102648,1,0,1:0:0:0:
152,254,102749,2,0,B|140:211|140:211|157:163,1,90,0|0,1:0|1:0,0:0:0:0:
329,79,102952,2,0,B|341:122|341:122|324:170,1,90,0|2,1:0|1:2,0:0:0:0:
383,342,103155,6,0,L|491:348,1,90,0|2,1:0|1:2,0:0:0:0:
162,299,103357,2,0,B|113:288|113:288|66:308,1,90,0|2,1:0|1:2,0:0:0:0:
364,247,103560,2,0,L|471:228,1,90,0|2,1:0|1:2,0:0:0:0:
239,180,103763,6,0,P|170:203|89:114,1,180,6|0,0:2|1:0,0:0:0:0:
104,50,104067,1,0,0:0:0:0:
170,109,104168,1,0,0:0:0:0:
491,95,104371,6,0,P|402:68|340:128,1,180,2|0,1:2|0:0,0:0:0:0:
364,208,104675,1,0,0:0:0:0:
504,309,104776,2,0,B|473:252|473:252|466:215|466:215|424:143,1,180,2|0,1:2|0:0,0:0:0:0:
393,285,105080,2,0,L|398:377,2,90,2|0|0,0:2|1:0|0:0,0:0:0:0:
334,180,105384,6,0,B|304:241|233:254|184:216|184:216|163:260|101:273,2,270,2|2|2,0:0|0:0|1:2,0:0:0:0:
338,89,106094,1,0,0:0:0:0:
269,30,106195,6,0,P|187:40|147:126,1,180,2|0,0:2|1:0,0:0:0:0:
389,284,106499,2,0,P|422:208|367:130,1,180
109,261,106803,2,0,P|137:314|193:334,1,90,2|2,1:2|0:2,0:0:0:0:
259,326,107006,6,0,L|49:351,1,180,6|0,0:2|1:0,0:0:0:0:
31,215,107310,2,0,B|50:171|50:171|46:118,2,90,2|4|0,0:2|1:0|1:0,0:0:0:0:
110,263,107614,2,0,L|210:245,1,90,2|0,1:2|0:0,0:0:0:0:
361,269,107817,6,0,P|291:290|198:247,1,180,2|0,1:2|1:0,0:0:0:0:
194,156,108121,1,0,1:0:0:0:
110,124,108222,2,0,P|105:67|59:19,2,90,2|4|0,1:2|1:0|1:0,0:0:0:0:
52,193,108526,1,0,1:0:0:0:
109,263,108628,6,0,L|91:356,1,90,0|0,1:0|0:0,0:0:0:0:
194,156,108830,2,0,B|182:94|182:94|151:72,1,90,0|2,1:0|1:2,0:0:0:0:
203,328,109033,6,0,B|198:286|198:286|208:240,1,90,0|2,1:0|1:2,0:0:0:0:
280,34,109236,2,0,L|266:123,1,90,0|2,1:0|1:2,0:0:0:0:
313,278,109438,6,0,B|323:324|323:324|315:386,1,90,0|2,1:0|1:2,0:0:0:0:
358,120,109641,2,0,B|370:58|370:58|401:36,1,90,0|2,1:0|1:2,0:0:0:0:
511,330,109844,6,0,B|473:306|473:306|450:263,1,90,8|10,1:0|1:2,0:0:0:0:
512,62,110046,2,0,B|474:85|474:85|452:125,1,90,4|6,1:0|1:2,0:0:0:0:
414,349,110249,5,4,0:2:0:0:
459,197,110655,1,2,0:0:0:0:
328,107,111060,1,2,0:0:0:0:
202,203,111465,2,0,B|209:236|251:248|251:248|234:281|252:326,1,135,12|0,0:3|0:0,0:0:0:0:
248,344,111871,6,0,P|184:312|72:360,2,180,4|8|8,0:0|1:0|0:0,0:0:0:0:
320,280,112378,2,0,L|328:184,2,90,8|8|0,0:0|1:0|0:0,0:0:0:0:
400,328,112682,2,0,L|408:224,1,90,4|8,1:0|0:0,0:0:0:0:
240,208,112884,2,0,P|184:264|228:376,1,180,8|0,1:0|1:0,0:0:0:0:
292,372,113188,1,8,0:0:0:0:
368,304,113290,2,0,P|368:240|344:200,1,90,8|0,1:0|0:0,0:0:0:0:
280,284,113492,6,0,B|240:292|208:272|208:272|140:308|88:260,1,180,4|8,0:0|1:0,0:0:0:0:
48,192,113796,1,0,0:0:0:0:
107,109,113898,2,0,B|140:76|208:112|208:112|240:92|280:100,1,180,8|8,0:0|1:0,0:0:0:0:
256,196,114202,1,0,0:0:0:0:
184,272,114303,2,0,P|140:196|188:108,1,180,4|8,1:0|0:1,0:0:0:0:
256,80,114607,1,0,0:0:0:0:
337,117,114709,2,0,P|372:196|328:272,1,180,0|8,1:0|0:1,0:0:0:0:
216,340,115013,1,0,0:0:0:0:
216,340,115114,6,0,P|116:320|40:368,1,180,4|8,0:0|1:0,0:0:0:0:
48,252,115418,2,0,B|44:192|44:192|60:136|60:136|56:60,1,180,8|0,0:0|0:0,0:0:0:0:
212,112,115722,2,8,P|272:96|336:96,1,90,8|2,1:1|0:0,0:1:0:0:
388,240,115925,2,0,P|384:184|388:140,1,90,4|2,1:0|1:2,0:0:0:0:
148,212,116128,2,0,P|204:188|244:184,1,90,8|2,1:1|0:0,0:0:0:0:
304,340,116330,2,0,P|300:284|304:240,1,90,0|2,0:0|1:2,0:0:0:0:
104,300,116533,2,0,P|164:272|200:264,1,90,8|2,1:0|0:0,0:0:0:0:
219,363,116736,6,0,B|216:312|220:272|220:272|236:240|236:240|212:188,1,180,4|8,0:0|1:0,0:0:0:0:
312,344,117040,1,0,0:0:0:0:
312,344,117141,2,0,B|312:292|312:292|332:240|332:240|288:144,1,180,2|8,0:0|1:0,0:0:0:0:
296,96,117445,1,0,0:0:0:0:
296,96,117546,2,0,B|308:52|308:52|296:0,1,90,4|2,1:0|0:0,0:0:0:0:
220,176,117749,2,0,B|208:220|208:220|220:272,1,90,8|0,1:0|1:0,0:0:0:0:
165,100,117952,2,0,P|177:56|176:12,1,90,8|2,0:0|0:0,0:0:0:0:
96,192,118155,2,0,P|94:236|106:280,1,90,8|2,1:1|0:0,0:0:0:0:
256,276,118357,6,0,B|296:184|224:184|264:96,1,180,4|8,0:0|1:1,0:0:0:0:
332,180,118661,2,0,P|240:216|168:168,1,180
120,76,118965,2,0,P|80:116|68:156,1,90,8|0,1:1|0:0,0:0:0:0:
77,4,119168,2,0,P|120:-8|164:0,1,90,4|0,1:0|1:0,0:0:0:0:
264,144,119371,2,0,P|244:103|210:75,1,90,8|0,0:1|1:0,0:0:0:0:
347,114,119573,2,0,P|267:143|264:228,1,180,0|8,0:0|1:0,0:0:0:0:
360,212,119878,1,0,0:0:0:0:
360,324,119979,6,0,P|208:324|183:285,1,180,12|8,0:0|1:0,0:0:0:0:
120,384,120283,2,0,P|64:304|80:184,1,180
12,116,120587,2,0,L|36:12,2,90,8|0|4,1:0|0:0|1:0,0:0:0:0:
104,132,120891,1,0,1:0:0:0:
140,28,120992,2,0,L|248:8,1,90,8|0,1:0|1:0,0:0:0:0:
120,220,121195,2,0,L|100:108,1,90,0|0,0:0|1:0,0:0:0:0:
296,88,121398,2,0,L|316:184,1,90,8|0,1:0|0:0,0:0:0:0:
176,348,121601,6,0,P|160:232|220:176,1,180,4|8,0:0|1:1,0:0:0:0:
352,372,121905,2,0,L|156:348,1,180,8|0,0:0|0:0,0:0:0:0:
104,276,122209,2,0,P|64:312|56:356,1,90,8|0,1:1|0:0,0:0:0:0:
204,252,122411,2,0,B|216:212|216:212|212:152,1,90,4|0,1:0|1:0,0:0:0:0:
16,152,122614,2,0,B|4:192|4:192|8:252,1,90,8|0,1:1|1:0,0:1:0:0:
100,96,122817,2,0,L|92:-16,1,90,0|0,1:0|0:0,0:0:0:0:
212,163,123019,2,0,B|212:227|212:227|196:267|196:267|200:359,1,180,8|0,1:0|0:0,0:0:0:0:
416,148,123425,6,0,P|340:80|252:88,1,180,4|0,0:0|0:0,0:0:0:0:
144,204,123729,2,0,B|216:200|216:200|264:180|264:180|340:172,1,180,0|0,1:0|0:0,0:0:0:0:
84,140,124033,2,0,B|20:144|20:144|-8:172,1,90,0|0,1:0|1:0,0:0:0:0:
156,80,124236,2,0,L|212:-16,1,90,0|0,1:0|1:0,0:0:0:0:
172,172,124438,2,0,L|184:264,1,90,0|0,1:0|0:0,0:0:0:0:
108,360,124641,2,0,L|96:268,1,90,0|0,1:0|0:0,0:0:0:0:
224,336,124844,6,0,P|315:314|407:353,1,180,4|8,0:0|1:0,0:0:0:0:
388,228,125148,1,0,0:0:0:0:
388,228,125249,2,0,L|394:138,1,90,8|0,0:0|0:0,0:0:0:0:
201,162,125452,2,0,L|192:252,1,90,8|0,1:1|0:0,0:0:0:0:
280,96,125655,2,0,P|184:128|120:60,1,180,4|8,1:0|0:1,0:0:0:0:
68,24,125959,2,0,P|164:-8|219:36,1,180,8|0,0:0|1:0,0:0:0:0:
80,128,126263,2,0,L|-12:176,1,90,8|0,0:0|0:0,0:0:0:0:
328,72,126465,6,0,P|368:168|352:244,1,180,6|8,0:0|1:1,0:0:0:0:
252,260,126769,1,0,0:0:0:0:
152,240,126871,2,0,P|138:169|178:73,1,180,8|8,0:0|0:1,0:0:0:0:
256,28,127175,1,0,0:0:0:0:
256,168,127276,2,0,B|288:248|224:240|256:364,1,180,4|8,1:0|1:1,0:0:0:0:
173,294,127580,2,0,P|260:264|340:292,1,180,2|0,1:2|1:0,0:0:0:0:
380,200,127884,2,0,P|424:200|476:192,1,90,8|0,1:1|0:0,0:0:0:0:
300,152,128087,6,0,P|292:200|288:272,1,90,4|0,0:0|0:0,0:0:0:0:
384,112,128290,1,8,1:1:0:0:
304,60,128391,2,0,B|244:60|244:60|200:84|200:84|120:84,1,180
268,312,128695,2,0,P|300:240|268:140,1,180,8|4,1:0|1:0,0:0:0:0:
140,192,128999,1,0,1:0:0:0:
140,192,129101,2,0,P|132:244|140:296,1,90,8|0,1:1|1:0,0:0:0:0:
352,168,129303,2,0,P|292:132|244:124,1,90,0|0,0:0|1:0,0:0:0:0:
268,360,129506,2,0,P|324:336|352:308,1,90,8|0,1:1|0:0,0:0:0:0:
208,248,129709,6,0,L|0:224,1,180,4|8,0:0|0:1,0:0:0:0:
60,320,130013,1,0,0:0:0:0:
148,348,130114,2,0,L|172:156,1,180,2|8,0:0|0:1,0:0:0:0:
180,88,130418,1,0,0:0:0:0:
280,232,130519,2,0,L|288:136,1,90,0|0,1:0|1:0,0:0:0:0:
392,196,130722,2,0,L|400:88,1,90,8|2,1:1|1:2,0:0:0:0:
488,144,130925,2,0,L|496:48,1,90,0|0,1:0|0:0,0:0:0:0:
312,4,131128,2,0,L|304:108,1,90,8|2,0:0|0:0,0:0:0:0:
192,40,131330,6,0,P|140:4|24:24,1,180,4|8,0:0|0:1,0:0:0:0:
176,136,131634,1,0,0:0:0:0:
272,100,131736,2,0,P|328:68|456:112,1,180,8|8,0:0|0:1,0:0:0:0:
256,192,132040,1,0,0:0:0:0:
256,192,132141,1,0,0:0:0:0:
256,12,132344,1,0,0:0:0:0:
128,168,132546,1,8,3:0:0:0:
376,160,132749,1,8,3:0:0:0:
168,76,132952,6,0,P|80:92|32:188,2,202.500007724762,0|8|8,0:0|0:0|0:0,0:0:0:0:
344,76,133763,2,0,P|432:92|480:188,1,202.500007724762,8|0,0:0|0:0,0:0:0:0:
296,240,134168,2,0,P|304:176|388:168,1,161.999995056153,8|0,3:0|0:0,0:0:0:0:
376,264,134573,6,0,B|308:264|308:264|272:280|272:280|184:280,1,180,4|8,1:0|0:1,0:0:0:0:
108,272,134878,1,0,0:0:0:0:
152,172,134979,2,0,L|192:64,2,90,0|0|8,1:0|1:0|1:0,0:0:0:0:
108,272,135283,1,0,1:0:0:0:
40,192,135384,2,0,L|-8:92,2,90,0|0|8,1:0|1:0|1:0,1:0:0:0:
108,272,135688,1,0,0:0:0:0:
248,220,135790,2,0,B|304:212|304:212|344:184,1,90,0|0,1:0|0:0,0:0:0:0:
400,48,135992,2,0,B|380:100|380:100|384:136,1,90,8|0,1:0|0:0,0:0:0:0:
456,224,136195,6,0,P|376:168|272:176,1,180,6|8,0:0|0:0,0:0:0:0:
188,100,136499,2,0,P|192:156|188:216,1,90,2|0,0:0|0:0,0:0:0:0:
280,248,136702,2,8,P|279:285|287:337,2,90,8|0|0,0:0|0:0|0:0,0:0:0:0:
372,216,137006,2,0,L|392:120,1,90,10|0,0:0|0:0,0:0:0:0:
195,37,137209,2,0,L|207:127,1,90,8|0,0:0|0:0,0:0:0:0:
304,128,137411,2,0,L|316:32,1,90,10|0,0:0|0:0,0:0:0:0:
112,128,137614,2,0,L|130:216,1,90,8|0,0:0|0:0,0:0:0:0:
253,94,137817,1,4,0:0:0:0:
311,294,150790,6,0,B|295:247|327:210|327:210|341:164|331:112,1,180,4|0,0:0|1:0,0:0:0:0:
221,57,151094,2,0,B|207:99|207:99|217:144,2,90,0|0|0,1:0|1:0|1:0,0:0:0:0:
136,167,151398,6,0,B|146:212|146:212|132:254,1,90,0|0,1:0|1:0,0:0:0:0:
20,126,151601,6,0,P|64:135|133:143,1,90,8|8,0:3|0:3,0:0:0:0:
245,298,151803,2,0,P|204:290|157:284,1,90,4|4,0:3|0:3,0:0:0:0:
341,172,152006,1,14,1:2:0:0:
341,172,152411,6,0,P|444:184|484:288,1,202.500007724762,4|2,0:0|0:0,0:0:0:0:
384,256,152817,2,0,B|404:144|360:168|388:52,1,202.500007724762,8|2,0:0|0:0,0:0:0:0:
464,96,153222,1,2,0:0:0:0:
464,96,153323,1,2,0:0:0:0:
464,96,153425,1,2,0:0:0:0:
272,288,153628,2,0,P|184:264|152:148,1,202.500007724762,8|0,0:0|0:0,0:0:0:0:
248,32,154033,6,0,P|292:96|240:204,1,202.500007724762,4|2,0:0|0:0,0:0:0:0:
200,112,154438,2,0,B|308:84|272:148|424:96,1,202.500007724762,8|2,0:0|0:0,0:0:0:0:
356,28,154844,1,2,0:0:0:0:
356,28,154945,1,10,0:0:0:0:
356,28,155046,1,0,0:0:0:0:
256,224,155249,2,0,P|320:248|380:220,1,135.000005149842,8|0,0:0|0:0,0:0:0:0:
384,132,155553,1,0,0:0:0:0:
316,256,155655,6,4,P|384:320|492:272,1,202.500007724762,4|2,0:0|0:0,0:0:0:0:
284,152,156060,2,0,P|224:216|248:336,1,202.500007724762,8|2,0:0|0:0,0:0:0:0:
384,184,156465,1,2,0:0:0:0:
384,184,156567,1,10,0:0:0:0:
384,184,156668,1,2,0:0:0:0:
164,328,156871,2,0,L|12:320,1,135.000005149842,8|0,0:0|0:0,0:0:0:0:
296,272,157175,1,0,0:0:0:0:
296,272,157276,6,0,B|232:268|232:268|176:240|176:240|80:236,1,202.500007724762,4|0,0:0|0:0,0:0:0:0:
268,184,157682,2,0,B|332:188|332:188|388:216|388:216|484:220,1,202.500007724762,8|0,0:0|0:0,0:0:0:0:
176,136,158087,2,0,L|164:56,1,67.5000025749208,8|8,0:0|0:0,0:0:0:0:
68,200,158290,2,0,L|60:128,1,67.5000025749208,0|0,3:0|3:0,0:0:0:0:
148,252,158492,2,0,L|160:332,1,67.5000025749208,8|8,0:0|0:0,0:0:0:0:
48,312,158695,2,0,L|56:384,1,67.5000025749208,8|8,0:0|0:0,0:0:0:0:
264,284,158898,6,0,P|340:236|444:260,1,180,4|8,0:0|0:0,0:0:0:0:
472,164,159202,1,0,0:0:0:0:
472,164,159303,2,0,B|424:152|424:152|400:120,1,90
312,148,159506,2,0,B|328:196|328:196|308:240,1,90,8|0,0:0|0:0,0:0:0:0:
208,168,159709,2,0,P|104:156|32:204,1,180,0|8,0:0|0:0,0:0:0:0:
120,264,160013,2,0,L|136:60,1,180
216,232,160317,2,0,L|224:120,1,90,8|0,0:0|0:0,0:0:0:0:
328,72,160519,6,0,P|416:40|504:64,1,180,4|8,0:0|0:0,0:0:0:0:
440,140,160823,1,0,0:0:0:0:
440,140,160925,2,0,B|428:192|428:192|440:240,1,90
252,288,161128,2,0,B|264:240|264:240|252:188,1,90,8|0,0:0|0:0,0:0:0:0:
336,168,161330,2,0,B|352:236|352:236|344:276|344:276|368:372,1,180,0|0,0:0|1:0,0:0:0:0:
180,276,161634,2,0,L|-12:244,1,180
144,172,161938,2,0,P|152:132|144:76,1,90,8|0,0:0|0:0,0:0:0:0:
48,192,162141,6,0,P|28:296|72:368,1,180,4|8,0:0|0:0,0:0:0:0:
160,312,162445,1,0,0:0:0:0:
160,312,162546,2,0,L|268:304,1,90
464,228,162749,2,0,L|356:236,1,90,8|0,0:0|0:0,0:0:0:0:
280,368,162952,2,0,L|496:352,1,180,0|8,0:0|0:0,0:0:0:0:
512,192,163256,2,0,L|296:208,1,180,0|0,0:0|0:0,0:0:0:0:
204,232,163560,2,0,P|192:284|212:336,1,90,8|0,0:0|0:0,0:0:0:0:
304,132,163763,6,0,P|224:148|132:80,1,180,4|0,0:0|1:0,0:0:0:0:
244,44,164067,1,0,1:0:0:0:
372,48,164168,2,0,B|420:48|420:48|480:64,1,90
160,176,164371,2,0,L|52:168,1,90,8|0,0:0|0:0,0:0:0:0:
338,203,164573,2,0,L|428:200,1,90
148,272,164776,2,0,B|110:253|110:253|62:249,1,90,8|8,0:0|0:0,0:0:0:0:
314,349,164979,2,0,L|404:356,1,90,8|8,0:0|0:0,0:0:0:0:
509,133,165182,2,0,L|421:148,1,90,0|0,1:0|1:0,1:0:0:0:
484,244,165384,6,0,B|396:252|396:252|348:228|348:228|284:232,1,180,4|0,1:2|0:0,0:0:0:0:
240,288,165688,1,0,0:0:0:0:
181,218,165790,2,0,B|172:170|172:170|179:121,1,90,2|0,1:3|0:0,0:0:0:0:
177,129,165992,2,0,P|127:139|74:126,1,90
132,52,166195,5,0,1:0:0:0:
132,52,166296,2,0,B|218:5|224:88|314:52,1,180,0|0,1:0|0:0,0:0:0:0:
492,40,166601,2,0,P|443:42|398:65,1,90,2|0,1:3|0:0,0:0:0:0:
258,149,166803,2,0,P|317:139|355:108,1,90,0|0,1:0|1:0,0:0:0:0:
341,122,167006,5,4,1:1:0:0:
444,270,167209,1,2,0:2:0:0:
355,256,167310,1,0,0:0:0:0:
414,188,167411,1,2,1:2:0:0:
182,224,167614,1,2,0:2:0:0:
414,188,167817,6,0,L|349:193,1,45,0|0,1:0|1:0,0:0:0:0:
30,265,168019,2,0,B|93:275|93:275|175:256,1,135.000005149842,4|0,0:0|0:0,0:0:0:0:
30,265,168323,6,0,B|80:224|80:224|99:192|99:192|162:140,1,180,4|0,0:0|0:0,0:0:0:0:
95,3,168628,6,0,L|30:265,1,270.000010299683,4|0,0:0|0:0,0:0:0:0:
66,354,168932,5,0,0:0:0:0:
66,354,169033,2,0,B|100:330|100:330|117:261,1,90,2|0,1:3|0:0,0:0:0:0:
218,116,169236,2,0,B|184:140|184:140|167:209,1,90,0|0,0:0|0:0,0:0:0:0:
300,130,169438,6,0,P|274:57|172:49,1,180,0|2,1:0|0:3,0:0:0:0:
249,192,169742,2,0,L|268:280,2,90,2|2|0,0:2|1:3|0:0,0:0:0:0:
249,192,170046,2,0,B|340:214|340:214|432:188,1,180,2|4,0:2|1:0,0:0:0:0:
474,114,170351,1,2,1:2:0:0:
385,97,170452,6,0,L|288:125,1,90,0|2,1:0|1:2,0:0:0:0:
104,272,170655,2,0,L|201:244,1,90,8|2,1:3|1:2,0:0:0:0:
184,131,170857,2,0,L|87:159,1,90,4|2,1:3|1:2,0:0:0:0:
312,236,171060,2,0,L|409:208,1,90,12|2,1:3|1:2,0:0:0:0:
359,18,171263,6,0,P|304:93|326:149,1,135.000005149842,4|0,0:0|0:0,0:0:0:0:
472,356,171567,6,0,P|477:310|395:210,1,180,4|0,0:0|0:0,0:0:0:0:
156,253,171871,6,0,B|173:253|173:253|182:240|182:240|197:259|197:259|219:248|219:248|270:246|270:246|327:214|327:214|422:210,1,270.000010299683,4|0,0:0|0:0,0:0:0:0:
378,377,172175,5,0,0:0:0:0:
378,377,172276,2,0,B|363:330|363:330|378:275,1,90,2|0,1:3|0:0,0:0:0:0:
436,55,172479,2,0,B|451:102|451:102|436:157,1,90
373,290,172682,6,0,P|286:277|239:190,1,180,0|0,1:0|0:0,0:0:0:0:
253,114,172986,2,0,P|272:69|321:37,2,90,0|2|0,0:0|1:3|0:0,0:0:0:0:
344,124,173290,1,0,0:0:0:0:
344,124,173391,1,0,0:0:0:0:
176,177,173492,6,0,L|84:199,1,90,4|2,1:0|1:2,0:0:0:0:
152,362,173695,2,0,B|159:321|159:321|153:273,1,90,8|2,1:3|1:2,0:0:0:0:
89,109,173898,2,0,B|81:149|81:149|87:197,1,90,4|2,1:3|1:2,0:0:0:0:
244,318,174101,2,0,L|230:201,1,90,12|2,1:3|1:2,0:0:0:0:
230,32,174303,6,0,L|267:58,1,45
493,245,174506,2,0,B|435:229|435:229|392:226|392:226|333:215,1,135.000005149842,4|0,0:0|0:0,0:0:0:0:
493,245,174810,6,0,L|368:91,1,180,4|0,0:0|0:0,0:0:0:0:
267,367,175114,6,0,B|345:308|345:308|426:307|426:307|493:245,1,270.000010299683,4|0,0:0|0:0,0:0:0:0:
431,74,175418,5,0,0:0:0:0:
431,74,175519,2,0,B|379:76|379:76|335:110,1,90,2|0,1:3|0:0,0:0:0:0:
148,261,175722,6,0,P|218:295|312:240,1,180,0|0,0:0|1:0,0:0:0:0:
257,175,176026,2,0,P|237:130|249:66,2,90,0|2|0,0:0|0:3|0:0,0:0:0:0:
387,272,176330,6,0,P|457:240|473:136,1,180,2|2,1:3|0:3,0:0:0:0:
419,75,176634,1,0,0:0:0:0:
329,62,176736,2,0,L|270:79,1,45,4|0,1:0|1:0,0:0:0:0:
149,349,176938,6,0,P|79:317|63:213,1,180,0|0,1:0|1:0,0:0:0:0:
100,141,177242,2,0,B|120:100|120:100|117:54,2,90,0|0|0,1:0|0:0|0:0,0:0:0:0:
156,257,177546,6,0,P|179:213|218:193,1,90,0|0,1:0|0:0,0:0:0:0:
428,324,177749,2,0,P|314:347|295:334,1,135.000005149842,4|0,1:2|0:0,0:0:0:0:
140,340,178053,6,0,P|218:312|309:347,1,180,4|0,0:0|0:0,0:0:0:0:
314,352,178357,6,0,B|316:303|316:303|326:284|326:284|306:272|306:272|320:259|320:259|285:191|361:174|320:90,1,270.000010299683,4|0,0:0|0:0,0:0:0:0:
327,107,178661,5,0,0:0:0:0:
327,107,178763,2,0,B|279:116|279:116|231:111,1,90,2|0,1:3|0:0,0:0:0:0:
64,88,178965,2,0,B|112:79|112:79|160:84,1,90,2|0,0:2|0:0,0:0:0:0:
395,58,179168,5,0,1:0:0:0:
395,58,179269,2,0,B|427:93|417:153|373:178|373:178|428:182,1,180,0|0,1:0|0:3,0:0:0:0:
286,177,179573,2,0,P|275:222|298:269,1,90,2|0,1:3|0:0,0:0:0:0:
345,326,179776,2,0,P|322:278|273:259,1,90,2|2,1:3|1:3,0:0:0:0:
291,261,179979,5,4,1:0:0:0:
497,228,180182,1,2,0:2:0:0:
420,250,180283,1,0,0:0:0:0:
478,299,180384,1,2,1:2:0:0:
196,284,180587,1,2,0:2:0:0:
497,228,180790,6,0,L|434:232,1,45,2|0,1:2|1:0,0:0:0:0:
51,205,180992,2,0,B|130:220|130:220|161:196|203:190|255:208,1,180,4|0,0:0|0:0,0:0:0:0:
269,329,181296,6,0,P|190:373|107:284,1,225,4|0,0:0|0:0,0:0:0:0:
209,52,181601,6,0,B|212:72|212:72|199:74|199:74|220:105|220:105|190:110|190:110|213:130|213:130|192:138|192:138|204:150|204:150|189:178|189:178|205:228|205:228|194:263|194:263|198:296,1,315.000003004074,4|0,0:0|0:0,0:0:0:0:
196,284,181905,5,0,0:0:0:0:
196,284,182006,2,0,L|297:270,1,90,2|0,0:3|0:0,0:0:0:0:
373,288,182209,2,0,L|285:271,1,90,2|0,0:2|0:0,0:0:0:0:
294,181,182411,5,0,1:0:0:0:
294,181,182513,2,0,L|283:279,1,90,0|2,1:0|0:3,0:0:0:0:
376,206,182715,2,0,L|385:106,2,90,0|2|0,0:0|1:3|0:0,0:0:0:0:
465,197,183019,2,0,L|458:286,1,90,2|2,1:3|1:3,0:0:0:0:
458,286,183222,5,4,1:0:0:0:
452,91,183425,1,2,0:2:0:0:
255,33,183628,1,2,1:2:0:0:
452,91,183830,1,2,0:2:0:0:
452,91,183932,1,2,0:2:0:0:
368,74,184033,6,2,P|315:98|273:105,1,90,0|0,1:0|1:0,0:2:0:0:
44,64,184236,2,0,P|127:126|218:121,1,180,4|0,1:2|0:0,0:0:0:0:
420,140,184540,6,0,B|360:152|360:152|285:121|285:121|203:131,1,225,4|0,0:0|0:0,0:0:0:0:
204,136,184844,6,0,B|210:150|210:150|202:164|202:164|223:170|223:170|205:185|205:185|227:191|227:191|207:214|207:214|238:236|238:236|195:308|271:302|250:382,1,315.000003004074,4|0,0:0|0:0,0:0:0:0:
327,212,185148,5,0,0:0:0:0:
327,212,185249,2,0,L|347:109,1,90,2|0,1:3|0:0,0:0:0:0:
401,256,185452,2,0,L|472:190,1,90,2|0,0:2|0:0,0:0:0:0:
435,337,185655,5,0,1:0:0:0:
435,337,185756,2,0,L|539:309,2,90,0|0|0,1:0|0:0|0:0,0:0:0:0:
346,323,186060,2,0,B|256:292|246:355|148:328,1,180,2|2,1:3|1:3,0:0:0:0:
113,261,186364,1,2,1:3:0:0:
202,250,186465,6,0,B|175:190|226:183|199:110,1,135,4|2,1:0|0:2,0:0:0:0:
132,152,186871,6,0,P|195:189|278:112,1,188.999994232178,2|2,1:2|0:2,0:0:0:0:
184,46,187276,6,0,P|187:91|216:131,1,76.5000014591217,2|0,1:2|0:0,0:0:0:0:
305,218,187479,6,0,P|308:303|230:360,1,180,4|0,0:0|0:0,0:0:0:0:
234,274,187783,6,0,B|292:262|332:317|332:317|376:370|441:354,1,225,4|0,0:0|0:0,0:0:0:0:
458,255,188087,6,0,B|438:230|438:230|427:242|427:242|418:221|418:221|406:237|406:237|401:218|401:218|389:221|389:221|375:210|375:210|361:226|361:226|339:219|339:219|323:258|287:288|219:271,1,315.000003004074,4|0,0:0|0:0,0:0:0:0:
157,319,188391,5,0,0:0:0:0:
88,261,188492,2,0,P|35:251|2:218,1,90,2|0,1:3|0:0,0:0:0:0:
88,261,188695,6,0,L|33:68,1,180,0|0,0:0|1:0,0:0:0:0:
129,84,188999,1,0,1:0:0:0:
200,32,189101,2,0,L|228:121,1,90,2|0,0:3|1:0,0:0:0:0:
208,40,189303,6,0,P|298:65|382:37,1,180,2|2,1:3|1:3,0:0:0:0:
378,39,189607,1,2,1:3:0:0:
378,39,189709,2,0,L|384:133,1,90,4|0,1:0|0:0,0:0:0:0:
324,375,189911,6,0,L|318:281,1,90,0|0,1:0|1:0,0:0:0:0:
489,202,190114,2,0,B|441:227|441:227|385:224,1,90,0|0,1:0|1:0,0:0:0:0:
405,225,190317,1,0,0:0:0:0:
94,97,190519,6,0,L|49:94,1,45,0|0,1:0|1:0,0:0:0:0:
171,181,190722,2,0,L|81:177,1,90,0|0,0:0|1:0,0:0:0:0:
255,266,191026,2,0,L|137:261,1,112.5,0|0,0:0|1:0,0:0:0:0:
36,336,191330,5,4,0:0:0:0:
196,92,191533,1,0,0:0:0:0:
328,328,191736,2,0,P|432:288|440:204,1,180,8|0,0:0|0:0,0:0:0:0:
376,144,192040,1,0,0:0:0:0:
376,144,192141,2,0,L|388:36,2,90,0|8|0,0:0|0:0|0:0,0:0:0:0:
312,232,192445,2,0,L|332:340,2,90,0|8|0,0:0|0:0|0:0,0:0:0:0:
232,160,192749,2,0,L|248:56,1,90
144,256,192952,6,0,P|56:208|48:124,1,180
232,240,193256,1,0,0:0:0:0:
200,332,193357,2,0,B|292:360|276:288|388:300,1,180,8|0,0:0|0:0,0:0:0:0:
484,192,193661,1,0,0:0:0:0:
416,132,193763,2,0,P|396:188|412:228,1,90,0|8,0:0|0:0,0:0:0:0:
492,96,193965,2,0,P|516:48|496:-4,1,90
312,148,194168,2,0,P|212:148|156:76,1,180,8|0,0:0|0:0,0:0:0:0:
396,32,194573,6,0,P|444:128|400:208,1,180
368,252,194878,1,0,0:0:0:0:
280,192,194979,2,0,P|292:128|316:92,1,90,8|0,0:0|0:0,0:0:0:0:
448,344,195182,2,0,P|396:348|344:340,1,90,0|2,0:0|0:0,0:0:0:0:
220,300,195384,2,0,P|160:292|116:296,1,90,0|8,0:0|0:0,0:0:0:0:
32,192,195587,2,0,P|80:184|140:184,1,90
264,124,195790,2,0,P|184:88|88:96,1,180,8|0,0:0|0:0,0:0:0:0:
304,48,196094,1,0,0:0:0:0:
388,44,196195,6,0,P|376:124|420:220,1,180,4|0,0:0|0:0,0:0:0:0:
98,213,196601,2,0,P|136:124|124:44,1,180,8|0,0:0|0:0,0:0:0:0:
384,340,197006,2,0,L|308:332,1,67.5000025749208
136,216,197209,2,0,L|203:223,1,67.5000025749208,8|8,0:0|0:0,0:0:0:0:
376,212,197411,2,0,L|308:204,1,67.5000025749208
136,336,197614,2,0,L|212:344,1,67.5000025749208,8|0,0:0|0:0,0:0:0:0:
56,192,197817,6,0,P|16:276|76:380,1,202.500007724762,4|0,0:0|0:0,0:0:0:0:
236,76,198222,2,0,B|152:24|152:24|48:48,1,202.500007724762,8|0,0:0|0:0,0:0:0:0:
64,144,198628,2,0,P|68:200|64:236,1,67.5000025749208
212,268,198830,2,0,P|172:236|156:208,1,67.5000025749208
360,320,199033,2,0,P|440:288|448:160,1,202.500007724762,8|0,0:0|0:0,0:0:0:0:
272,104,199438,6,0,P|220:192|280:284,1,202.500007724762,4|0,0:0|0:0,0:0:0:0:
388,232,199844,2,0,P|376:152|296:220,1,202.500007724762
336,268,200249,2,0,L|420:272,1,67.5000025749208,8|8,0:0|0:0,0:0:0:0:
256,328,200452,2,0,L|184:324,1,67.5000025749208,8|8,0:0|0:0,0:0:0:0:
56,228,200655,2,0,L|123:231,1,67.5000025749208,8|8,0:0|0:0,0:0:0:0:
268,160,200857,2,0,L|200:156,1,67.5000025749208,8|8,0:0|0:0,0:0:0:0:
400,268,201060,6,0,P|492:228|496:140,1,180,4|8,0:0|0:0,0:0:0:0:
384,184,201364,2,0,L|276:196,1,90
364,24,201567,2,0,L|476:8,1,90,0|0,0:0|1:0,0:0:0:0:
372,104,201769,1,0,0:0:0:0:
372,104,201871,2,0,B|336:60|336:60|180:56,1,180
104,88,202175,2,0,B|64:148|64:148|120:188|104:248,1,180,0|0,1:0|0:0,0:0:0:0:
20,356,202479,2,0,P|4:296|4:252,1,90,8|0,0:0|0:0,0:0:0:0:
144,352,202682,6,0,P|256:364|304:300,1,180,4|8,0:0|0:0,0:0:0:0:
332,224,202986,2,0,B|356:200|356:200|368:132,1,90
204,108,203188,2,0,B|176:132|176:132|164:200,1,90,0|0,0:0|1:0,0:0:0:0:
236,248,203391,2,0,B|252:176|252:176|280:156|280:156|300:64,1,180
376,48,203695,2,0,P|436:20|464:8,2,90,0|0|0,1:0|0:0|0:0,0:0:0:0:
196,48,203999,2,0,P|132:24|92:24,2,90,0|0|0,0:0|1:0|0:0,0:0:0:0:
280,176,204303,6,0,B|244:88|324:88|262:-25,1,180,4|8,0:0|0:0,0:0:0:0:
196,48,204607,1,0,0:0:0:0:
180,140,204709,2,0,P|180:204|192:248,1,90
372,228,204911,2,0,P|372:164|360:120,1,90,0|0,1:0|0:0,0:0:0:0:
100,192,205114,2,0,B|67:282|119:266|79:394,1,180,0|8,0:0|0:0,0:0:0:0:
185,229,205418,2,0,P|253:177|347:183,1,180
468,248,205722,2,0,P|488:196|492:144,1,90,8|0,0:0|0:0,0:0:0:0:
348,32,205925,6,0,P|360:92|356:136,1,90
220,256,206128,2,0,P|240:204|244:152,1,90,12|0,0:0|0:0,0:0:0:0:
128,36,206330,2,0,P|140:96|136:140,1,90,0|8,0:0|0:0,0:0:0:0:
40,260,206533,1,8,0:0:0:0:
40,260,206634,2,0,P|68:176|24:84,1,180
160,224,206938,2,0,P|200:224|280:212,1,90,8|8,0:0|0:0,0:0:0:0:
452,116,207141,2,0,P|400:116|352:124,1,90,8|8,0:0|0:0,0:0:0:0:
140,32,207344,2,0,P|200:32|244:40,1,90,8|8,0:0|0:0,0:0:0:0:
192,136,207546,6,0,L|102:132|12:128,1,180,4|8,0:0|0:0,0:0:0:0:
184,232,207851,2,0,B|168:276|168:276|172:352,1,90
284,160,208053,2,0,B|300:116|300:116|296:40,1,90,0|0,0:0|1:0,0:0:0:0:
192,136,208256,1,0,0:0:0:0:
184,232,208357,2,0,P|240:188|360:200,1,180,2|0,0:0|1:0,0:0:0:0:
372,108,208661,2,0,P|440:152|468:260,1,180,2|0,0:0|0:0,0:0:0:0:
272,220,208965,2,0,P|268:172|276:128,1,90,2|0,0:0|0:0,0:0:0:0:
396,40,209168,6,0,B|384:108|384:108|392:152|392:152|372:244,1,180,4|0,0:0|1:0,0:0:0:0:
474,112,209472,1,0,0:0:0:0:
474,112,209573,2,0,B|468:92|468:92|480:24,1,90,0|0,0:0|0:0,0:0:0:0:
476,224,209776,2,0,B|482:244|482:244|470:312,1,90,0|0,1:0|0:0,0:0:0:0:
216,300,209979,2,0,P|308:244|380:264,1,180,2|0,0:0|0:0,0:0:0:0:
412,176,210283,2,0,P|472:240|464:328,1,180,2|0,0:0|0:0,0:0:0:0:
328,240,210587,2,0,L|216:228,1,90,0|0,1:0|0:0,0:0:0:0:
92,188,210790,6,0,B|112:164|160:168|160:168|132:280,1,180,4|0,0:0|1:0,0:0:0:0:
4,216,211094,2,0,P|8:164|28:120,1,90
52,296,211296,2,0,P|52:356|32:400,2,90,0|0|0,0:0|1:0|0:0,0:0:0:0:
144,356,211601,2,0,P|248:360|296:272,1,180,2|0,0:0|1:0,0:0:0:0:
395,298,211905,2,0,P|352:222|268:200,1,180,2|0,0:0|0:0,0:0:0:0:
99,257,212209,2,0,L|188:272,1,90,2|0,0:0|0:0,0:0:0:0:
340,256,212411,6,0,B|272:236|272:236|248:204|248:204|168:184,2,180,0|4|0,0:0|1:2|0:0,0:0:0:0:
452,204,212918,2,0,P|484:164|488:120,1,90,8|8,0:0|0:0,0:0:0:0:
336,16,213121,2,0,P|304:56|300:100,1,90,8|8,3:0|3:0,0:0:0:0:
352,192,213323,2,0,P|384:152|388:108,1,90,8|8,0:0|0:0,0:0:0:0:
236,4,213526,2,0,P|204:44|200:88,1,90,0|2,0:0|0:0,0:0:0:0:
244,264,213729,1,0,0:0:0:0:
268,172,213830,1,2,0:0:0:0:
180,200,213932,1,0,0:0:0:0:
336,240,214033,6,0,B|408:228|408:228|440:240|440:240|504:232,2,161.999995056153,4|0|0,0:0|1:0|0:0,0:0:0:0:
272,168,214540,1,0,0:0:0:0:
272,168,214641,2,0,L|360:144,1,80.9999975280763,0|0,1:0|0:0,0:0:0:0:
268,308,214844,2,0,L|340:344,1,80.9999975280763
388,220,215046,2,0,P|428:184|444:144,1,80.9999975280763,0|0,1:0|0:0,0:0:0:0:
324,32,215249,2,0,P|284:68|268:108,1,80.9999975280763,0|0,0:0|0:0,0:0:0:0:
368,112,215452,1,0,1:0:0:0:
368,112,215553,1,0,0:0:0:0:
368,112,215655,6,0,P|456:28|500:-8,1,161.999995056153,0|0,0:0|1:0,0:0:0:0:
420,200,215959,2,0,P|308:148|244:128,1,161.999995056153
79,191,216263,2,0,P|119:193|160:200,1,80.9999975280763,8|0,0:0|0:0,0:0:0:0:
200,264,216465,2,0,P|188:160|176:96,1,161.999995056153,0|0,0:0|1:0,0:0:0:0:
264,96,216769,1,0,0:0:0:0:
264,96,216871,2,0,P|260:136|268:176,1,80.9999975280763
400,256,217073,2,0,P|404:216|396:176,1,80.9999975280763
344,344,217276,6,0,P|408:292|508:328,1,161.999995056153,4|8,0:0|0:0,0:0:0:0:
312,248,217580,1,0,0:0:0:0:
312,248,217682,2,0,P|228:200|144:232,1,161.999995056153,0|8,0:0|0:0,0:0:0:0:
356,168,217986,1,0,0:0:0:0:
356,168,218087,2,0,P|452:156|500:84,1,161.999995056153,0|8,0:0|0:0,0:0:0:0:
286,40,218391,1,8,0:0:0:0:
286,40,218492,2,0,L|278:132,1,80.9999975280763,8|8,0:0|0:0,0:0:0:0:
392,200,218695,1,8,0:0:0:0:
392,200,218796,1,8,0:0:0:0:
392,200,218898,6,8,L|384:296,1,80.9999975280763,8|8,0:0|0:0,0:0:0:0:
184,320,219101,2,0,L|192:224,1,80.9999975280763,8|8,0:0|0:0,0:0:0:0:
372,216,219303,2,0,L|364:312,1,80.9999975280763,8|8,0:0|0:0,0:0:0:0:
164,336,219506,2,0,L|172:240,1,80.9999975280763,8|8,0:0|0:0,0:0:0:0:
356,224,219709,2,0,L|348:320,1,80.9999975280763,8|8,0:0|0:0,0:0:0:0:
148,344,219911,2,0,L|156:248,1,80.9999975280763,8|8,0:0|0:0,0:0:0:0:
344,232,220114,2,0,L|336:324,1,80.9999975280763,8|8,0:0|0:0,0:0:0:0:
136,352,220317,2,0,L|144:256,1,80.9999975280763,8|8,0:0|0:0,0:0:0:0:
251,353,220519,5,0,1:0:0:0:
251,353,220925,1,2,0:0:0:0:
222,248,221330,1,2,0:0:0:0:
263,148,221736,2,0,B|248:117|217:105|217:105|237:77|231:28,1,135,12|0,3:0|0:0,0:0:0:0:
231,37,222141,6,0,L|332:39,1,90,4|0,1:2|0:0,0:0:0:0:
138,85,222344,2,0,L|37:86,1,90,8|0,0:1|0:0,0:0:0:0:
263,148,222546,2,0,L|274:257,1,90,0|0,1:0|0:0,0:0:0:0:
104,312,222749,2,0,L|115:203,1,90,8|0,0:1|0:0,0:0:0:0:
204,286,222952,6,0,L|193:392,2,90,4|2|8,1:0|1:3|0:1,0:0:0:0:
183,162,223256,2,0,B|177:112|207:64|258:58|258:58|296:83|296:83,1,180,2|2,1:3|1:3,0:0:0:0:
361,132,223560,1,8,1:1:0:0:
440,90,223661,1,2,0:3:0:0:
500,157,223763,6,0,B|507:205|507:205|499:251,1,90,4|0,1:2|0:0,0:0:0:0:
383,382,223965,2,0,B|430:362|430:362|462:323,1,90,8|0,0:1|0:0,0:0:0:0:
454,331,224168,2,0,P|363:290|262:326,1,180,0|8,1:0|0:1,0:0:0:0:
209,349,224472,1,0,1:0:0:0:
220,260,224573,6,0,L|231:166,2,90,4|2|8,1:0|1:3|0:1,0:0:0:0:
209,349,224878,1,2,1:3:0:0:
141,289,224979,2,0,L|56:216,1,90,0|2,0:0|1:3,0:0:0:0:
289,314,225182,2,0,P|327:288|380:263,1,90,8|2,1:1|0:3,0:0:0:0:
504,160,225384,6,0,P|445:174|406:186,1,90,4|0,1:2|0:0,0:0:0:0:
245,176,225587,2,0,P|298:185|351:207,1,90,8|0,0:1|0:0,0:0:0:0:
440,268,225790,1,0,1:0:0:0:
440,268,225891,1,0,0:0:0:0:
440,268,225992,2,0,L|409:153,1,90,8|0,0:1|0:0,0:0:0:0:
417,67,226195,6,0,P|369:78|322:78,1,90,4|2,1:0|1:3,0:0:0:0:
328,78,226398,2,0,P|297:132|280:166,1,90,8|2,0:1|1:3,0:0:0:0:
284,156,226601,2,0,P|215:142|174:143,1,90,0|2,0:0|1:3,0:0:0:0:
109,119,226803,1,8,1:1:0:0:
109,119,226905,1,2,0:3:0:0:
29,227,227006,6,0,P|131:209|228:235,1,180,4|8,1:2|0:1,0:0:0:0:
204,224,227310,1,0,0:0:0:0:
245,60,227411,2,0,L|188:139,2,90,0|0|8,1:0|0:0|0:1,0:0:0:0:
346,119,227715,6,0,P|397:125|435:97,2,90,0|4|2,0:0|1:0|1:3,0:0:0:0:
375,49,228019,1,8,0:1:0:0:
375,49,228121,1,2,1:3:0:0:
329,194,228222,2,0,L|291:298,1,90,4|2,0:1|1:3,0:0:0:0:
424,253,228425,2,0,L|448:350,1,90,8|2,1:1|0:3,0:0:0:0:
450,153,228628,6,0,B|369:187|369:187|260:157,1,180,4|8,1:2|0:1,0:0:0:0:
197,125,228932,2,0,P|192:79|206:28,2,90,0|0|0,0:0|1:0|0:0,0:0:0:0:
197,125,229236,2,0,P|202:178|192:229,1,90,8|0,0:1|0:0,0:0:0:0:
90,269,229438,6,0,P|168:243|253:323,1,180,4|8,1:0|1:1,0:0:0:0:
273,380,229742,1,2,1:3:0:0:
331,310,229844,1,0,1:0:0:0:
413,345,229945,1,2,1:3:0:0:
410,255,230046,5,8,1:1:0:0:
410,255,230148,1,2,1:3:0:0:
410,255,230249,2,0,L|456:63,1,180,4|8,1:2|0:1,0:0:0:0:
331,310,230553,2,0,L|380:119,1,180,0|0,1:0|0:0,0:0:0:0:
375,135,230857,2,0,L|270:152,1,90,8|0,1:1|0:0,0:0:0:0:
77,115,231060,6,0,L|182:98,1,90,4|2,1:0|1:3,0:0:0:0:
337,224,231263,2,0,B|273:232|273:232|229:216,1,90,8|2,1:1|1:3,0:0:0:0:
122,25,231465,2,0,B|160:76|160:76|169:122,1,90,0|2,0:0|0:3,0:0:0:0:
61,307,231668,2,0,B|86:247|86:247|121:217,1,90,8|2,1:1|0:3,0:0:0:0:
249,224,231871,6,0,P|154:207|79:159,2,180,4|8|0,1:2|0:1|1:0,0:0:0:0:
327,179,232378,1,0,0:0:0:0:
408,216,232479,2,0,L|433:316,1,90,8|0,0:1|0:0,0:0:0:0:
376,115,232682,6,0,B|391:54|391:54|415:32,1,90,4|2,1:0|1:3,0:0:0:0:
411,35,232884,2,0,L|306:58,1,90,8|2,0:1|1:3,0:0:0:0:
248,151,233087,2,0,L|142:173,1,90,0|2,0:0|1:3,0:0:0:0:
374,278,233290,2,0,L|268:300,1,90,8|2,1:1|1:3,0:0:0:0:
497,132,233492,6,0,L|399:148,1,90,0|0,1:0|1:0,0:0:0:0:
78,189,233695,2,0,B|94:243|150:263|201:240|201:240|192:287,1,180,4|0,1:2|1:0,0:0:0:0:
130,330,233999,1,0,1:0:0:0:
156,167,234101,2,0,L|162:60,1,90,4|0,1:2|1:0,0:0:0:0:
227,28,234303,6,0,P|248:77|233:124,1,90,0|2,1:0|1:2,0:0:0:0:
219,354,234506,2,0,P|198:305|213:258,1,90,4|2,1:2|1:2,0:0:0:0:
405,199,234709,2,0,B|360:217|360:217|300:209,1,90,4|2,1:2|1:2,0:0:0:0:
75,178,234911,5,0,1:0:0:0:
75,178,235013,1,2,1:2:0:0:
75,178,235114,2,0,B|163:153|163:153|185:191|261:198,1,180,4|8,1:2|0:1,0:0:0:0:
319,156,235418,1,0,0:0:0:0:
240,112,235519,2,0,L|214:24,2,90,0|0|8,1:0|0:0|0:1,0:0:0:0:
301,241,235823,1,0,0:0:0:0:
395,132,235925,6,0,L|448:51,2,90,4|2|8,1:0|1:3|0:1,0:0:0:0:
455,199,236229,2,0,P|422:291|339:300,1,180,2|2,1:3|1:3,0:0:0:0:
376,217,236533,1,8,1:1:0:0:
376,217,236634,1,8,0:1:0:0:
194,174,236736,6,0,B|282:164|282:164|325:130|325:130|380:118,1,180,4|8,1:2|0:1,0:0:0:0:
450,113,237040,1,0,0:0:0:0:
396,41,237141,2,0,L|297:54,1,90,0|0,1:0|0:0,0:0:0:0:
137,107,237344,2,0,L|227:96,1,90,8|0,0:1|0:0,0:0:0:0:
125,196,237546,6,0,P|37:171|10:68,1,180,4|8,1:0|0:1,0:0:0:0:
5,94,237851,2,0,L|-2:278,1,180,2|2,1:3|1:3,0:0:0:0:
94,270,238155,2,0,L|83:362,1,90,8|8,1:1|1:1,0:0:0:0:
94,270,238357,6,0,L|198:241,1,90,4|0,1:2|1:0,0:0:0:0:
485,323,238560,2,0,B|395:357|395:357|306:339,1,180,8|0,0:1|1:0,0:0:0:0:
278,256,238864,1,0,0:0:0:0:
307,171,238965,6,0,P|398:179|463:92,2,180,8|4|8,1:1|1:0|1:1,0:0:0:0:
265,90,239472,1,2,1:3:0:0:
218,166,239573,1,0,1:0:0:0:
177,84,239675,1,2,1:3:0:0:
131,161,239776,5,8,1:1:0:0:
131,161,239878,2,0,B|85:165|85:165|32:152,2,90,8|4|0,1:1|1:2|0:0,0:0:0:0:
461,211,240182,2,0,L|358:197,1,90,8|0,0:1|0:0,0:0:0:0:
218,166,240384,2,0,L|321:152,1,90,0|0,1:0|0:0,0:0:0:0:
476,137,240587,2,0,L|373:123,1,90,8|0,0:1|0:0,0:0:0:0:
228,84,240790,6,0,L|331:70,1,90,4|2,1:0|1:3,0:0:0:0:
448,282,240992,2,0,L|345:268,1,90,8|2,1:1|1:3,0:0:0:0:
64,124,241195,2,0,L|167:110,1,90,4|2,0:1|1:3,0:0:0:0:
300,187,241398,2,0,P|340:162|360:116,1,90,8|8,1:1|0:1,0:0:0:0:
358,124,241601,6,0,P|355:228|369:321,2,180,4|8|0,1:2|0:1|1:0,0:0:0:0:
426,65,242107,1,0,0:0:0:0:
462,147,242209,1,8,0:1:0:0:
440,234,242310,1,0,1:0:0:0:
476,316,242411,6,0,L|372:335,1,90,4|2,1:2|0:2,0:0:0:0:
241,255,242614,2,0,P|326:265|387:332,1,180,8|0,0:1|1:0,0:0:0:0:
213,337,242918,2,0,L|110:349,2,90,2|8|2,0:2|0:1|1:2,0:0:0:0:
213,337,243222,5,8,1:1:0:0:
380,95,243526,1,8,0:1:0:0:
83,81,243830,1,8,0:1:0:0:
227,175,244033,5,8,0:1:0:0:
83,81,244236,1,8,0:3:0:0:
227,175,244438,2,0,B|252:211|283:205|283:205|289:242|325:258,1,135
321,256,244844,6,0,L|337:352,1,90,4|0,1:2|0:0,0:0:0:0:
418,219,245046,2,0,L|433:314,1,90,0|0,1:0|0:0,0:0:0:0:
246,125,245249,6,0,L|261:29,1,90,0|0,1:0|0:0,0:0:0:0:
343,163,245452,2,0,L|358:67,1,90,0|0,1:0|0:0,0:0:0:0:
270,279,245655,6,0,L|285:374,1,90,4|0,1:0|0:0,0:0:0:0:
367,242,245857,2,0,L|382:337,1,90,0|0,1:0|0:0,0:0:0:0:
492,127,246060,6,0,P|431:146|403:144,1,90,0|0,1:0|0:0,0:0:0:0:
87,63,246263,2,0,P|149:61|192:72,1,90,0|0,1:0|0:0,0:0:0:0:
438,33,246465,6,0,P|357:48|281:135,1,180,4|8,1:2|1:1,0:0:0:0:
289,114,246769,1,0,0:0:0:0:
202,139,246871,6,0,B|159:133|159:133|115:146,2,90,0|0|8,1:0|0:0|1:1,0:0:0:0:
274,193,247175,1,0,0:0:0:0:
367,79,247276,6,0,B|415:89|415:89|458:75,1,90,4|2,1:0|1:2,0:0:0:0:
509,147,247479,5,8,1:1:0:0:
422,168,247580,1,2,1:2:0:0:
483,234,247682,5,4,1:0:0:0:
396,256,247783,1,2,1:2:0:0:
467,321,247884,6,0,L|380:348,1,90,8|2,1:1|1:2,0:0:0:0:
292,304,248087,1,4,1:2:0:0:
168,224,254573,6,0,L|176:128,1,90,4|2,0:0|0:0,0:0:0:0:
340,256,254979,2,0,L|352:356,1,90,2|2,0:0|0:0,0:0:0:0:
88,300,255384,6,0,L|104:160,2,135,0|2|2,0:0|0:0|0:0,0:0:0:0:
204,248,256195,6,0,P|252:236|304:236,1,90,0|2,0:0|0:0,0:0:0:0:
408,160,256601,2,0,P|360:148|308:148,1,90,2|2,0:0|0:0,0:0:0:0:
192,72,257006,2,0,P|296:52|344:56,2,135,0|2|2,0:0|0:0|0:0,0:0:0:0:
124,148,257817,6,0,P|116:192|112:248,1,90,0|2,0:0|0:0,0:0:0:0:
216,300,258222,2,0,P|208:256|204:200,1,90,2|2,0:0|0:0,0:0:0:0:
32,184,258628,2,0,P|24:264|28:336,2,135,0|2|2,0:0|0:0|0:0,0:0:0:0:
32,184,259641,5,0,0:0:0:0:
172,60,259844,1,2,0:0:0:0:
316,180,260046,1,2,0:0:0:0:
120,296,260249,1,0,0:0:0:0:
96,104,260452,1,2,0:0:0:0:
192,128,260655,1,2,0:0:0:0:
128,192,260857,1,0,0:0:0:0:
96,104,261060,6,0,B|168:104|168:104|212:88|212:88|276:88,1,180,0|2,1:0|1:3,0:0:0:0:
356,121,261668,1,2,0:0:0:0:
439,86,261871,1,0,1:0:0:0:
267,155,262073,1,0,0:0:0:0:
267,155,262175,1,0,0:0:0:0:
267,155,262276,1,2,1:3:0:0:
419,274,262479,1,2,0:0:0:0:
432,180,262682,6,0,L|347:211,1,90,0|0,1:0|0:0,0:0:0:0:
221,219,263087,2,0,L|306:188,1,90,2|2,1:3|0:0,0:0:0:0:
483,77,263492,2,0,P|430:35|364:30,1,135,0|0,1:0|0:0,0:0:0:0:
349,73,263898,2,0,L|338:176,1,90,2|2,1:2|0:0,0:0:0:0:
264,111,264303,5,0,1:0:0:0:
175,126,264506,1,0,0:0:0:0:
87,104,264709,2,0,P|35:77|11:31,1,90,2|2,1:3|0:2,0:0:0:0:
87,104,265114,2,0,P|97:162|93:206,1,90,0|0,1:0|0:0,0:0:0:0:
25,250,265519,1,2,1:3:0:0:
113,269,265722,6,0,P|159:296|177:331,2,90,2|0|0,0:2|1:0|0:0,0:0:0:0:
250,350,266330,1,2,1:3:0:0:
256,187,266533,1,2,0:0:0:0:
256,187,266634,1,0,0:0:0:0:
256,187,266736,1,0,1:0:0:0:
452,228,267040,6,0,L|461:254,2,22.5,0|0|2,0:0|0:0|1:2,0:0:0:0:
418,157,267242,2,0,L|410:102,2,45,2|2|2,0:0|0:2|0:2,0:0:0:0:
373,230,267546,5,0,1:0:0:0:
478,73,267749,1,0,0:0:0:0:
288,63,267952,1,2,1:3:0:0:
478,73,268155,1,2,0:2:0:0:
307,160,268357,2,0,P|348:140|440:171,1,135,0|0,1:0|0:0,0:0:0:0:
455,199,268763,2,0,B|461:243|461:243|452:298,1,90,2|2,1:3|0:2,0:0:0:0:
252,231,269168,5,0,1:0:0:0:
162,222,269371,1,0,0:0:0:0:
326,303,269573,1,2,1:3:0:0:
241,333,269776,1,2,0:2:0:0:
426,223,269979,2,0,P|352:224|301:171,1,135,0|0,1:0|0:0,0:0:0:0:
281,149,270384,2,0,B|274:105|274:105|281:59,1,90,2|2,1:2|0:2,0:0:0:0:
390,139,270790,6,0,L|482:114,1,90,0|0,1:0|0:0,0:0:0:0:
193,84,271195,2,0,L|285:59,1,90,2|2,1:3|0:2,0:0:0:0:
186,164,271601,2,0,P|126:139|100:70,1,135,0|0,1:0|0:0,0:0:0:0:
108,33,272006,1,2,1:3:0:0:
116,232,272209,2,0,P|77:266|65:314,2,90,2|0|0,0:2|1:0|0:0,0:0:0:0:
309,264,272817,2,0,L|215:251,1,90,2|2,1:3|0:2,0:0:0:0:
411,245,273222,1,0,1:0:0:0:
436,208,273323,1,0,0:0:0:0:
423,164,273425,1,0,0:0:0:0:
381,147,273526,1,0,0:0:0:0:
338,161,273628,1,2,1:2:0:0:
293,166,273729,1,2,0:2:0:0:
258,136,273830,1,2,1:2:0:0:
251,91,273932,1,2,1:2:0:0:
273,52,274033,6,0,P|204:65|168:56,1,90,4|2,1:2|0:0,0:0:0:0:
350,74,274438,2,0,P|419:61|450:63,1,90,0|2,1:0|0:0,0:0:0:0:
293,139,274844,2,0,P|279:213|216:245,1,135,0|2,1:0|0:0,0:0:0:0:
201,215,275249,2,0,L|103:208,1,90,2|2,1:2|0:0,0:0:0:0:
254,97,275655,5,0,1:0:0:0:
272,272,275857,1,2,0:0:0:0:
413,184,276060,1,0,1:0:0:0:
313,179,276263,1,2,0:0:0:0:
471,183,276465,1,0,1:0:0:0:
248,323,276668,1,0,0:0:0:0:
248,323,276769,1,2,0:0:0:0:
248,323,276871,1,2,1:2:0:0:
219,45,277073,1,2,0:0:0:0:
238,130,277276,6,0,P|179:128|145:108,1,90,0|2,1:0|0:0,0:0:0:0:
313,184,277682,2,0,P|328:242|312:284,1,90,0|2,1:0|0:0,0:0:0:0:
313,184,278087,1,0,1:0:0:0:
321,94,278290,1,2,0:0:0:0:
394,43,278492,1,0,1:0:0:0:
321,94,278695,2,0,P|374:121|399:164,1,90,2|0,0:0|1:0,0:0:0:0:
451,357,279101,5,2,0:0:0:0:
493,58,279303,1,0,1:2:0:0:
398,255,279506,2,0,L|389:211,1,45,2|2,0:0|0:0,0:0:0:0:
345,165,279709,2,0,P|344:229|333:270,1,90,0|2,1:0|0:0,0:0:0:0:
271,274,280013,6,0,L|276:315,2,22.5,0|0|2,0:0|0:0|1:2,0:0:0:0:
241,201,280215,2,0,L|247:152,2,45,2|2|2,0:0|0:0|0:0,0:0:0:0:
193,275,280519,5,4,1:2:0:0:
240,68,280722,1,2,0:0:0:0:
114,294,280925,1,0,1:0:0:0:
161,87,281128,1,2,0:0:0:0:
48,247,281330,5,0,1:0:0:0:
255,329,281533,1,2,0:0:0:0:
60,168,281736,1,0,1:0:0:0:
267,250,281938,1,2,0:0:0:0:
94,218,282141,6,0,P|83:271|88:313,1,90,0|2,1:0|0:0,0:0:0:0:
132,132,282546,2,0,P|143:79|138:37,1,90,0|2,1:0|0:0,0:0:0:0:
195,205,282952,2,0,P|184:258|189:300,1,90,0|2,1:0|0:0,0:0:0:0:
164,171,283357,2,0,P|246:176|301:135,1,135,0|2,1:0|0:0,0:0:0:0:
222,101,283763,6,0,P|255:66|258:23,1,90,0|2,1:0|1:2,0:0:0:0:
174,35,284168,1,0,1:0:0:0:
339,88,284371,2,0,L|440:79,1,90,2|0,1:2|1:0,0:0:0:0:
288,149,284776,1,2,1:2:0:0:
453,213,284979,1,0,1:0:0:0:
311,281,285182,5,2,1:2:0:0:
311,281,285283,2,0,L|327:334,1,45,0|0,0:0|1:0,0:0:0:0:
233,234,285587,5,2,1:2:0:0:
233,234,285688,2,0,L|216:308,1,67.5000025749208,0|0,0:0|1:0,0:0:0:0:
214,150,285992,5,2,1:2:0:0:
214,150,286094,2,0,L|133:201,2,90,0|0|0,0:0|1:0|0:0,0:0:0:0:
294,170,286398,5,2,0:0:0:0:
334,58,286601,2,0,P|389:86|412:157,1,135,12|0,0:3|0:0,0:0:0:0:
392,228,287006,5,4,0:0:0:0:
392,228,287411,2,0,P|316:208|256:248,1,135
224,172,287817,2,0,L|160:164,1,45
40,144,288019,1,4,0:0:0:0:
40,144,288425,2,0,L|88:136,1,45
248,80,288628,5,4,0:0:0:0:
248,80,289033,2,0,P|316:64|372:112,1,135
356,192,289438,2,0,P|352:232|356:252,1,45
288,356,289641,1,4,0:0:0:0:
288,356,290046,2,0,P|296:320|296:296,1,45
280,156,290249,1,4,0:0:0:0:
280,156,290655,5,8,0:0:0:0:
196,88,290857,1,8,0:0:0:0:
176,296,291060,1,8,0:0:0:0:
268,256,291263,1,8,0:0:0:0:
104,124,291465,1,8,0:0:0:0:
88,224,291668,1,8,0:0:0:0:
196,88,291871,6,0,L|200:56,7,22.5
296,64,292276,2,0,L|300:32,7,22.5
400,40,292682,2,0,L|404:8,7,22.5
504,24,293087,2,0,L|508:-8,7,22.5
444,136,293492,6,0,P|392:128|344:136,1,90,4|0,0:0|0:0,0:0:0:0:
180,212,293695,2,0,P|68:212|-4:192,1,180,8|8,1:0|0:0,0:0:0:0:
200,292,293999,2,0,B|248:280|248:280|296:284,1,90,8|8,0:0|0:1,0:0:0:0:
464,340,294202,1,0,1:0:0:0:
464,340,294303,2,0,P|360:292|356:208,1,180,4|8,1:0|0:1,0:0:0:0:
500,44,294607,2,0,L|472:236,1,180,8|8,0:0|0:0,0:0:0:0:
256,144,294911,2,0,P|240:88|240:48,1,90,8|0,1:1|0:0,0:0:0:0:
64,20,295114,6,0,P|8:76|12:188,1,180,4|8,0:0|1:1,0:0:0:0:
60,240,295418,1,0,0:0:0:0:
192,152,295519,2,0,B|204:108|204:108|200:52,1,90,8|0,0:0|0:0,0:0:0:0:
292,244,295722,2,0,B|336:228|336:228|388:236,1,90,8|0,1:1|0:0,0:0:0:0:
464,124,295925,2,0,P|352:92|268:128,1,180,4|8,1:0|1:1,0:0:0:0:
224,160,296229,1,0,1:0:0:0:
304,216,296330,2,0,P|308:272|304:308,1,90
108,148,296533,2,0,P|168:112|208:100,1,90,8|0,1:0|0:0,0:0:0:0:
40,276,296736,6,0,P|120:316|224:288,1,180,4|8,0:0|1:1,0:0:0:0:
312,340,297040,1,0,0:0:0:0:
408,320,297141,2,0,B|424:276|424:276|416:224,1,90,8|0,0:0|1:0,0:0:0:0:
436,112,297344,2,0,B|384:124|384:124|356:156,1,90,8|0,0:1|1:0,0:0:0:0:
304,288,297546,2,0,P|376:216|340:128,1,180,0|8,0:0|1:0,0:0:0:0:
296,88,297851,1,0,0:0:0:0:
296,88,297952,2,0,L|108:80,1,180,8|8,0:0|0:0,0:0:0:0:
240,224,298256,1,0,0:0:0:0:
284,336,298357,6,0,B|301:322|301:322|316:324|316:324|316:300|316:300|348:268|352:224|348:188|300:144,1,215.999993408203,4|8,1:1|0:0,0:0:0:0:
116,160,298661,2,0,B|140:204|140:204|143:238|143:238|164:256|224:268|276:228,1,215.999993408203,4|8,1:1|0:0,0:0:0:0:
368,92,298965,2,0,P|269:83|220:200,1,215.999993408203,4|8,1:1|0:0,0:0:0:0:
348,188,299269,1,0,0:0:0:0:
440,144,299371,2,0,P|448:96|456:40,1,90,8|8,3:0|0:0,0:0:0:0:
288,248,299573,2,0,B|280:296|280:296|288:344,1,90,8|8,0:0|0:0,0:0:0:0:
288,132,299776,2,0,B|292:92|292:92|280:44,1,90,8|8,0:0|0:0,0:0:0:0:
384,288,299979,6,0,P|484:280|508:196,1,180,4|8,0:0|1:1,0:0:0:0:
484,112,300283,1,0,0:0:0:0:
484,112,300384,2,0,P|476:168|484:212,1,90,0|0,1:0|0:0,0:0:0:0:
400,40,300587,2,0,P|348:32|280:32,1,90,8|0,1:1|0:0,0:0:0:0:
148,36,300790,2,0,P|180:140|164:232,1,180,4|8,1:0|1:1,0:0:0:0:
76,252,301094,2,0,P|200:212|256:232,1,180,8|8,0:0|0:0,0:0:0:0:
356,272,301398,2,0,P|412:276|452:264,1,90,8|0,0:1|0:0,0:0:0:0:
288,348,301601,6,0,B|232:356|232:356|208:324|208:324|164:352|128:332,1,180,4|8,0:0|0:1,0:0:0:0:
160,256,301905,1,8,0:0:0:0:
256,212,302006,2,0,P|264:156|256:120,1,90
120,76,302209,2,0,P|112:132|120:168,1,90,8|0,1:1|0:0,0:0:0:0:
192,20,302411,2,0,P|100:0|28:60,1,180,4|8,1:0|1:1,0:0:0:0:
108,244,302715,2,0,B|132:196|132:196|116:164|116:164|140:128|116:60,1,180,8|8,0:0|0:0,0:0:0:0:
8,216,303019,2,0,P|8:276|16:308,1,90,8|0,1:1|0:0,0:0:0:0:
192,344,303222,6,0,P|136:340|88:356,1,90,4|0,0:0|0:0,0:0:0:0:
368,356,303425,2,0,P|420:348|480:348,1,90,8|0,1:1|0:0,0:0:0:0:
284,248,303628,2,0,P|200:248|168:256,1,90
380,292,303830,2,0,P|468:248|476:148,1,180,8|4,0:1|1:0,0:0:0:0:
432,108,304134,1,8,0:0:0:0:
328,128,304236,2,0,P|320:80|320:28,1,90,8|8,1:1|0:0,0:0:0:0:
180,0,304438,2,0,P|188:48|188:100,1,90,0|8,0:0|0:0,0:0:0:0:
188,208,304641,2,0,B|232:188|232:188|248:224|240:244,1,90,8|0,1:1|0:0,0:0:0:0:
140,288,304844,6,0,B|92:284|72:256|72:200|72:200|140:152,1,180,4|8,0:0|0:0,0:0:0:0:
32,0,305148,1,0,0:0:0:0:
32,0,305249,2,0,B|80:4|100:32|100:88|100:88|32:136,1,180,4|8,0:0|0:0,0:0:0:0:
16,288,305553,1,0,0:0:0:0:
16,288,305655,2,0,P|12:240|20:192,1,90,4|2,0:0|0:0,0:0:0:0:
180,40,305857,2,0,P|172:108|160:136,1,90,8|2,0:0|0:0,0:0:0:0:
232,336,306060,2,0,P|232:280|224:236,1,90,0|2,0:0|0:0,0:0:0:0:
60,0,306263,2,0,P|60:56|68:100,1,90,8|2,0:0|0:0,0:0:0:0:
32,220,306465,6,0,P|128:214|180:152,1,180,4|8,1:2|0:1,0:0:0:0:
328,88,306769,2,0,P|232:94|176:162,1,180,0|0,1:0|1:0,0:0:0:0:
228,228,307073,1,8,0:1:0:0:
228,228,307175,1,0,0:0:0:0:
317,173,307276,2,0,L|412:176,1,90,4|0,1:1|0:0,0:0:0:0:
470,332,307479,6,0,B|362:324|362:324|318:297|322:228,1,180,8|0,0:1|1:0,0:0:0:0:
413,252,307783,1,0,1:0:0:0:
497,223,307884,2,0,L|485:118,1,90,8|0,0:1|1:0,0:0:0:0:
392,32,308087,6,2,B|307:51|315:131|220:134,1,180,0|0,0:0|0:0,0:0:0:0:
100,32,308391,2,0,B|185:51|177:131|272:134,1,180,10|2,0:0|0:2,0:0:0:0:
390,125,308695,2,2,B|359:200|292:205|292:205|313:258,1,180,10|8,0:1|1:1,0:0:0:0:
377,306,308999,1,2,1:2:0:0:
201,197,309101,6,0,P|148:181|90:184,1,90,0|2,1:1|1:2,0:0:0:0:
113,180,309303,2,0,P|153:144|174:100,1,90
214,33,309506,1,0,1:0:0:0:
251,114,309607,1,2,1:2:0:0:
314,17,309709,6,0,P|399:29|449:122,1,180,4|8,1:2|0:1,0:0:0:0:
413,187,310013,1,0,0:0:0:0:
456,265,310114,2,0,L|470:363,2,90,0|0|8,1:0|0:0|0:1,0:0:0:0:
413,187,310418,1,0,0:1:0:0:
341,241,310519,6,0,L|243:255,2,90,4|2|8,1:0|1:3|0:1,0:0:0:0:
413,187,310823,1,2,1:3:0:0:
362,111,310925,2,0,L|348:13,1,90,0|2,0:0|1:3,0:0:0:0:
341,240,311128,2,0,L|355:359,1,90,8|2,0:1|0:3,0:0:0:0:
255,132,311330,6,0,B|166:165|166:165|88:145|88:145|51:194|78:263,1,270,4|2,1:2|0:0,0:0:0:0:
222,322,311736,2,0,P|229:270|224:222,2,90,0|2|0,1:0|0:0|0:1,0:0:0:0:
126,322,312040,1,2,0:0:0:0:
158,76,312141,6,0,L|38:35,1,90,4|2,1:2|1:2,0:0:0:0:
295,201,312344,2,0,L|415:160,1,90,0|2,1:1|1:2,0:0:0:0:
180,165,312546,2,0,L|193:258,1,90,4|2,1:2|1:2,0:0:0:0:
464,88,312749,2,0,L|352:74,1,90,0|2,1:0|1:2,0:0:0:0:
269,294,312952,6,0,B|321:308|362:279|386:234|386:234|407:294,1,180,4|8,1:2|0:1,0:0:0:0:
401,359,313256,1,0,0:0:0:0:
295,201,313357,2,0,B|284:156|284:156|295:106,1,90,4|0,1:2|0:0,0:0:0:0:
485,216,313560,6,0,B|496:261|496:261|485:311,2,90,8|0|4,0:1|0:0|1:2,0:0:0:0:
410,163,313864,1,2,1:3:0:0:
359,88,313965,2,0,P|261:95|218:10,1,180,8|4,1:1|1:2,0:0:0:0:
133,65,314269,1,2,1:3:0:0:
48,33,314371,1,8,1:1:0:0:
16,117,314472,1,2,1:3:0:0:
128,207,314573,6,2,B|197:205|197:205|250:229|250:229|326:227,1,180,12|0,0:0|0:0,0:0:0:0:
440,159,314878,2,0,P|361:155|300:252,1,180,10|2,0:1|0:2,0:0:0:0:
401,331,315182,2,2,B|388:285|388:285|400:236,1,90,10|0,0:1|0:0,0:0:0:0:
398,244,315384,1,8,1:1:0:0:
76,76,315587,6,0,L|189:92,1,90,0|2,1:1|1:2,0:0:0:0:
165,88,315790,2,0,P|157:140|169:189,1,90,0|2,1:0|1:2,0:0:0:0:
212,252,315992,1,0,1:0:0:0:
252,170,316094,1,2,1:2:0:0:
335,284,316195,6,0,P|380:223|356:115,1,180,4|8,1:2|0:1,0:0:0:0:
363,125,316499,1,0,0:0:0:0:
363,125,316601,6,0,L|466:123,1,90,0|0,1:0|0:0,0:0:0:0:
279,56,316803,2,0,B|326:60|326:60|382:54,1,90,8|0,0:1|0:0,0:0:0:0:
170,180,317006,2,0,B|219:173|219:173|264:182,1,90,4|0,1:0|1:0,0:0:0:0:
0,145,317209,2,0,B|42:159|42:159|102:142,1,90,8|0,0:1|1:0,0:0:0:0:
190,97,317411,6,0,P|166:144|171:183,1,90,0|0,0:0|1:0,0:0:0:0:
234,242,317614,1,8,0:1:0:0:
147,264,317715,1,0,0:0:0:0:
120,56,317817,2,0,B|160:0|240:12|276:72|276:72|264:116|264:116|271:159,1,270,4|0,1:2|0:1,0:0:0:0:
94,139,318222,6,0,L|0:133,1,90,0|2,1:0|1:2,0:0:0:0:
147,264,318425,2,0,L|33:283,1,90,8|2,1:1|1:2,0:0:0:0:
192,184,318628,6,0,B|180:137|180:137|191:88,1,90,4|2,1:0|1:2,0:0:0:0:
289,274,318830,2,0,L|248:358,1,90,8|2,1:1|1:2,0:0:0:0:
490,227,319033,6,0,B|437:240|437:240|395:230,1,90,0|2,1:0|1:2,0:0:0:0:
94,139,319236,2,0,B|147:126|147:126|189:136,1,90,0|2,1:0|1:2,0:0:0:0:
289,274,319438,6,0,B|276:214|276:214|300:146|300:146|287:78,1,198.000006042481,4|8,1:2|0:0,0:0:0:0:
337,13,319742,1,2,0:2:0:0:
287,82,319844,2,0,P|337:97|385:82,1,90,0|0,1:0|1:0,0:0:0:0:
468,33,320046,2,0,L|451:227,1,180,12|0,0:2|1:0,0:0:0:0:
303,361,320351,1,0,0:0:0:0:
373,306,320452,2,0,P|425:299|481:299,1,90,10|0,0:2|1:0,0:0:0:0:
288,273,320655,2,0,P|243:272|199:266,1,90,2|0,0:2|1:0,0:0:0:0:
360,220,320857,2,0,P|368:160|370:110,1,90,10|0,0:2|0:0,0:0:0:0:
89,16,321060,6,0,B|41:68|41:68|64:183,1,180,4|8,1:2|0:0,0:0:0:0:
47,263,321364,2,0,L|62:174,1,90,2|0,0:2|1:0,0:0:0:0:
134,93,321567,1,0,1:0:0:0:
153,189,321668,2,0,B|144:244|144:244|158:304|158:304|147:368,1,180,12|0,0:2|1:0,0:0:0:0:
62,324,321972,1,0,0:0:0:0:
240,238,322073,2,0,P|289:224|335:219,1,90,10|0,0:2|1:0,0:0:0:0:
71,173,322276,2,0,P|24:167|-23:152,1,90,2|0,0:2|1:0,0:0:0:0:
231,42,322479,2,0,P|214:100|211:148,1,90,10|0,0:2|0:0,0:0:0:0:
422,370,322682,6,0,P|449:303|418:178,1,180,4|8,1:2|0:0,0:0:0:0:
512,50,322986,2,0,P|452:112|431:199,1,180,2|0,0:2|1:0,0:0:0:0:
431,199,323290,2,0,P|379:213|339:209,1,90,12|0,0:2|0:0,0:0:0:0:
262,172,323492,1,0,1:0:0:0:
220,252,323594,1,0,0:0:0:0:
262,172,323695,2,0,L|276:78,1,90,10|0,0:2|1:0,0:0:0:0:
220,252,323898,2,0,L|234:346,1,90,2|0,0:2|1:0,0:0:0:0:
186,128,324101,2,0,L|200:34,1,90,10|0,0:2|0:0,0:0:0:0:
41,210,324303,6,0,P|97:216|137:198,1,90,2|0,1:2|0:0,0:0:0:0:
365,185,324506,2,0,P|401:266|384:353,1,180,12|2,0:2|1:2,0:0:0:0:
128,353,324810,1,0,1:0:0:0:
128,353,324911,2,0,P|110:266|146:185,1,180,12|2,0:0|1:2,0:0:0:0:
281,203,325215,1,0,0:0:0:0:
246,289,325317,2,0,L|146:273,1,90,10|0,0:2|0:0,0:0:0:0:
57,171,325519,2,0,L|157:187,1,90,2|0,1:2|1:0,0:0:0:0:
281,203,325722,1,10,0:2:0:0:
377,360,325925,6,0,L|406:170,1,180,4|8,1:2|0:0,0:0:0:0:
392,89,326229,1,2,0:2:0:0:
473,129,326330,2,0,P|444:163|404:182,1,90,0|0,1:0|1:0,0:0:0:0:
260,247,326533,2,0,B|315:238|315:238|369:278|369:278|429:269,1,180,12|0,0:2|1:0,0:0:0:0:
495,328,326837,1,0,0:0:0:0:
405,359,326938,2,0,P|352:369|310:343,1,90,10|0,0:2|1:0,0:0:0:0:
280,152,327141,2,0,P|333:142|375:168,1,90,2|0,0:2|1:0,0:0:0:0:
424,268,327344,1,10,0:2:0:0:
203,341,327546,6,0,B|89:317|89:317|26:354,1,180,4|8,1:2|0:0,0:0:0:0:
92,106,327851,1,2,0:2:0:0:
92,106,327952,2,0,L|84:195,1,90,0|0,1:0|1:0,0:0:0:0:
260,247,328155,2,0,L|148:243,1,90,12|0,0:2|0:0,0:0:0:0:
189,53,328357,2,0,L|181:142,1,90,0|0,1:0|0:0,0:0:0:0:
320,130,328560,2,0,P|416:105|478:42,1,180,10|2,0:2|0:2,0:0:0:0:
375,40,328864,1,0,1:0:0:0:
320,130,328965,2,0,P|323:187|344:241,1,90,10|0,0:2|0:0,0:0:0:0:
408,326,329168,6,0,P|464:333|500:351,2,90,4|0|8,1:2|0:0|0:0,0:0:0:0:
321,301,329472,1,2,0:2:0:0:
250,357,329573,2,0,P|195:376|142:370,1,90,0|0,1:0|1:0,0:0:0:0:
1,207,329776,2,0,L|-15:112,1,90,12|0,0:2|0:0,0:0:0:0:
173,288,329979,2,0,L|189:193,1,90,0|0,1:0|0:0,0:0:0:0:
82,161,330182,2,0,B|115:258|52:243|86:346,1,180,10|2,0:2|0:2,0:0:0:0:
1,207,330486,1,0,1:0:0:0:
17,97,330587,2,0,P|66:70|122:84,1,90,10|0,0:2|0:0,0:0:0:0:
273,195,330790,6,0,L|167:181,1,90,2|0,1:2|0:0,0:0:0:0:
146,283,330992,2,0,B|172:145|172:145|182:183,1,180,12|0,0:2|0:0,0:0:0:0:
279,247,331296,2,0,B|305:109|305:109|315:147,1,180,4|0,1:2|0:0,0:0:0:0:
435,312,331601,2,0,B|401:320|371:312|371:312|330:343|330:343|295:338|255:345,1,180,8|8,0:0|0:0,0:0:0:0:
266,343,331905,1,0,1:0:0:0:
56,283,332006,2,0,L|146:283,1,90,0|0,1:0|1:0,0:0:0:0:
457,172,332209,2,0,L|367:172,1,90,8|0,0:0|1:0,0:0:0:0:
170,39,332411,6,0,P|117:76|149:198,1,180,4|8,1:2|0:0,0:0:0:0:
191,353,332715,2,0,B|178:255|178:255|143:286|91:270,1,180,2|0,0:2|1:0,0:0:0:0:
19,149,333019,2,0,L|225:124,1,180,12|0,0:2|1:0,0:0:0:0:
300,168,333323,1,0,0:0:0:0:
300,168,333425,2,0,P|266:206|219:224,1,90,10|0,0:2|1:0,0:0:0:0:
342,362,333628,2,0,P|359:319|360:253,1,90,2|0,0:2|1:0,0:0:0:0:
436,136,333830,2,0,P|454:198|494:234,1,90,10|0,0:2|0:0,0:0:0:0:
441,321,334033,6,0,B|348:293|372:373|236:337,1,180,4|8,1:2|0:0,0:0:0:0:
113,203,334337,1,2,0:2:0:0:
52,269,334438,2,0,P|46:337|62:377,1,90,0|0,1:0|1:0,0:0:0:0:
173,357,334641,2,0,B|196:221|196:221|213:278,1,180,12|0,0:2|1:0,0:0:0:0:
267,343,334945,2,0,L|363:354,1,90,0|10,0:0|0:2,0:0:0:0:
199,137,335148,1,0,1:0:0:0:
113,203,335249,2,0,L|17:192,1,90,2|0,0:2|1:0,0:0:0:0:
272,66,335452,1,10,0:2:0:0:
459,295,335655,6,0,P|473:343|474:390,2,90,4|0|8,1:2|0:0|0:0,0:0:0:0:
404,222,335959,1,2,0:2:0:0:
416,133,336060,2,0,P|427:85|451:47,1,90,0|0,1:0|1:0,0:0:0:0:
360,26,336263,2,0,P|306:63|173:67,1,180,12|0,0:2|1:0,0:0:0:0:
43,265,336567,1,0,0:0:0:0:
43,265,336668,2,0,L|17:156,1,90,10|0,0:2|1:0,0:0:0:0:
43,265,336871,2,0,L|102:190,1,90,2|0,0:2|1:0,0:0:0:0:
43,265,337073,2,0,B|90:268|90:268|116:278|116:278|150:262|150:262|176:272|176:272|219:272,1,180,10|2,0:2|1:2,0:0:0:0:
215,272,337378,1,0,0:0:0:0:
321,254,337479,6,0,B|258:192|258:192|215:272,1,180,12|2,0:2|1:2,0:0:0:0:
128,348,337783,1,0,1:0:0:0:
128,348,337884,6,0,L|116:160,1,180,12|2,0:2|1:2,0:0:0:0:
31,139,338188,1,0,0:0:0:0:
31,139,338290,2,0,L|121:170,1,90,10|0,0:2|0:0,0:0:0:0:
111,78,338492,2,0,L|116:168,1,90,2|0,1:2|1:0,0:0:0:0:
193,122,338695,2,0,L|116:168,1,90,10|0,0:2|0:0,0:0:0:0:
128,348,338898,6,0,B|207:298|207:298|305:317,1,180,4|8,1:2|0:0,0:0:0:0:
454,295,339202,1,2,0:2:0:0:
373,337,339303,2,0,P|329:338|291:314,1,90,0|0,1:0|1:0,0:0:0:0:
493,149,339506,2,0,L|502:55,2,90,12|0|0,0:2|0:0|1:0,0:0:0:0:
355,251,339810,1,0,0:0:0:0:
329,168,339911,2,0,P|373:167|410:191,1,90,10|0,0:2|1:0,0:0:0:0:
508,328,340114,2,0,L|492:142,1,180,2|10,0:2|0:2,0:0:0:0:
273,82,340418,1,0,0:0:0:0:
221,157,340519,6,0,P|155:199|43:206,1,180,4|8,1:2|0:0,0:0:0:0:
48,108,340823,1,2,0:2:0:0:
140,121,340925,2,0,P|182:134|221:156,1,90,0|0,1:0|1:0,0:0:0:0:
298,257,341128,2,0,P|364:299|476:306,1,180,12|0,0:2|1:0,0:0:0:0:
471,207,341432,1,0,0:0:0:0:
379,221,341533,2,0,P|336:234|297:256,1,90,10|0,0:2|1:0,0:0:0:0:
48,252,341736,2,0,P|90:238|129:216,1,90,2|0,1:2|1:0,0:0:0:0:
369,35,341938,2,0,P|326:48|287:70,1,90,10|0,0:2|0:0,0:0:0:0:
122,325,342141,6,0,B|80:286|80:286|98:132,1,180,4|0,1:2|0:0,0:0:0:0:
274,34,342445,2,0,B|232:73|232:73|250:227,1,180,0|0,1:0|0:0,0:0:0:0:
491,307,342749,1,0,1:0:0:0:
491,307,342952,6,0,P|422:314|330:332,1,153.000002918243,4|0,1:1|0:0,0:0:0:0:
230,346,343256,2,0,P|240:273|246:178,1,153.000002918243,0|0,1:0|0:0,0:0:0:0:
146,102,343560,1,0,1:0:0:0:
146,102,343763,6,0,P|221:98|285:139,1,135.000005149842,8|0,3:0|0:0,0:0:0:0:
371,170,344067,2,0,P|296:166|232:207,1,135.000005149842,8|0,3:0|0:0,0:0:0:0:
256,352,344371,5,8,0:2:0:0:
128,172,344573,1,0,1:1:0:0:
256,32,344776,1,2,1:2:0:0:
384,212,344979,1,6,1:2:0:0:
256,192,345080,12,0,355317,0:0:0:0:
