osu file format v14

[General]
AudioFilename: audio.mp3
AudioLeadIn: 0
PreviewTime: 55215
Countdown: 0
SampleSet: Soft
StackLeniency: 0.7
Mode: 0
LetterboxInBreaks: 0
WidescreenStoryboard: 1

[Editor]
DistanceSpacing: 1
BeatDivisor: 4
GridSize: 16
TimelineZoom: 4.599998

[Metadata]
Title:HIGHSCHOOL OF THE DEAD (TV Size)
TitleUnicode:HIGHSCHOOL OF THE DEAD (TV Size)
Artist:KISIDA KYODAN & THE AKEBOSI ROCKETS
ArtistUnicode:岸田教団&THE明星ロケッツ
Creator:Shocko
Version:NORMAL
Source:学園黙示録 HIGHSCHOOL OF THE DEAD
Tags:gakuen mokushiroku hotd hsotd high school ichigo kishida kyoudan and akeboshi anime op opening japanese rock j-rock female vocals
BeatmapID:2844070
BeatmapSetID:1349859

[Difficulty]
HPDrainRate:3
CircleSize:3
OverallDifficulty:4
ApproachRate:5
SliderMultiplier:1
SliderTickRate:1

[Events]
//Background and Video events
0,0,"ok.jpg",0,0
//Break Periods
2,24426,30741
//Storyboard Layer 0 (Background)
//Storyboard Layer 1 (Fail)
//Storyboard Layer 2 (Pass)
//Storyboard Layer 3 (Foreground)
//Storyboard Layer 4 (Overlay)
//Storyboard Sound Samples

[TimingPoints]
426,315.789473684211,4,2,1,70,1,0
1531,-100,4,2,1,45,0,0
13057,-100,4,2,1,50,0,0
14162,-90.9090909090909,4,2,1,70,0,0
24426,-111.111111111111,4,2,1,70,0,0
32004,-111.111111111111,4,2,1,40,0,0
32636,-111.111111111111,4,2,1,50,0,0
33268,-111.111111111111,4,2,1,60,0,0
34531,-100,4,2,1,60,0,0
44636,-100,4,2,1,70,0,0
50004,-100,4,2,1,40,0,0
50952,-100,4,2,1,50,0,0
51899,-100,4,2,1,60,0,0
52531,-100,4,2,1,70,0,0
53636,-100,4,2,1,50,0,0
53794,-100,4,2,1,60,0,0
54110,-100,4,2,1,70,0,0
55373,-100,4,2,1,40,0,0
56004,-90.9090909090909,4,2,1,70,0,0
76294,-90.9090909090909,4,2,1,5,0,0
77004,-90.9090909090909,4,2,1,70,0,0
77399,-90.9090909090909,4,2,1,5,0,0
78268,-90.9090909090909,4,2,1,70,0,0
78662,-90.9090909090909,4,2,1,5,0,0
79531,-90.9090909090909,4,2,1,70,0,0
86636,-90.9090909090909,4,2,1,50,0,0
87583,-90.9090909090909,4,2,1,30,0,0
89162,-90.9090909090909,4,2,1,15,0,0
90741,-90.9090909090909,4,2,1,5,0,0

[Colours]
Combo1 : 210,255,210
Combo2 : 255,255,196
Combo3 : 213,213,234
Combo4 : 204,255,255

[HitObjects]
11,52,1531,5,8,0:0:0:0:
11,52,1689,2,0,L|3:-15,2,50,6|2|2,3:2|0:0|0:0,0:0:0:0:
49,84,2162,2,0,P|38:126|27:190,1,100,2|2,0:0|0:0,0:0:0:0:
91,259,2794,2,0,P|130:229|193:247,1,100,2|2,0:0|0:0,0:0:0:0:
202,279,3268,1,2,0:0:0:0:
202,279,3426,2,0,P|254:271|303:264,1,100,2|2,0:0|0:0,0:0:0:0:
391,319,4057,5,2,0:0:0:0:
391,319,4215,2,0,L|381:374,2,50,2|2|2,3:2|0:0|0:0,0:0:0:0:
438,301,4689,2,0,P|452:254|421:195,1,100,2|2,0:0|0:0,0:0:0:0:
372,129,5320,2,0,P|324:134|265:143,1,100,2|2,0:0|0:0,0:0:0:0:
243,100,5794,1,2,0:0:0:0:
243,100,5952,2,0,B|172:86|171:140|98:126,1,150,2|2,0:0|0:0,0:0:0:0:
10,80,6741,5,10,3:2:0:0:
335,208,7847,1,2,3:2:0:0:
212,366,8478,2,0,P|139:356|49:352,1,150,2|0,3:2|0:0,0:0:0:0:
2,271,9268,1,8,3:2:0:0:
202,47,10215,5,2,0:0:0:0:
202,47,10373,2,0,B|252:26|252:26|305:42,1,100,6|2,3:2|3:2,0:0:0:0:
328,77,10847,1,10,0:0:0:0:
328,77,11004,2,0,P|321:132|314:192,1,100,6|2,3:2|3:2,0:0:0:0:
280,212,11478,1,10,0:0:0:0:
32,346,13057,5,8,3:2:0:0:
32,346,13215,2,0,L|81:340,1,50,4|4,0:3|0:3,0:0:0:0:
110,298,13531,1,8,3:2:0:0:
110,298,13689,2,0,L|159:303,2,50,4|4|4,0:3|0:3|0:3,0:0:0:0:
83,250,14162,5,6,3:2:0:0:
137,154,14478,1,2,3:2:0:0:
137,154,14636,2,0,P|130:117|125:85,1,55.0000016784668,10|2,0:0|0:0,0:0:0:0:
169,64,14952,2,0,P|218:68|291:75,1,110.000003356934,2|8,3:2|0:0,0:0:0:0:
323,41,15426,1,2,3:2:0:0:
420,102,15741,1,2,3:2:0:0:
420,102,15899,2,0,P|416:134|413:169,1,55.0000016784668,10|2,0:0|0:0,0:0:0:0:
375,196,16215,2,0,P|382:249|390:304,1,110.000003356934,2|8,3:2|0:0,0:0:0:0:
369,356,16689,6,0,P|324:325|271:333,1,110.000003356934,6|2,3:2|3:2,0:0:0:0:
168,372,17320,2,0,P|113:360|56:356,1,110.000003356934,2|2,0:0|3:2,0:0:0:0:
16,254,17952,2,0,P|8:219|1:193,1,55.0000016784668,2|0,3:2|0:0,0:0:0:0:
31,153,18268,1,2,3:2:0:0:
69,50,18583,2,0,P|120:39|168:68,1,110.000003356934,2|2,0:0|3:2,0:0:0:0:
210,102,19057,1,8,0:0:0:0:
210,102,19215,6,0,P|197:153|186:219,1,110.000003356934,6|2,3:2|3:2,0:0:0:0:
212,258,19689,1,10,0:0:0:0:
293,330,20004,2,0,P|324:286|318:232,1,110.000003356934,2|8,3:2|0:0,0:0:0:0:
294,182,20478,2,0,P|357:189|416:199,1,110.000003356934,2|2,3:2|3:2,0:0:0:0:
451,170,20952,1,10,0:0:0:0:
422,63,21268,2,0,P|391:65|344:72,1,55.0000016784668,2|0,3:2|3:0,0:0:0:0:
321,37,21583,1,10,0:0:0:0:
321,37,21741,5,6,3:2:0:0:
233,102,22057,1,2,3:2:0:0:
233,102,22215,2,0,P|175:93|125:88,1,110.000003356934,10|0,0:0|3:0,0:0:0:0:
94,135,22689,2,0,P|100:164|107:191,1,55.0000016784668,0|10,3:0|0:0,0:0:0:0:
155,213,23004,6,0,P|148:263|137:338,1,110.000003356934,6|2,3:2|3:2,0:0:0:0:
169,368,23478,1,8,0:0:0:0:
271,327,23794,1,8,3:2:0:0:
271,327,23952,1,8,3:2:0:0:
444,102,32004,5,0,3:0:0:0:
393,176,32320,2,0,P|348:182|304:192,1,89.9999972534181,2|0,3:2|3:0,0:0:0:0:
230,141,32952,2,0,P|236:96|246:52,1,89.9999972534181,2|0,3:2|3:0,0:0:0:0:
170,5,33583,1,2,3:2:0:0:
105,67,33899,2,0,P|114:118|122:162,1,89.9999972534181,2|8,3:2|3:2,0:0:0:0:
172,248,34531,5,6,3:2:0:0:
172,248,34689,2,0,B|124:232|124:232|67:256,1,100,2|8,0:0|0:3,0:0:0:0:
47,290,35162,1,4,3:0:0:0:
104,372,35478,2,0,P|135:363|173:356,1,50,8|8,0:0|0:3,0:0:0:0:
197,336,35794,2,0,P|257:348|309:356,1,100,4|8,3:0|0:0,0:0:0:0:
336,324,36268,1,8,0:3:0:0:
336,324,36426,1,4,3:0:0:0:
428,360,36741,2,0,P|435:335|446:297,1,50,8|8,0:0|0:3,0:0:0:0:
489,295,37057,6,0,P|506:245|478:187,1,100,4|8,3:0|0:0,0:0:0:0:
424,126,37689,1,4,3:0:0:0:
340,179,38004,2,0,P|315:175|288:171,1,50,8|8,0:0|0:3,0:0:0:0:
250,140,38320,1,4,3:0:0:0:
313,62,38636,1,8,0:0:0:0:
230,5,38952,2,0,B|181:23|181:23|135:10,1,100,4|8,3:0|0:0,0:0:0:0:
98,45,39426,1,8,0:3:0:0:
98,45,39583,6,0,P|111:106|116:143,1,100,4|8,3:0|0:0,0:0:0:0:
35,203,40215,1,4,3:3:0:0:
100,280,40531,2,0,P|92:313|88:333,1,50,8|8,0:0|0:3,0:0:0:0:
126,361,40847,2,0,P|186:352|231:347,1,100,4|8,3:0|0:0,0:0:0:0:
268,371,41320,1,8,0:3:0:0:
268,371,41478,2,0,B|292:328|292:328|277:271,1,100,4|8,3:0|0:0,0:0:0:0:
329,192,42110,6,0,P|388:197|436:205,1,100,4|8,3:0|0:0,0:0:0:0:
464,169,42583,1,8,0:3:0:0:
464,169,42741,2,0,L|454:110,2,50,4|4|8,3:0|0:3|0:0,0:0:0:0:
509,189,43215,5,6,3:2:0:0:
398,290,43689,1,6,3:2:0:0:
260,229,44162,1,6,3:2:0:0:
173,351,44636,6,0,P|168:305|160:232,1,100,6|10,3:2|0:0,0:0:0:0:
73,205,45268,1,2,3:2:0:0:
73,205,45426,2,0,L|24:217,1,50,10|0,0:0|3:0,0:0:0:0:
0,172,45741,2,0,P|-15:120|5:78,1,100,10|10,0:0|0:0,0:0:0:0:
37,43,46215,1,8,3:2:0:0:
128,83,46531,1,8,0:3:0:0:
219,41,46847,1,8,3:2:0:0:
308,84,47162,6,0,L|318:35,2,50,8|8|4,0:0|0:3|0:3,0:0:0:0:
342,121,47636,2,0,L|440:106,1,100,8|8,0:0|0:3,0:0:0:0:
476,141,48110,1,8,0:0:0:0:
476,141,48268,1,0,0:0:0:0:
423,226,48583,2,0,P|450:272|446:323,1,100,8|4,0:0|0:3,0:0:0:0:
406,345,49057,2,0,P|371:338|304:332,1,100,4|0,3:0|3:0,0:0:0:0:
208,313,49689,5,4,3:2:0:0:
116,352,50004,1,0,3:0:0:0:
20,321,50320,1,0,3:0:0:0:
48,225,50636,1,0,3:0:0:0:
6,134,50952,1,0,3:0:0:0:
58,48,51268,1,0,3:0:0:0:
150,84,51583,2,0,P|202:75|266:71,1,100,2|2,3:0|3:0,0:0:0:0:
339,28,52215,5,2,3:0:0:0:
425,78,52531,1,2,3:0:0:0:
368,160,52847,2,0,P|375:220|380:261,1,100,2|8,3:0|3:2,0:0:0:0:
419,289,53320,1,4,3:2:0:0:
343,353,53636,5,8,0:0:0:0:
343,353,53794,2,0,P|309:346|283:341,1,50,8|8,3:2|0:0,0:0:0:0:
251,315,54110,2,0,P|217:321|191:327,1,50,8|8,3:2|3:2,0:0:0:0:
161,354,54426,2,0,P|127:347|101:342,1,50,8|8,3:2|3:2,0:0:0:0:
484,21,56004,6,0,P|474:82|470:134,1,110.000003356934,6|8,3:2|0:0,0:0:0:0:
387,202,56636,2,0,P|393:228|398:255,2,55.0000016784668,0|0|8,3:0|3:0|0:0,0:0:0:0:
337,176,57110,1,2,0:0:0:0:
337,176,57268,2,0,B|318:122|318:122|348:67,1,110.000003356934,2|8,3:2|0:0,0:0:0:0:
255,8,57899,2,0,P|223:12|191:20,1,55.0000016784668,0|0,3:0|3:0,0:0:0:0:
164,59,58215,2,0,P|137:53|109:49,1,55.0000016784668,8|0,0:0|0:0,0:0:0:0:
63,19,58531,5,0,3:0:0:0:
1,110,58847,1,8,0:0:0:0:
82,183,59162,2,0,P|128:148|190:166,1,110.000003356934,2|10,3:2|0:0,0:0:0:0:
214,195,59636,1,2,0:0:0:0:
315,152,59952,1,2,0:0:0:0:
400,221,60268,2,0,P|391:295|388:339,1,110.000003356934,2|2,0:0|3:2,0:0:0:0:
340,356,60741,1,8,0:0:0:0:
340,356,60899,2,0,P|292:324|233:345,1,110.000003356934,6|0,3:2|3:0,0:0:0:0:
192,354,61373,1,8,0:0:0:0:
86,321,61689,6,0,P|79:291|73:265,1,55.0000016784668,2|2,3:2|3:2,0:0:0:0:
105,222,62004,1,10,0:0:0:0:
105,222,62162,2,0,L|224:235,1,110.000003356934,2|2,0:0|0:0,0:0:0:0:
261,204,62636,1,8,0:0:0:0:
360,250,62952,2,0,P|353:223|346:196,1,55.0000016784668,2|2,3:2|3:2,0:0:0:0:
394,166,63268,1,10,0:0:0:0:
394,166,63426,2,0,P|445:183|496:149,1,110.000003356934,2|2,0:0|0:0,0:0:0:0:
509,104,63899,1,8,0:0:0:0:
410,53,64215,6,0,P|413:31|420:-12,2,55.0000016784668,2|2|10,3:2|3:2|0:0,0:0:0:0:
363,83,64689,2,0,P|308:75|251:67,1,110.000003356934,2|2,0:0|3:2,0:0:0:0:
213,30,65162,2,0,P|184:36|149:42,1,55.0000016784668,12|0,0:0|3:0,0:0:0:0:
118,78,65478,2,0,P|89:72|54:66,1,55.0000016784668,12|0,0:0|3:0,0:0:0:0:
11,51,65794,1,14,0:0:0:0:
55,151,66110,6,0,P|76:197|61:254,1,110.000003356934,6|8,3:2|0:0,0:0:0:0:
3,346,66741,1,0,3:0:0:0:
114,347,67057,2,0,L|168:353,1,55.0000016784668,10|2,0:0|0:0,0:0:0:0:
221,370,67373,2,0,P|287:362|338:357,1,110.000003356934,0|8,3:0|0:0,0:0:0:0:
432,317,68004,2,0,P|435:289|441:256,1,55.0000016784668,0|0,3:0|3:0,0:0:0:0:
405,219,68320,1,8,0:0:0:0:
469,129,68636,6,0,B|419:107|419:107|357:122,1,110.000003356934,0|8,3:0|0:0,0:0:0:0:
260,84,69268,2,0,P|263:113|267:138,1,55.0000016784668,2|2,3:2|3:2,0:0:0:0:
229,178,69583,1,10,0:0:0:0:
229,178,69741,1,2,0:0:0:0:
134,121,70057,1,2,0:0:0:0:
37,174,70373,2,0,P|20:221|50:280,1,110.000003356934,2|2,0:0|3:2,0:0:0:0:
80,313,70847,1,8,0:0:0:0:
80,313,71004,2,0,P|139:300|203:291,1,110.000003356934,6|0,3:2|3:0,0:0:0:0:
227,253,71478,1,8,0:0:0:0:
348,283,71794,6,0,P|342:310|333:344,1,55.0000016784668,2|2,3:2|3:2,0:0:0:0:
375,374,72110,1,10,0:0:0:0:
375,374,72268,2,0,P|428:377|469:341,1,110.000003356934,2|2,0:0|0:0,0:0:0:0:
493,291,72741,1,8,0:0:0:0:
440,194,73057,2,0,P|412:197|361:206,1,55.0000016784668,2|2,3:2|3:2,0:0:0:0:
345,171,73373,1,10,0:0:0:0:
345,171,73531,2,0,P|353:111|362:55,1,110.000003356934,2|2,0:0|0:0,0:0:0:0:
322,22,74004,1,8,0:0:0:0:
213,42,74320,6,0,P|185:35|141:27,2,55.0000016784668,2|2|10,3:2|3:2|0:0,0:0:0:0:
250,82,74794,1,2,0:0:0:0:
250,82,74952,2,0,P|241:120|233:159,1,55.0000016784668,0|0,3:0|3:0,0:0:0:0:
191,165,75268,2,0,P|200:203|208:242,1,55.0000016784668,12|0,0:0|3:0,0:0:0:0:
247,251,75583,2,0,P|238:289|230:328,1,55.0000016784668,12|0,0:0|3:0,0:0:0:0:
192,340,75899,1,8,0:0:0:0:
92,291,76215,5,6,3:2:0:0:
359,354,77004,2,0,P|364:299|370:244,1,110.000003356934,2|6,3:2|3:2,0:0:0:0:
72,99,78268,2,0,P|76:154|78:208,1,110.000003356934,2|6,3:2|3:2,0:0:0:0:
399,133,79531,5,2,3:2:0:0:
505,160,79847,2,0,B|520:107|520:107|490:60,1,110.000003356934,4|0,3:2|3:0,0:0:0:0:
446,27,80320,1,8,0:0:0:0:
341,60,80636,1,8,0:0:0:0:
240,15,80952,2,0,P|213:21|165:30,1,55.0000016784668,8|8,3:2|0:0,0:0:0:0:
149,68,81268,6,0,P|160:119|170:183,1,110.000003356934,8|8,3:2|3:0,0:0:0:0:
83,245,81899,2,0,P|54:237|17:231,2,55.0000016784668,4|8|8,3:0|0:0|3:0,0:0:0:0:
111,292,82373,2,0,P|174:264|228:279,1,110.000003356934,8|8,0:0|0:3,0:0:0:0:
250,310,82847,1,0,3:0:0:0:
299,213,83162,2,0,P|293:185|288:155,2,55.0000016784668,4|8|8,3:0|0:0|0:3,0:0:0:0:
349,235,83636,2,0,P|424:227|469:225,1,110.000003356934,8|8,3:2|0:3,0:0:0:0:
504,194,84110,1,8,3:0:0:0:
456,94,84426,2,0,P|460:72|466:40,2,55.0000016784668,8|8|8,3:0|0:0|0:3,0:0:0:0:
411,126,84899,6,0,B|360:139|360:139|303:111,1,110.000003356934,8|8,0:0|0:0,0:0:0:0:
264,80,85373,2,0,P|209:85|132:96,1,110.000003356934,8|8,0:0|0:0,0:0:0:0:
61,45,86004,1,8,0:0:0:0:
61,45,86162,1,4,3:2:0:0:
256,192,86320,12,0,90741,0:0:0:0:
