osu file format v14

[General]
AudioFilename: audio.mp3
AudioLeadIn: 0
PreviewTime: 55215
Countdown: 0
SampleSet: None
StackLeniency: 0.3
Mode: 0
LetterboxInBreaks: 0
WidescreenStoryboard: 1

[Editor]
DistanceSpacing: 1
BeatDivisor: 4
GridSize: 16
TimelineZoom: 4.599998

[Metadata]
Title:HIGHSCHOOL OF THE DEAD (TV Size)
TitleUnicode:HIGHSCHOOL OF THE DEAD (TV Size)
Artist:KISIDA KYODAN & THE AKEBOSI ROCKETS
ArtistUnicode:岸田教団&THE明星ロケッツ
Creator:Shocko
Version:HARD
Source:学園黙示録 HIGHSCHOOL OF THE DEAD
Tags:gakuen mokushiroku hotd hsotd high school ichigo kishida kyoudan and akeboshi anime op opening japanese rock j-rock female vocals
BeatmapID:2801032
BeatmapSetID:1349859

[Difficulty]
HPDrainRate:4
CircleSize:3.5
OverallDifficulty:6
ApproachRate:8
SliderMultiplier:1.4
SliderTickRate:1

[Events]
//Background and Video events
0,0,"ok.jpg",0,0
//Break Periods
2,24426,31057
//Storyboard Layer 0 (Background)
//Storyboard Layer 1 (Fail)
//Storyboard Layer 2 (Pass)
//Storyboard Layer 3 (Foreground)
//Storyboard Layer 4 (Overlay)
//Storyboard Sound Samples

[TimingPoints]
426,315.789473684211,4,2,1,70,1,0
426,-100,4,2,1,45,0,0
1689,-125,4,2,1,45,0,0
10373,-100,4,2,1,70,0,0
13057,-100,4,2,1,50,0,0
32004,-125,4,2,1,40,0,0
32241,-125,4,2,1,5,0,0
32320,-125,4,2,1,40,0,0
32557,-125,4,2,1,5,0,0
32636,-125,4,2,1,50,0,0
32873,-125,4,2,1,5,0,0
32952,-125,4,2,1,50,0,0
33189,-125,4,2,1,5,0,0
33268,-125,4,2,1,60,0,0
33504,-125,4,2,1,5,0,0
33583,-125,4,2,1,60,0,0
33820,-125,4,2,1,5,0,0
33899,-125,4,2,1,60,0,0
34136,-125,4,2,1,5,0,0
34215,-125,4,2,1,60,0,0
34531,-111.111111111111,4,2,1,60,0,0
43294,-100,4,2,1,5,0,0
43689,-100,4,2,1,60,0,0
43768,-100,4,2,1,5,0,0
44162,-100,4,2,1,60,0,0
44241,-100,4,2,1,5,0,0
44636,-100,4,2,1,70,0,0
49689,-125,4,2,1,70,0,0
50004,-125,4,2,1,40,0,0
50952,-125,4,2,1,50,0,0
51899,-125,4,2,1,60,0,0
52215,-111.111111111111,4,2,1,60,0,0
52531,-111.111111111111,4,2,1,70,0,0
53636,-111.111111111111,4,2,1,50,0,0
53794,-111.111111111111,4,2,1,60,0,0
54110,-111.111111111111,4,2,1,70,0,0
55373,-111.111111111111,4,2,1,40,0,0
56004,-100,4,2,1,70,0,0
76294,-100,4,2,1,5,0,0
77004,-100,4,2,1,70,0,0
77399,-100,4,2,1,5,0,0
78268,-100,4,2,1,70,0,0
78662,-100,4,2,1,5,0,0
79531,-100,4,2,1,70,0,0
86636,-100,4,2,1,50,0,0
87583,-100,4,2,1,30,0,0
89162,-100,4,2,1,15,0,0
90741,-100,4,2,1,5,0,0

[Colours]
Combo1 : 210,255,210
Combo2 : 255,255,196
Combo3 : 213,213,234
Combo4 : 204,255,255

[HitObjects]
180,347,426,5,2,0:3:0:0:
85,384,741,1,2,0:3:0:0:
0,325,1057,1,2,0:3:0:0:
0,325,1373,1,2,0:3:0:0:
77,254,1531,5,8,0:0:0:0:
77,254,1610,1,8,0:0:0:0:
77,254,1689,2,0,L|88:189,1,56,6|2,3:2|0:0,0:0:0:0:
8,143,2004,1,2,0:0:0:0:
87,80,2162,2,0,B|139:57|139:57|191:80,1,112,2|2,0:0|0:0,0:0:0:0:
229,167,2636,5,2,0:0:0:0:
229,174,2794,2,0,P|222:236|218:303,1,112,2|2,0:0|0:0,0:0:0:0:
293,353,3268,1,2,0:0:0:0:
299,350,3426,2,0,P|346:319|410:334,1,112,2|2,0:0|0:0,0:0:0:0:
509,210,4057,5,2,0:0:0:0:
504,206,4215,2,0,P|505:180|510:150,1,56,2|2,3:2|0:0,0:0:0:0:
429,94,4531,1,2,0:0:0:0:
510,43,4689,2,0,P|468:7|414:9,1,112,2|2,0:0|0:0,0:0:0:0:
332,74,5162,5,0,0:0:0:0:
326,78,5320,2,0,P|269:83|201:91,1,112,2|2,0:0|0:0,0:0:0:0:
144,13,5794,1,2,0:0:0:0:
138,14,5952,2,0,P|110:60|123:112,1,112,2|2,0:0|0:0,0:0:0:0:
42,166,6426,1,2,0:0:0:0:
133,216,6583,5,8,0:0:0:0:
148,210,6662,1,8,0:0:0:0:
162,204,6741,1,10,3:2:0:0:
253,260,7847,1,2,3:2:0:0:
58,346,8478,1,2,3:2:0:0:
155,380,9110,5,8,0:0:0:0:
158,368,9189,1,8,0:0:0:0:
161,357,9268,1,8,3:2:0:0:
264,269,10215,5,2,0:0:0:0:
333,348,10373,2,0,B|389:351|389:351|419:371|419:371|473:375,1,140,6|2,3:2|3:2,0:0:0:0:
512,277,10847,1,8,0:0:0:0:
448,191,11004,2,0,P|457:121|467:52,1,140,6|2,3:2|3:2,0:0:0:0:
382,0,11478,1,10,0:0:0:0:
20,376,13057,5,8,3:2:0:0:
17,371,13136,1,8,0:3:0:0:
14,365,13215,2,0,L|19:328,3,35,4|4|4|4,0:3|0:3|0:3|0:3,0:0:0:0:
49,306,13531,1,8,3:2:0:0:
52,301,13610,1,8,0:3:0:0:
56,295,13689,2,0,L|51:258,5,35,4|4|4|4|4|4,0:3|0:3|0:3|0:3|0:3|0:3,0:0:0:0:
16,226,14162,6,0,P|24:156|34:87,1,140,6|0,3:2|3:0,0:0:0:0:
124,19,14636,1,10,0:0:0:0:
124,19,14794,1,2,0:0:0:0:
205,92,14952,2,0,P|289:80|359:74,1,140,2|8,3:2|0:0,0:0:0:0:
427,144,15426,2,0,P|454:198|409:271,1,140,2|2,3:2|3:2,0:0:0:0:
331,331,15899,1,10,0:0:0:0:
331,331,16057,1,2,0:0:0:0:
246,266,16215,2,0,P|253:230|259:195,1,70,2|0,3:2|3:0,0:0:0:0:
339,152,16531,1,8,0:0:0:0:
267,62,16689,6,0,P|207:71|110:84,1,140,6|0,3:2|3:0,0:0:0:0:
50,162,17162,1,8,0:0:0:0:
134,229,17320,2,0,P|190:189|272:205,1,140,2|0,0:0|3:0,0:0:0:0:
332,265,17794,1,8,0:0:0:0:
428,194,17952,6,0,B|427:200|418:230|415:262,1,70,2|0,3:2|0:0,0:0:0:0:
498,333,18268,2,0,P|463:337|429:345,1,70,2|8,3:2|0:0,0:0:0:0:
342,382,18583,2,0,P|307:373|273:369,1,70,2|0,0:0|3:0,0:0:0:0:
185,317,18899,1,0,3:0:0:0:
98,371,19057,1,8,0:0:0:0:
12,315,19215,6,0,P|21:243|29:174,1,140,4|2,3:2|3:2,0:0:0:0:
85,85,19689,1,10,0:0:0:0:
85,85,19847,1,2,0:0:0:0:
169,145,20004,2,0,P|164:179|157:214,1,70,2|0,3:2|3:0,0:0:0:0:
245,255,20320,1,8,0:0:0:0:
331,191,20478,6,0,P|397:177|449:220,1,140,2|2,3:2|3:2,0:0:0:0:
459,321,20952,1,10,0:0:0:0:
459,321,21110,1,2,0:0:0:0:
362,360,21268,2,0,P|317:349|280:348,1,70,2|0,3:2|3:0,0:0:0:0:
245,255,21583,1,10,0:0:0:0:
165,337,21741,6,0,P|161:270|152:190,1,140,6|2,3:2|3:2,0:0:0:0:
56,178,22215,2,0,P|29:89|68:41,1,140,10|0,0:0|3:0,0:0:0:0:
141,15,22689,1,0,3:0:0:0:
141,15,22847,1,10,0:0:0:0:
243,86,23004,6,0,B|306:75|307:122|377:115,1,140,6|2,3:2|3:2,0:0:0:0:
469,71,23478,2,0,P|458:124|448:186,1,105,8|0,0:0|3:3,0:0:0:0:
430,193,23794,1,8,3:2:0:0:
503,268,23952,1,8,3:2:0:0:
81,7,32004,5,0,3:0:0:0:
102,91,32320,1,0,3:0:0:0:
0,169,32636,1,0,3:0:0:0:
82,206,32952,1,0,3:0:0:0:
201,107,33268,5,0,3:0:0:0:
302,61,33583,1,0,3:0:0:0:
396,116,33899,2,0,P|401:60|412:5,1,112,0|8,3:0|3:2,0:0:0:0:
507,147,34531,5,6,3:2:0:0:
457,230,34689,2,0,P|395:252|330:213,1,125.999996154785,2|8,0:0|0:3,0:0:0:0:
278,155,35162,1,4,3:0:0:0:
278,155,35320,1,4,0:3:0:0:
210,220,35478,2,0,P|218:259|224:294,1,62.9999980773926,8|8,0:0|0:3,0:0:0:0:
152,362,35794,5,4,3:0:0:0:
72,310,35952,2,0,P|82:241|93:163,1,125.999996154785,4|8,0:3|0:3,0:0:0:0:
155,119,36426,1,4,3:0:0:0:
155,119,36583,1,4,0:3:0:0:
85,44,36741,2,0,P|119:26|156:30,1,62.9999980773926,8|8,0:0|0:3,0:0:0:0:
244,81,37057,5,4,3:0:0:0:
317,19,37215,2,0,P|307:78|296:167,1,125.999996154785,4|8,0:3|0:3,0:0:0:0:
218,209,37689,1,4,3:0:0:0:
218,209,37847,1,4,0:3:0:0:
308,258,38004,2,0,P|339:256|367:243,1,62.9999980773926,8|8,0:0|0:3,0:0:0:0:
428,167,38320,5,4,3:0:0:0:
499,226,38478,2,0,P|522:286|503:351,1,125.999996154785,4|8,0:3|0:3,0:0:0:0:
414,380,38952,1,4,3:0:0:0:
414,380,39110,1,4,0:3:0:0:
326,322,39268,2,0,L|247:334,1,62.9999980773926,8|8,0:0|0:3,0:0:0:0:
247,329,39504,5,8,0:3:0:0:
236,327,39583,1,4,3:0:0:0:
161,382,39741,2,0,P|156:322|148:250,1,125.999996154785,4|8,0:3|0:3,0:0:0:0:
62,303,40215,1,4,3:3:0:0:
62,303,40373,1,4,0:3:0:0:
2,220,40531,2,0,P|-7:184|5:151,1,62.9999980773926,8|8,0:0|0:3,0:0:0:0:
8,146,40768,5,8,0:3:0:0:
15,138,40847,1,4,3:0:0:0:
110,85,41004,2,0,B|165:94|165:94|177:107|177:107|230:117,1,125.999996154785,4|8,0:3|0:3,0:0:0:0:
315,63,41478,1,4,3:0:0:0:
315,63,41636,1,4,0:3:0:0:
385,144,41794,2,0,P|433:136|457:133,1,62.9999980773926,8|8,0:0|0:3,0:0:0:0:
457,126,42031,5,8,0:3:0:0:
464,119,42110,1,4,3:0:0:0:
404,235,42268,2,0,P|411:295|421:361,1,125.999996154785,4|8,0:3|0:3,0:0:0:0:
316,320,42741,1,4,3:0:0:0:
316,320,42899,5,4,0:3:0:0:
270,226,43057,1,8,0:0:0:0:
313,138,43215,1,6,3:2:0:0:
22,216,43689,5,6,3:2:0:0:
177,375,44162,5,6,3:2:0:0:
177,375,44636,6,0,P|274:359|326:354,1,140,6|10,3:2|0:0,0:0:0:0:
412,316,45110,1,2,0:0:0:0:
390,223,45268,1,2,3:2:0:0:
390,223,45426,2,0,P|396:187|401:154,1,70,10|0,0:0|3:0,0:0:0:0:
478,94,45741,6,0,P|424:52|359:69,1,140,10|10,0:0|0:0,0:0:0:0:
298,150,46215,1,8,3:2:0:0:
232,70,46373,1,8,0:0:0:0:
226,68,46452,1,8,0:0:0:0:
221,65,46531,2,0,P|177:72|140:79,1,70,8|8,0:3|0:0,0:0:0:0:
71,23,46847,1,8,3:2:0:0:
0,96,47004,1,2,0:0:0:0:
77,175,47162,6,0,L|70:217,3,35,8|8|8|8,0:0|0:0|0:3|0:3,0:0:0:0:
88,232,47478,1,4,0:3:0:0:
194,197,47636,1,8,0:0:0:0:
200,196,47715,1,8,0:0:0:0:
206,194,47794,2,0,P|253:187|284:182,1,70,4|8,0:3|0:3,0:0:0:0:
358,244,48110,1,8,0:0:0:0:
275,319,48268,2,0,L|240:313,2,35,4|4|4,0:3|0:3|0:3,0:0:0:0:
371,378,48583,5,8,0:0:0:0:
377,377,48662,1,8,0:3:0:0:
383,375,48741,1,4,0:3:0:0:
448,303,48899,1,4,0:3:0:0:
358,244,49057,2,0,L|366:208,3,35,4|4|4|4,3:0|0:3|0:3|0:3,0:0:0:0:
390,173,49373,2,0,L|382:137,3,35,0|4|4|4,3:0|0:3|0:3|0:3,0:0:0:0:
352,109,49689,5,4,3:2:0:0:
419,30,50004,1,0,3:0:0:0:
317,0,50320,1,0,3:0:0:0:
233,54,50636,1,0,3:0:0:0:
136,7,50952,1,0,3:0:0:0:
44,54,51268,1,0,3:0:0:0:
110,176,51583,6,0,P|165:165|228:157,1,112,2|2,3:0|3:0,0:0:0:0:
339,257,52215,6,0,P|284:298|222:285,1,125.999996154785,2|2,3:0|3:0,0:0:0:0:
220,157,52847,6,0,P|228:94|236:32,1,125.999996154785,2|8,3:0|3:2,0:0:0:0:
129,0,53320,1,4,3:2:0:0:
8,87,53636,5,8,0:0:0:0:
8,87,53794,2,0,P|39:81|85:73,1,62.9999980773926,8|8,3:2|0:0,0:0:0:0:
134,149,54110,1,8,3:2:0:0:
69,224,54268,1,8,3:2:0:0:
142,296,54426,1,8,3:2:0:0:
73,362,54583,1,8,3:2:0:0:
450,379,56004,6,0,P|457:343|467:310,1,70,6|0,3:2|0:0,0:0:0:0:
390,233,56320,2,0,P|320:221|268:272,1,140,8|0,0:0|3:0,0:0:0:0:
220,362,56794,1,0,3:0:0:0:
219,357,56952,2,0,P|187:348|145:341,1,70,8|2,0:0|0:0,0:0:0:0:
62,242,57268,6,0,P|94:229|128:235,1,70,2|0,3:2|0:0,0:0:0:0:
207,155,57583,2,0,P|200:85|193:15,1,140,8|0,0:0|3:0,0:0:0:0:
307,0,58057,1,0,3:0:0:0:
310,6,58215,2,0,P|302:48|296:78,1,70,8|0,0:0|0:0,0:0:0:0:
382,143,58531,2,0,P|416:135|450:129,1,70,0|0,3:0|0:0,0:0:0:0:
512,58,58847,1,8,0:0:0:0:
436,226,59162,6,0,P|439:257|442:295,1,70,2|0,3:2|3:0,0:0:0:0:
380,382,59478,1,10,0:0:0:0:
299,316,59636,2,0,P|236:325|160:338,1,140,2|2,0:0|0:0,0:0:0:0:
73,280,60110,1,8,0:0:0:0:
68,276,60268,2,0,P|65:236|86:205,1,70,2|0,0:0|3:0,0:0:0:0:
168,147,60583,1,2,3:2:0:0:
100,62,60741,1,8,0:0:0:0:
196,0,60899,6,0,P|264:-13|330:28,1,140,6|0,3:2|3:0,0:0:0:0:
390,109,61373,2,0,P|380:162|371:216,1,105,8|0,0:0|0:0,0:0:0:0:
351,235,61689,2,0,P|317:218|273:220,1,70,2|2,3:2|3:2,0:0:0:0:
188,272,62004,1,10,0:0:0:0:
260,356,62162,2,0,P|324:346|403:340,1,140,2|2,0:0|0:0,0:0:0:0:
500,288,62636,2,0,P|513:236|486:177,1,105,8|0,0:0|0:0,0:0:0:0:
484,161,62952,6,0,P|452:165|407:171,1,70,2|2,3:2|3:2,0:0:0:0:
336,252,63268,1,10,0:0:0:0:
263,166,63426,2,0,P|274:87|284:14,1,140,2|2,0:0|0:0,0:0:0:0:
171,3,63899,2,0,P|121:-10|74:10,1,105,8|0,0:0|0:0,0:0:0:0:
56,31,64215,6,0,P|67:70|77:114,1,70,2|2,3:2|3:2,0:0:0:0:
162,161,64531,1,10,0:0:0:0:
72,234,64689,2,0,P|44:225|-21:213,1,70,2|0,0:0|3:0,0:0:0:0:
107,326,65004,2,0,P|134:317|200:305,1,70,0|12,3:0|0:0,0:0:0:0:
253,237,65320,1,0,3:0:0:0:
333,322,65478,1,12,0:0:0:0:
333,322,65636,1,0,3:0:0:0:
251,384,65794,1,14,0:0:0:0:
419,275,66110,6,0,P|412:239|406:206,1,70,6|0,3:2|0:0,0:0:0:0:
319,148,66426,2,0,P|328:78|337:7,1,140,8|0,0:0|3:0,0:0:0:0:
226,23,66899,1,0,3:0:0:0:
220,23,67057,2,0,P|185:10|141:-2,1,70,10|2,0:0|0:0,0:0:0:0:
106,96,67373,6,0,P|114:133|122:180,1,70,0|0,3:0|0:0,0:0:0:0:
224,186,67689,2,0,P|262:247|225:325,1,140,8|0,0:0|3:0,0:0:0:0:
136,375,68162,1,0,3:0:0:0:
141,370,68320,2,0,P|147:336|161:289,1,70,8|0,0:0|0:0,0:0:0:0:
68,247,68636,2,0,P|33:253|0:262,1,70,0|0,3:0|0:0,0:0:0:0:
121,167,68952,1,8,0:0:0:0:
243,308,69268,6,0,P|293:300|325:295,1,70,2|2,3:2|3:2,0:0:0:0:
395,375,69583,1,10,0:0:0:0:
481,308,69741,2,0,P|493:235|505:157,1,140,2|2,0:0|0:0,0:0:0:0:
431,81,70215,1,8,0:0:0:0:
425,86,70373,2,0,P|391:89|345:97,1,70,2|0,0:0|3:0,0:0:0:0:
294,0,70689,1,2,3:2:0:0:
219,74,70847,1,8,0:0:0:0:
292,156,71004,6,0,P|234:127|165:152,1,140,6|0,3:2|3:0,0:0:0:0:
56,143,71478,2,0,P|62:191|72:255,1,105,8|0,0:0|0:0,0:0:0:0:
67,269,71794,2,0,P|34:257|0:251,1,70,2|2,3:2|3:2,0:0:0:0:
87,367,72110,1,10,0:0:0:0:
186,288,72268,2,0,P|175:218|166:149,1,140,2|2,0:0|0:0,0:0:0:0:
266,205,72741,2,0,P|316:211|392:219,1,105,8|0,0:0|0:0,0:0:0:0:
384,202,73057,6,0,P|375:162|368:129,1,70,2|2,3:2|3:2,0:0:0:0:
278,87,73373,1,10,0:0:0:0:
349,0,73531,2,0,L|192:19,1,140,2|2,0:0|0:0,0:0:0:0:
131,96,74004,2,0,P|88:69|19:89,1,105,8|0,0:0|0:0,0:0:0:0:
12,88,74320,6,0,P|21:127|26:159,1,70,2|2,3:2|3:2,0:0:0:0:
124,207,74636,1,10,0:0:0:0:
76,309,74794,2,0,P|126:299|160:295,1,70,2|0,0:0|3:0,0:0:0:0:
236,228,75110,2,0,P|286:237|320:242,1,70,0|12,3:0|0:0,0:0:0:0:
392,308,75426,2,0,P|442:298|476:294,1,70,0|12,3:0|0:0,0:0:0:0:
499,200,75741,1,0,3:0:0:0:
427,113,75899,1,8,0:0:0:0:
304,239,76215,5,6,3:2:0:0:
73,384,77004,5,2,3:2:0:0:
47,295,77320,1,6,3:2:0:0:
251,132,78268,5,2,3:2:0:0:
231,224,78584,1,6,3:2:0:0:
0,76,79531,5,2,3:2:0:0:
94,19,79847,2,0,P|149:10|203:44,1,105,4|0,3:2|0:0,0:0:0:0:
205,48,80162,1,0,3:0:0:0:
305,26,80320,2,0,L|289:116,1,70,8|0,0:0|0:0,0:0:0:0:
215,168,80636,1,8,0:0:0:0:
300,236,80794,1,8,0:0:0:0:
306,234,80873,1,8,0:0:0:0:
312,231,80952,2,0,L|360:223,3,35,8|8|8|8,3:2|0:0|0:0|0:0,0:0:0:0:
376,202,81268,6,0,P|417:208|449:214,1,70,8|8,3:2|0:3,0:0:0:0:
512,314,81583,2,0,P|477:299|440:306,1,70,8|8,3:0|0:3,0:0:0:0:
433,309,81820,1,8,0:3:0:0:
423,315,81899,1,4,3:0:0:0:
328,362,82057,6,0,P|293:357|239:352,1,70,8|8,0:0|3:0,0:0:0:0:
169,273,82373,2,0,P|178:200|191:113,1,140,8|8,0:0|0:3,0:0:0:0:
129,37,82847,2,0,L|204:22,1,70,8|8,3:0|0:3,0:0:0:0:
212,20,83083,1,8,0:3:0:0:
222,18,83162,1,4,3:0:0:0:
314,91,83320,6,0,P|346:76|389:81,1,70,8|8,0:0|3:0,0:0:0:0:
461,154,83636,2,0,B|492:201|492:201|446:308,1,140,8|8,3:2|0:3,0:0:0:0:
366,336,84110,2,0,P|341:319|293:325,1,70,8|8,3:0|0:3,0:0:0:0:
280,312,84347,1,8,0:3:0:0:
274,309,84426,1,8,3:0:0:0:
172,353,84583,6,0,P|178:312|183:284,1,70,8|8,0:0|3:0,0:0:0:0:
112,197,84899,2,0,P|89:137|132:70,1,140,8|8,0:0|0:0,0:0:0:0:
225,9,85373,2,0,P|220:41|214:81,1,70,8|8,0:0|0:3,0:0:0:0:
300,160,85689,2,0,P|340:144|386:150,1,70,8|8,0:0|0:3,0:0:0:0:
462,88,86004,1,8,0:0:0:0:
402,0,86162,1,4,3:2:0:0:
256,192,86241,12,0,90741,0:0:0:0:
