osu file format v14

[General]
AudioFilename: audio.mp3
AudioLeadIn: 0
PreviewTime: 55215
Countdown: 0
SampleSet: Soft
StackLeniency: 0.3
Mode: 0
LetterboxInBreaks: 0
WidescreenStoryboard: 0

[Editor]
DistanceSpacing: 1.1
BeatDivisor: 8
GridSize: 16
TimelineZoom: 4.599998

[Metadata]
Title:HIGHSCHOOL OF THE DEAD (TV Size)
TitleUnicode:HIGHSCHOOL OF THE DEAD (TV Size)
Artist:KISIDA KYODAN & THE AKEBOSI ROCKETS
ArtistUnicode:岸田教団&THE明星ロケッツ
Creator:Shocko
Version:EXTRA
Source:学園黙示録 HIGHSCHOOL OF THE DEAD
Tags:gakuen mokushiroku hotd hsotd high school ichigo kishida kyoudan and akeboshi anime op opening japanese rock j-rock female vocals
BeatmapID:2801031
BeatmapSetID:1349859

[Difficulty]
HPDrainRate:6
CircleSize:4.2
OverallDifficulty:8.5
ApproachRate:9.4
SliderMultiplier:1.6
SliderTickRate:1

[Events]
//Background and Video events
0,0,"ok.jpg",0,0
//Break Periods
2,24426,31373
//Storyboard Layer 0 (Background)
//Storyboard Layer 1 (Fail)
//Storyboard Layer 2 (Pass)
//Storyboard Layer 3 (Foreground)
//Storyboard Layer 4 (Overlay)
//Storyboard Sound Samples

[TimingPoints]
426,315.789473684211,4,2,1,70,1,0
426,-133.333333333333,4,2,1,45,0,0
662,-133.333333333333,4,2,1,5,0,0
741,-133.333333333333,4,2,1,45,0,0
978,-133.333333333333,4,2,1,5,0,0
1057,-133.333333333333,4,2,1,45,0,0
1294,-133.333333333333,4,2,1,5,0,0
1373,-133.333333333333,4,2,1,45,0,0
1689,-133.333333333333,4,2,1,45,0,0
2952,-66.6666666666667,4,2,1,45,0,0
2991,-66.6666666666667,4,2,1,15,0,0
3110,-66.6666666666667,4,2,1,45,0,0
3149,-66.6666666666667,4,2,1,15,0,0
3268,-66.6666666666667,4,2,1,45,0,0
3307,-66.6666666666667,4,2,1,15,0,0
3426,-100,4,2,1,45,0,0
4215,-66.6666666666667,4,2,1,45,0,0
4610,-66.6666666666667,4,2,1,5,0,0
4689,-100,4,2,1,45,0,0
5162,-111.111111111111,4,2,1,45,0,0
6268,-66.6666666666667,4,2,1,45,0,0
6426,-111.111111111111,4,2,1,45,0,0
7847,-71.4285714285714,4,2,1,45,0,0
7926,-71.4285714285714,4,2,1,5,0,0
8478,-166.666666666667,4,2,1,45,0,0
10373,-100,4,2,1,70,0,0
11794,-133.333333333333,4,2,1,45,0,0
12031,-133.333333333333,4,2,1,5,0,0
12110,-133.333333333333,4,2,1,45,0,0
12347,-133.333333333333,4,2,1,5,0,0
12426,-133.333333333333,4,2,1,45,0,0
12662,-133.333333333333,4,2,1,5,0,0
12741,-133.333333333333,4,2,1,45,0,0
12978,-133.333333333333,4,2,1,5,0,0
13057,-133.333333333333,4,2,1,50,0,0
14162,-100,4,2,1,70,0,0
24426,-133.333333333333,4,2,1,70,0,0
32004,-166.666666666667,4,2,1,40,0,0
32241,-166.666666666667,4,2,1,5,0,0
32320,-166.666666666667,4,2,1,40,0,0
32557,-166.666666666667,4,2,1,5,0,0
32636,-125,4,2,1,50,0,0
32873,-125,4,2,1,5,0,0
32952,-125,4,2,1,50,0,0
33189,-125,4,2,1,5,0,0
33268,-100,4,2,1,60,0,0
33504,-100,4,2,1,5,0,0
33583,-100,4,2,1,60,0,0
33820,-100,4,2,1,5,0,0
33899,-100,4,2,1,60,0,0
34136,-100,4,2,1,5,0,0
34215,-100,4,2,1,60,0,0
43215,-66.6666666666667,4,2,1,60,0,0
43294,-66.6666666666667,4,2,1,5,0,0
43689,-66.6666666666667,4,2,1,60,0,0
43768,-66.6666666666667,4,2,1,5,0,0
44162,-66.6666666666667,4,2,1,60,0,0
44241,-66.6666666666667,4,2,1,5,0,0
44636,-100,4,2,1,70,0,0
47636,-83.3333333333333,4,2,1,70,0,0
49373,-71.4285714285714,4,2,1,70,0,0
49689,-133.333333333333,4,2,1,70,0,0
49926,-133.333333333333,4,2,1,5,0,0
50004,-133.333333333333,4,2,1,40,0,0
50241,-133.333333333333,4,2,1,5,0,0
50320,-133.333333333333,4,2,1,40,0,0
50557,-133.333333333333,4,2,1,5,0,0
50636,-133.333333333333,4,2,1,40,0,0
50873,-133.333333333333,4,2,1,5,0,0
50952,-133.333333333333,4,2,1,50,0,0
51189,-133.333333333333,4,2,1,5,0,0
51268,-133.333333333333,4,2,1,50,0,0
51504,-133.333333333333,4,2,1,5,0,0
51583,-133.333333333333,4,2,1,50,0,0
51820,-133.333333333333,4,2,1,5,0,0
51899,-133.333333333333,4,2,1,60,0,0
52136,-133.333333333333,4,2,1,5,0,0
52215,-111.111111111111,4,2,1,60,0,0
52452,-111.111111111111,4,2,1,5,0,0
52531,-90.9090909090909,4,2,1,70,0,0
52768,-90.9090909090909,4,2,1,5,0,0
52847,-83.3333333333333,4,2,1,70,0,0
53083,-83.3333333333333,4,2,1,5,0,0
53162,-83.3333333333333,4,2,1,70,0,0
53636,-83.3333333333333,4,2,1,50,0,0
53794,-83.3333333333333,4,2,1,60,0,0
54110,-83.3333333333333,4,2,1,70,0,0
55373,-666.666666666667,4,2,1,40,0,0
55926,-666.666666666667,4,2,1,5,0,0
56004,-90.9090909090909,4,2,1,70,0,0
76215,-66.6666666666667,4,2,1,70,0,0
76294,-66.6666666666667,4,2,1,5,0,0
77004,-100,4,2,1,70,0,0
77241,-100,4,2,1,5,0,0
77320,-66.6666666666667,4,2,1,70,0,0
77399,-66.6666666666667,4,2,1,5,0,0
78268,-100,4,2,1,70,0,0
78504,-100,4,2,1,5,0,0
78583,-66.6666666666667,4,2,1,70,0,0
78662,-66.6666666666667,4,2,1,5,0,0
79531,-100,4,2,1,70,0,0
79768,-100,4,2,1,5,0,0
79847,-83.3333333333333,4,2,1,70,0,0
80083,-83.3333333333333,4,2,1,5,0,0
80162,-83.3333333333333,4,2,1,70,0,0
86636,-83.3333333333333,4,2,1,50,0,0
87583,-83.3333333333333,4,2,1,30,0,0
89162,-83.3333333333333,4,2,1,15,0,0
90741,-83.3333333333333,4,2,1,5,0,0

[Colours]
Combo1 : 210,255,210
Combo2 : 255,255,196
Combo3 : 213,213,234
Combo4 : 204,255,255

[HitObjects]
16,350,426,6,0,P|49:327|104:334,1,90.0000034332277,2|0,0:3|0:0,0:0:0:0:
189,375,741,2,0,P|199:329|212:265,1,90.0000034332277,2|0,0:3|0:0,0:0:0:0:
157,203,1057,2,0,P|111:212|44:228,1,90.0000034332277,2|0,0:3|0:0,0:0:0:0:
0,156,1373,1,2,0:3:0:0:
333,183,1531,5,8,0:0:0:0:
324,189,1610,1,8,0:0:0:0:
316,194,1689,2,0,B|245:81|381:-34|485:32|485:32|497:101|414:111,1,420.000016021729,4|2,3:2|0:0,0:0:0:0:
372,40,2873,5,2,0:0:0:0:
370,35,2952,2,0,L|375:5,10,30.0000011444092,2|0|0|0|2|0|0|0|2|0|0,0:1|0:0|0:1|0:0|0:1|0:0|0:1|0:0|0:1|0:0|0:1,0:0:0:0:
286,101,3426,2,0,B|197:87|197:87|181:126|126:121,1,160,2|2,0:0|0:0,0:0:0:0:
20,329,3899,5,2,0:0:0:0:
17,327,3978,1,2,0:0:0:0:
15,324,4057,1,2,0:0:0:0:
12,321,4136,1,2,0:0:0:0:
9,318,4215,2,0,B|45:146|45:146|13:165|-24:172|-24:172|2:183|8:221,1,300.000011444092,2|0,3:1|0:0,0:0:0:0:
124,266,4689,6,0,L|155:258,10,20,2|0|0|0|0|0|0|0|0|0|0,0:0|0:0|0:0|0:0|0:0|0:0|0:0|0:0|0:0|0:0|0:0,0:0:0:0:
236,298,5162,6,0,L|229:333,1,35.9999989013672,2|0,0:0|0:0,0:0:0:0:
320,383,5320,2,0,P|376:338|451:357,1,143.999995605469,2|2,0:0|0:0,0:0:0:0:
512,269,5794,1,2,0:0:0:0:
446,198,5952,2,0,L|339:216,1,107.999996704102,2|0,0:0|0:0,0:0:0:0:
244,157,6268,6,0,B|228:156|228:156|250:134|272:166,1,60.0000022888184,2|2,0:0|0:0,0:0:0:0:
375,111,6426,6,0,P|388:80|368:34,1,71.9999978027344,2|8,0:0|0:0,0:0:0:0:
297,0,6662,1,8,0:0:0:0:
288,6,6741,1,10,3:2:0:0:
213,374,7847,6,0,L|154:366,1,55.9999982910157,2|0,3:2|0:0,0:0:0:0:
0,183,8478,6,0,P|45:140|122:151,1,143.999995605469,2|2,3:2|0:3,0:0:0:0:
214,12,9110,5,8,0:0:0:0:
210,24,9189,1,8,0:0:0:0:
207,36,9268,1,8,3:2:0:0:
407,375,10215,1,2,0:0:0:0:
402,371,10294,1,2,0:0:0:0:
397,368,10373,6,0,P|390:285|385:201,1,160,6|2,3:2|3:2,0:0:0:0:
510,277,10847,1,8,0:0:0:0:
255,369,11004,6,0,P|208:339|150:358,1,120,6|0,3:2|0:0,0:0:0:0:
66,320,11320,1,2,3:2:0:0:
326,89,11478,1,10,0:0:0:0:
326,89,11794,6,0,P|320:46|315:-2,1,90.0000034332277,2|0,0:3|0:0,0:0:0:0:
220,86,12110,2,0,P|206:127|221:169,1,90.0000034332277,2|0,0:3|0:0,0:0:0:0:
345,248,12426,2,0,P|300:254|257:265,1,90.0000034332277,2|0,0:3|0:0,0:0:0:0:
158,324,12741,2,0,P|114:312|70:306,1,90.0000034332277,2|0,0:3|0:0,0:0:0:0:
0,148,13057,5,8,3:2:0:0:
28,125,13136,1,8,0:3:0:0:
68,121,13215,1,4,0:3:0:0:
103,146,13294,1,4,0:3:0:0:
108,162,13373,2,0,L|97:201,1,30.0000011444092,4|4,0:3|0:3,0:0:0:0:
234,354,13531,5,8,3:2:0:0:
272,370,13610,1,8,0:3:0:0:
317,362,13689,1,4,0:3:0:0:
348,334,13768,1,4,0:3:0:0:
351,298,13847,1,4,0:3:0:0:
341,282,13926,1,4,0:3:0:0:
328,274,14004,2,0,L|300:282,1,30.0000011444092,4|4,0:3|0:3,0:0:0:0:
210,158,14162,6,0,P|219:80|229:-3,1,160,6|0,3:2|3:0,0:0:0:0:
327,53,14636,1,10,0:0:0:0:
116,112,14794,1,2,0:0:0:0:
327,53,14952,2,0,P|375:64|406:72,1,80,2|0,3:2|3:0,0:0:0:0:
446,289,15268,1,8,0:0:0:0:
512,195,15426,6,0,P|451:205|391:214,1,120,2|0,3:2|0:0,0:0:0:0:
327,271,15741,1,2,3:2:0:0:
242,92,15899,1,10,0:0:0:0:
416,55,16057,1,2,0:0:0:0:
281,181,16215,2,0,P|237:176|199:173,1,80,2|0,3:2|3:0,0:0:0:0:
0,376,16531,2,0,L|42:367,1,40,8|0,0:0|0:0,0:0:0:0:
86,287,16689,6,0,P|94:198|101:127,1,160,6|0,3:2|3:0,0:0:0:0:
276,6,17162,1,8,0:0:0:0:
361,80,17320,2,0,B|438:61|442:125|516:112,1,160,2|0,0:0|3:0,0:0:0:0:
373,255,17794,1,8,0:0:0:0:
258,186,17952,6,0,P|262:146|268:106,1,80,2|0,3:2|0:0,0:0:0:0:
162,267,18268,2,0,P|120:266|83:234,1,80,2|8,3:2|0:0,0:0:0:0:
316,376,18583,2,0,P|358:367|413:363,1,80,2|0,0:0|3:0,0:0:0:0:
443,273,18899,1,0,3:0:0:0:
213,371,19057,1,8,0:0:0:0:
443,273,19215,6,0,P|451:207|458:141,1,120,4|0,3:2|0:0,0:0:0:0:
388,78,19531,1,2,3:2:0:0:
512,42,19689,1,10,0:0:0:0:
355,191,19847,1,2,0:0:0:0:
194,70,20004,2,0,P|201:109|207:148,1,80,2|0,3:2|3:0,0:0:0:0:
93,203,20320,1,8,0:0:0:0:
217,365,20478,6,0,P|167:332|109:341,1,120,2|0,3:2|0:0,0:0:0:0:
15,320,20794,1,2,3:2:0:0:
207,148,20952,1,10,0:0:0:0:
91,108,21110,1,2,0:0:0:0:
290,294,21268,2,0,P|296:254|305:215,1,80,2|0,3:2|3:0,0:0:0:0:
144,240,21583,1,10,0:0:0:0:
394,369,21741,6,0,P|437:329|499:329,1,120,6|0,3:2|0:0,0:0:0:0:
512,239,22057,1,2,3:2:0:0:
321,97,22215,2,0,B|205:115|205:115|227:100|231:80,1,160,10|0,0:0|3:0,0:0:0:0:
123,3,22689,1,0,3:0:0:0:
123,3,22847,1,10,0:0:0:0:
0,189,23004,6,0,P|9:257|15:311,1,120,6|0,3:2|0:0,0:0:0:0:
92,381,23320,1,2,3:2:0:0:
268,314,23478,2,0,P|232:297|188:304,1,80,8|0,0:0|3:3,0:0:0:0:
132,236,23715,1,0,3:3:0:0:
128,226,23794,5,8,3:2:0:0:
223,3,23952,1,8,3:2:0:0:
396,5,32004,6,0,P|400:44|404:76,1,71.9999978027344,0|0,3:0|0:0,0:0:0:0:
485,143,32320,2,0,P|497:109|487:75,1,71.9999978027344,0|0,3:0|0:0,0:0:0:0:
335,165,32636,6,0,P|285:155|238:149,1,96,0|0,3:0|0:0,0:0:0:0:
130,71,32952,2,0,P|168:42|223:55,1,96,0|0,3:0|0:0,0:0:0:0:
241,150,33268,6,0,P|230:203|223:275,1,120,0|0,3:0|0:0,0:0:0:0:
127,363,33583,2,0,P|82:326|18:352,1,120,0|0,3:0|0:0,0:0:0:0:
223,268,33899,2,0,P|282:281|345:291,1,120,0|0,3:0|0:0,0:0:0:0:
440,184,34215,6,0,L|438:164,1,20,8|8,3:2|3:2,0:0:0:0:
0,109,34531,5,6,3:2:0:0:
105,0,34689,2,0,P|100:41|96:79,1,80,2|8,0:0|0:0,0:0:0:0:
250,139,35004,1,8,0:3:0:0:
257,136,35083,1,8,0:3:0:0:
263,133,35162,1,4,3:0:0:0:
357,229,35320,1,4,0:3:0:0:
219,304,35478,2,0,P|183:287|144:294,1,80,8|8,0:0|0:3,0:0:0:0:
41,238,35715,5,8,0:3:0:0:
46,243,35794,2,0,L|59:337,1,80,4|4,3:0|0:3,0:0:0:0:
310,325,36110,1,8,0:0:0:0:
169,381,36268,1,8,0:3:0:0:
161,378,36347,1,8,0:3:0:0:
154,376,36426,1,4,3:0:0:0:
222,224,36583,1,4,0:3:0:0:
388,384,36741,2,0,P|440:374|472:371,1,80,8|8,0:0|0:3,0:0:0:0:
509,296,36978,5,8,0:3:0:0:
512,289,37057,1,4,3:0:0:0:
372,109,37215,2,0,P|357:141|372:192,1,80,4|8,0:3|0:0,0:0:0:0:
471,143,37531,1,8,0:3:0:0:
278,239,37689,1,4,3:0:0:0:
471,143,37847,2,0,P|467:100|465:60,1,80,4|8,0:3|0:0,0:0:0:0:
383,0,38162,1,8,0:3:0:0:
198,178,38320,5,4,3:0:0:0:
81,104,38478,2,0,P|129:96|176:90,1,80,4|8,0:3|0:0,0:0:0:0:
258,0,38794,1,8,0:3:0:0:
261,6,38873,1,8,0:3:0:0:
264,13,38952,1,4,3:0:0:0:
160,91,39110,1,4,0:3:0:0:
296,213,39268,2,0,P|289:262|284:298,1,80,8|8,0:0|0:3,0:0:0:0:
208,332,39504,5,8,0:3:0:0:
203,337,39583,1,4,3:0:0:0:
402,377,39741,2,0,P|438:356|492:363,1,80,4|8,0:3|0:0,0:0:0:0:
376,261,40057,1,8,0:3:0:0:
377,255,40136,1,8,0:3:0:0:
378,249,40215,1,4,3:3:0:0:
512,96,40373,1,4,0:3:0:0:
423,0,40531,2,0,L|432:82,1,80,8|8,0:0|0:3,0:0:0:0:
354,135,40768,5,8,0:3:0:0:
346,132,40847,1,4,3:0:0:0:
156,12,41004,2,0,L|238:0,1,80,4|8,0:3|0:0,0:0:0:0:
261,114,41320,1,8,0:3:0:0:
259,120,41399,1,8,0:3:0:0:
257,127,41478,1,4,3:0:0:0:
169,241,41636,1,4,0:3:0:0:
17,134,41794,2,0,P|29:177|38:227,1,80,8|8,0:0|0:3,0:0:0:0:
14,295,42031,5,8,0:3:0:0:
9,302,42110,1,4,3:0:0:0:
292,318,42268,2,0,P|254:293|212:302,1,80,4|8,0:3|0:0,0:0:0:0:
138,363,42583,1,8,0:3:0:0:
141,370,42662,1,8,0:3:0:0:
144,377,42741,1,4,3:0:0:0:
292,318,42899,1,4,0:3:0:0:
74,184,43057,1,8,0:0:0:0:
322,109,43215,6,0,B|351:112|380:120,1,60.0000022888184,6|0,3:2|0:0,0:0:0:0:
177,59,43689,6,0,P|179:29|185:-1,1,60.0000022888184,6|0,3:2|0:0,0:0:0:0:
74,184,44162,6,0,P|44:191|16:196,1,60.0000022888184,6|0,3:2|0:0,0:0:0:0:
273,368,44636,6,0,P|314:336|380:343,1,120,6|0,3:2|0:0,0:0:0:0:
465,302,44952,2,0,P|457:346|451:384,1,80,10|2,0:0|0:0,0:0:0:0:
234,199,45268,1,2,3:2:0:0:
343,112,45426,2,0,P|389:130|424:124,1,80,10|0,0:0|3:0,0:0:0:0:
504,81,45662,5,0,0:0:0:0:
508,73,45741,2,0,L|496:-8,1,80,10|0,0:0|3:0,0:0:0:0:
224,93,46057,1,10,0:0:0:0:
320,198,46215,2,0,P|314:236|308:286,1,80,8|8,3:2|0:0,0:0:0:0:
244,334,46452,1,8,0:0:0:0:
247,344,46531,1,8,0:3:0:0:
0,364,46689,1,8,0:0:0:0:
1,357,46768,1,8,0:0:0:0:
4,350,46847,2,0,P|36:333|81:333,1,80,8|0,3:2|0:0,0:0:0:0:
147,260,47083,5,8,0:0:0:0:
143,241,47162,1,8,0:0:0:0:
140,218,47241,1,8,0:0:0:0:
136,201,47320,1,8,0:3:0:0:
133,183,47399,1,8,0:3:0:0:
147,163,47478,2,0,L|196:177,1,40,4|4,0:3|0:3,0:0:0:0:
417,25,47636,5,8,0:0:0:0:
377,10,47715,1,8,0:0:0:0:
337,23,47794,1,4,0:3:0:0:
308,55,47873,1,4,0:3:0:0:
279,86,47952,1,8,0:3:0:0:
236,90,48031,1,8,0:3:0:0:
199,72,48110,2,0,L|210:18,1,47.9999985351563,8|0,0:0|0:0,0:0:0:0:
337,170,48268,5,4,0:3:0:0:
342,173,48347,1,4,0:3:0:0:
347,177,48426,2,0,L|357:226,1,47.9999985351563,4|0,0:3|0:0,0:0:0:0:
392,351,48583,5,8,0:0:0:0:
430,372,48662,1,8,0:3:0:0:
479,367,48741,1,4,0:3:0:0:
510,338,48820,1,4,0:3:0:0:
512,302,48899,1,4,0:3:0:0:
500,284,48978,1,4,0:3:0:0:
486,278,49057,2,0,L|439:292,1,47.9999985351563,4|4,3:0|0:3,0:0:0:0:
285,348,49215,2,0,L|236:340,1,47.9999985351563,4|0,0:3|0:0,0:0:0:0:
132,236,49373,6,0,P|139:184|152:96,1,111.999996582031,0|4,3:0|0:3,0:0:0:0:
65,27,49610,1,4,0:3:0:0:
59,29,49689,6,0,P|36:66|48:112,1,90.0000034332277,4|0,3:2|0:0,0:0:0:0:
147,125,50004,2,0,P|194:116|236:112,1,90.0000034332277,0|0,3:0|0:0,0:0:0:0:
318,258,50320,2,0,P|277:240|235:252,1,90.0000034332277,0|0,3:0|0:0,0:0:0:0:
132,236,50636,2,0,P|142:288|149:327,1,90.0000034332277,0|0,3:0|0:0,0:0:0:0:
326,376,50952,6,0,P|376:368|424:362,1,90.0000034332277,0|0,3:0|0:0,0:0:0:0:
512,275,51268,2,0,P|467:265|423:256,1,90.0000034332277,0|0,3:0|0:0,0:0:0:0:
346,182,51583,2,0,P|326:143|344:98,1,90.0000034332277,2|0,3:0|0:0,0:0:0:0:
480,8,51899,2,0,P|469:51|462:96,1,90.0000034332277,2|0,3:0|0:0,0:0:0:0:
341,102,52215,6,0,P|305:70|235:81,1,107.999996704102,2|0,3:0|0:0,0:0:0:0:
113,4,52531,6,0,P|122:56|135:142,1,132.00000402832,2|0,3:0|0:0,0:0:0:0:
23,231,52847,6,0,P|-14:190|10:106,1,143.999995605469,2|0,3:0|0:0,0:0:0:0:
134,135,53162,1,8,3:2:0:0:
11,353,53320,1,4,3:2:0:0:
94,384,53636,5,8,0:0:0:0:
243,304,53794,1,8,3:2:0:0:
216,208,53952,1,8,0:0:0:0:
438,147,54110,1,8,3:2:0:0:
390,359,54268,1,8,3:2:0:0:
441,140,54426,1,8,3:2:0:0:
388,369,54583,1,8,3:2:0:0:
195,34,55373,6,0,L|150:26,1,41.9999987182618,2|0,0:0|0:0,0:0:0:0:
0,127,56004,6,0,P|-14:64|30:15,1,132.00000402832,6|0,3:2|0:0,0:0:0:0:
96,94,56320,2,0,P|83:138|74:183,1,88.000002685547,8|0,0:0|0:0,0:0:0:0:
90,384,56636,1,0,3:0:0:0:
192,343,56794,1,0,3:0:0:0:
296,375,56952,1,8,0:0:0:0:
184,184,57110,1,2,0:0:0:0:
296,375,57268,6,0,P|347:330|416:342,1,132.00000402832,2|0,3:2|0:0,0:0:0:0:
499,379,57583,2,0,P|502:353|513:290,1,88.000002685547,8|0,0:0|0:0,0:0:0:0:
295,218,57899,1,0,3:0:0:0:
388,117,58057,1,0,3:0:0:0:
251,13,58215,2,0,P|208:5|167:21,1,88.000002685547,8|0,0:0|0:0,0:0:0:0:
295,218,58531,2,0,P|338:209|381:204,1,88.000002685547,0|0,3:0|0:0,0:0:0:0:
508,118,58847,2,0,P|532:64|493:6,1,132.00000402832,8|0,0:0|0:0,0:0:0:0:
390,0,59162,6,0,P|402:55|406:95,1,88.000002685547,2|0,3:2|3:0,0:0:0:0:
207,236,59478,1,10,0:0:0:0:
134,145,59636,2,0,P|173:124|217:132,1,88.000002685547,2|0,0:0|3:0,0:0:0:0:
348,291,59952,2,0,P|358:248|368:205,1,88.000002685547,2|8,0:0|0:0,0:0:0:0:
182,377,60268,2,0,P|143:365|97:359,1,88.000002685547,2|0,0:0|3:0,0:0:0:0:
2,161,60583,1,2,3:2:0:0:
185,4,60741,1,8,0:0:0:0:
2,161,60899,6,0,P|11:245|22:337,1,176.000005371094,6|0,3:2|3:0,0:0:0:0:
230,252,61373,2,0,P|258:181|219:131,1,132.00000402832,8|0,0:0|0:0,0:0:0:0:
135,104,61689,5,2,3:2:0:0:
304,58,61847,1,2,3:2:0:0:
178,0,62004,1,10,0:0:0:0:
349,174,62162,2,0,P|339:228|335:264,1,88.000002685547,2|0,0:0|3:0,0:0:0:0:
224,274,62478,1,2,0:0:0:0:
497,364,62636,2,0,P|453:326|377:345,1,132.00000402832,8|0,0:0|0:0,0:0:0:0:
292,382,62952,5,2,3:2:0:0:
465,239,63110,1,2,3:2:0:0:
316,72,63268,1,10,0:0:0:0:
213,177,63426,2,0,P|206:132|198:88,1,88.000002685547,2|0,0:0|3:0,0:0:0:0:
370,224,63741,1,2,0:0:0:0:
206,370,63899,2,0,P|148:362|75:358,1,132.00000402832,8|0,0:0|0:0,0:0:0:0:
0,300,64215,5,2,3:2:0:0:
83,37,64373,1,2,3:2:0:0:
29,173,64531,2,0,P|75:133|147:143,1,132.00000402832,10|0,0:0|0:0,0:0:0:0:
293,110,64847,5,0,3:0:0:0:
252,8,65004,1,0,3:0:0:0:
238,189,65162,5,12,0:0:0:0:
461,108,65320,1,0,3:0:0:0:
143,140,65478,5,12,0:0:0:0:
288,384,65636,1,0,3:0:0:0:
512,234,65794,2,0,P|466:197|393:222,1,132.00000402832,14|0,0:0|0:0,0:0:0:0:
312,134,66110,6,0,P|321:198|326:241,1,88.000002685547,6|0,3:2|0:0,0:0:0:0:
167,367,66426,2,0,B|88:379|88:312|-4:334,1,176.000005371094,8|0,0:0|3:0,0:0:0:0:
54,84,66899,1,0,3:0:0:0:
130,164,67057,2,0,P|173:150|218:139,1,88.000002685547,10|2,0:0|0:0,0:0:0:0:
464,0,67373,6,0,P|455:72|446:134,1,132.00000402832,0|0,3:0|0:0,0:0:0:0:
358,187,67689,2,0,B|336:146|336:146|356:103,1,88.000002685547,8|0,0:0|0:0,0:0:0:0:
502,306,68004,1,0,3:0:0:0:
321,371,68162,1,0,3:0:0:0:
502,306,68320,2,0,P|506:271|514:214,1,88.000002685547,8|0,0:0|0:0,0:0:0:0:
231,381,68636,6,0,P|188:347|103:370,1,132.00000402832,0|0,3:0|0:0,0:0:0:0:
20,317,68952,2,0,P|6:281|29:233,1,88.000002685547,8|0,0:0|0:0,0:0:0:0:
225,51,69268,1,2,3:2:0:0:
106,10,69426,1,2,3:2:0:0:
161,221,69583,1,10,0:0:0:0:
336,95,69741,6,0,P|328:55|320:8,1,88.000002685547,2|0,0:0|3:0,0:0:0:0:
130,133,70057,2,0,P|88:137|43:113,1,88.000002685547,2|8,0:0|0:0,0:0:0:0:
250,286,70373,2,0,P|260:235|268:195,1,88.000002685547,2|0,0:0|3:0,0:0:0:0:
353,308,70689,1,2,3:2:0:0:
93,380,70847,1,8,0:0:0:0:
353,308,71004,6,0,B|466:340|466:340|481:315|525:301,1,176.000005371094,6|0,3:2|3:0,0:0:0:0:
421,0,71478,2,0,P|431:65|441:130,1,132.00000402832,8|0,0:0|0:0,0:0:0:0:
350,172,71794,5,2,3:2:0:0:
267,122,71952,1,2,3:2:0:0:
421,0,72110,1,10,0:0:0:0:
176,168,72268,2,0,P|170:128|159:78,1,88.000002685547,2|0,0:0|3:0,0:0:0:0:
290,16,72583,1,2,0:0:0:0:
117,253,72741,2,0,P|64:269|-6:221,1,132.00000402832,8|0,0:0|0:0,0:0:0:0:
0,139,73057,5,2,3:2:0:0:
228,279,73215,1,2,3:2:0:0:
125,367,73373,1,10,0:0:0:0:
331,265,73531,2,0,P|335:234|346:177,1,88.000002685547,2|0,0:0|3:0,0:0:0:0:
244,131,73847,1,2,0:0:0:0:
512,344,74004,2,0,P|461:306|382:330,1,132.00000402832,8|0,0:0|0:0,0:0:0:0:
294,373,74320,5,2,3:2:0:0:
439,203,74478,1,2,3:2:0:0:
221,0,74636,2,0,P|233:62|244:136,1,132.00000402832,10|0,0:0|0:0,0:0:0:0:
330,83,74952,5,0,3:0:0:0:
173,200,75110,1,0,3:0:0:0:
289,231,75268,5,12,0:0:0:0:
44,101,75426,1,0,3:0:0:0:
210,354,75583,5,12,0:0:0:0:
507,155,75741,1,0,3:0:0:0:
400,113,75899,2,0,L|405:141,1,22.0000006713867,8|8,0:0|0:0,0:0:0:0:
461,324,76215,6,0,B|509:312|509:312|501:320,1,60.0000022888184,6|0,3:2|0:0,0:0:0:0:
22,370,77004,6,0,P|-15:316|8:258,1,120,2|0,3:2|0:0,0:0:0:0:
72,198,77320,6,0,B|91:199|102:212|102:212|91:206|72:208,1,60.0000022888184,6|0,3:2|0:0,0:0:0:0:
495,165,78268,6,0,P|524:118|497:51,1,120,2|0,3:2|0:0,0:0:0:0:
411,27,78583,6,0,P|402:7|416:20,1,60.0000022888184,6|0,3:2|0:0,0:0:0:0:
86,365,79531,6,0,P|150:353|224:345,1,120,2|0,3:2|0:0,0:0:0:0:
334,276,79847,6,0,P|289:231|213:246,1,143.999995605469,4|0,3:2|0:0,0:0:0:0:
204,346,80162,1,0,3:0:0:0:
415,383,80320,2,0,P|461:373|509:366,1,95.9999970703126,8|0,0:0|0:0,0:0:0:0:
410,222,80636,1,8,0:0:0:0:
504,69,80794,5,8,0:0:0:0:
508,59,80873,1,8,0:0:0:0:
512,50,80952,1,8,3:2:0:0:
491,10,81031,1,8,0:0:0:0:
443,0,81110,1,8,0:0:0:0:
400,22,81189,1,8,0:0:0:0:
378,56,81268,6,0,P|384:84|388:102,1,47.9999985351563,8|0,3:2|0:0,0:0:0:0:
278,188,81426,2,0,P|250:182|232:178,1,47.9999985351563,8|0,0:3|0:0,0:0:0:0:
172,39,81583,1,8,3:0:0:0:
173,33,81662,1,8,0:3:0:0:
175,27,81741,1,8,0:3:0:0:
177,20,81820,1,8,0:3:0:0:
168,11,81899,6,0,L|120:19,1,47.9999985351563,4|0,3:0|0:0,0:0:0:0:
1,146,82057,2,0,P|5:169|9:193,3,47.9999985351563,8|8|8|8,0:0|0:3|3:0|0:3,0:0:0:0:
102,322,82373,5,8,0:0:0:0:
108,323,82452,1,8,0:3:0:0:
115,324,82531,2,0,L|161:314,1,47.9999985351563,8|0,3:0|0:0,0:0:0:0:
288,374,82689,2,0,P|319:380|334:384,1,47.9999985351563,8|0,0:3|0:0,0:0:0:0:
470,313,82847,1,8,3:0:0:0:
476,310,82925,1,8,0:3:0:0:
481,308,83004,1,8,0:3:0:0:
487,305,83083,1,8,0:3:0:0:
492,293,83162,6,0,P|485:264|481:246,1,47.9999985351563,4|8,3:0|0:3,0:0:0:0:
328,185,83320,2,0,P|306:190|281:196,3,47.9999985351563,8|8|8|8,0:0|0:3|3:0|0:3,0:0:0:0:
500,6,83636,5,8,3:2:0:0:
506,3,83715,1,8,0:3:0:0:
512,2,83794,2,0,L|502:51,1,47.9999985351563,8|0,3:0|0:0,0:0:0:0:
399,124,83952,2,0,L|350:115,1,47.9999985351563,8|0,0:3|0:0,0:0:0:0:
206,41,84110,1,8,3:0:0:0:
209,33,84189,1,8,0:3:0:0:
211,26,84268,1,8,0:3:0:0:
213,19,84347,1,8,0:3:0:0:
204,7,84426,6,0,L|157:15,1,47.9999985351563,8|0,3:0|0:0,0:0:0:0:
25,108,84583,2,0,P|31:134|38:168,3,47.9999985351563,8|8|8|8,0:0|0:3|3:0|0:3,0:0:0:0:
169,233,84899,2,0,L|215:221,3,47.9999985351563,8|8|8|8,0:0|0:3|0:3|0:3,0:0:0:0:
46,321,85215,2,0,L|-7:310,1,47.9999985351563,8|0,0:0|0:0,0:0:0:0:
218,372,85373,5,8,0:0:0:0:
236,363,85452,1,8,0:3:0:0:
255,355,85531,1,8,0:3:0:0:
276,346,85610,1,8,0:3:0:0:
294,338,85689,2,0,P|367:349|442:359,1,143.999995605469,8|0,0:0|0:0,0:0:0:0:
507,312,86004,5,8,0:0:0:0:
436,57,86162,1,4,3:2:0:0:
256,192,86241,12,0,90741,0:0:0:0:
