osu file format v14

[General]
AudioFilename: audio.mp3
AudioLeadIn: 0
PreviewTime: 55215
Countdown: 0
SampleSet: Soft
StackLeniency: 0.7
Mode: 0
LetterboxInBreaks: 0
WidescreenStoryboard: 1

[Editor]
DistanceSpacing: 1
BeatDivisor: 4
GridSize: 16
TimelineZoom: 4.599998

[Metadata]
Title:HIGHSCHOOL OF THE DEAD (TV Size)
TitleUnicode:HIGHSCHOOL OF THE DEAD (TV Size)
Artist:KISIDA KYODAN & THE AKEBOSI ROCKETS
ArtistUnicode:岸田教団&THE明星ロケッツ
Creator:Shocko
Version:EASY
Source:学園黙示録 HIGHSCHOOL OF THE DEAD
Tags:gakuen mokushiroku hotd hsotd high school ichigo kishida kyoudan and akeboshi anime op opening japanese rock j-rock female vocals
BeatmapID:2801030
BeatmapSetID:1349859

[Difficulty]
HPDrainRate:3
CircleSize:2.5
OverallDifficulty:3
ApproachRate:4
SliderMultiplier:0.9
SliderTickRate:1

[Events]
//Background and Video events
0,0,"ok.jpg",0,0
//Break Periods
2,24426,30426
//Storyboard Layer 0 (Background)
//Storyboard Layer 1 (Fail)
//Storyboard Layer 2 (Pass)
//Storyboard Layer 3 (Foreground)
//Storyboard Layer 4 (Overlay)
//Storyboard Sound Samples

[TimingPoints]
426,315.789473684211,4,2,1,70,1,0
1689,-100,4,2,1,45,0,0
10373,-100,4,2,1,70,0,0
13057,-100,4,2,1,50,0,0
14162,-100,4,2,1,70,0,0
32004,-100,4,2,1,40,0,0
32636,-100,4,2,1,50,0,0
33268,-100,4,2,1,60,0,0
43689,-100,4,2,1,60,0,0
44162,-100,4,2,1,60,0,0
44636,-100,4,2,1,70,0,0
50004,-100,4,2,1,40,0,0
50952,-100,4,2,1,50,0,0
51899,-100,4,2,1,60,0,0
52531,-100,4,2,1,70,0,0
53636,-100,4,2,1,50,0,0
53794,-100,4,2,1,60,0,0
54110,-100,4,2,1,70,0,0
55373,-100,4,2,1,40,0,0
56004,-100,4,2,1,70,0,0
77004,-100,4,2,1,70,0,0
78268,-100,4,2,1,70,0,0
79531,-100,4,2,1,70,0,0
86636,-100,4,2,1,50,0,0
87583,-100,4,2,1,30,0,0
89162,-100,4,2,1,15,0,0
90741,-100,4,2,1,5,0,0

[Colours]
Combo1 : 210,255,210
Combo2 : 255,255,196
Combo3 : 213,213,234
Combo4 : 204,255,255

[HitObjects]
99,363,1689,6,0,P|89:297|130:245,1,135,6|2,3:2|0:0,0:0:0:0:
213,274,2478,1,2,0:0:0:0:
287,221,2794,2,0,P|380:230|466:237,1,180,2|2,0:0|0:0,0:0:0:0:
431,14,4215,6,0,P|393:67|405:132,1,135,2|2,3:2|0:0,0:0:0:0:
324,173,5004,1,2,0:0:0:0:
256,118,5320,2,0,P|164:126|75:132,1,180,2|2,0:0|0:0,0:0:0:0:
10,250,6426,2,0,P|61:245|109:240,1,90,2|10,0:0|3:2,0:0:0:0:
384,376,7847,2,0,P|390:280|395:188,1,180,2|2,3:2|3:2,0:0:0:0:
503,2,9268,1,8,3:2:0:0:
188,11,10373,6,0,P|191:61|197:110,1,90,6|2,3:2|3:2,0:0:0:0:
134,166,11004,2,0,P|69:157|-3:149,1,135,6|10,3:2|0:0,0:0:0:0:
397,361,13057,6,0,P|427:303|399:230,1,135,8|8,3:2|3:2,0:0:0:0:
344,175,13847,1,4,0:3:0:0:
256,194,14162,6,0,P|262:260|271:334,1,135,6|10,3:2|0:0,0:0:0:0:
188,367,14952,1,2,3:2:0:0:
83,281,15426,2,0,P|90:212|97:142,1,135,2|10,3:2|0:0,0:0:0:0:
38,78,16215,1,2,3:2:0:0:
163,29,16689,6,0,B|255:15|257:73|345:66,1,180,6|2,3:2|0:0,0:0:0:0:
416,27,17636,1,0,3:0:0:0:
487,81,17952,2,0,P|480:141|475:189,1,90,2|2,3:2|3:2,0:0:0:0:
393,202,18583,2,0,P|399:262|405:310,1,90,2|0,0:0|3:0,0:0:0:0:
467,354,19215,5,4,3:2:0:0:
333,371,19689,1,10,0:0:0:0:
267,310,20004,2,0,P|196:319|119:330,1,135,2|2,3:2|3:2,0:0:0:0:
19,255,20952,1,10,0:0:0:0:
75,184,21268,2,0,P|142:165|207:206,1,135,2|6,3:2|3:2,0:0:0:0:
306,275,22215,2,0,P|353:267|404:260,1,90,10|0,0:0|3:0,0:0:0:0:
475,152,23004,2,0,P|466:105|456:52,2,90,6|2|2,3:2|3:2|3:2,0:0:0:0:
59,113,32004,6,0,P|63:71|67:23,2,90,0|0|0,3:0|3:0|3:0,0:0:0:0:
120,179,32952,1,0,3:0:0:0:
201,140,33268,2,0,P|249:146|298:155,1,90,0|0,3:0|3:0,0:0:0:0:
352,88,33899,2,0,P|400:81|449:73,1,90,0|8,3:0|3:2,0:0:0:0:
486,152,34531,6,0,P|528:198|502:285,1,135,6|8,3:2|0:3,0:0:0:0:
426,364,35478,1,10,0:0:0:0:
350,315,35794,2,0,P|355:280|365:226,1,90,4|10,3:0|0:0,0:0:0:0:
285,184,36426,2,0,P|250:189|196:199,1,90,4|10,3:0|0:0,0:0:0:0:
133,263,37057,6,0,P|70:285|7:241,1,135,4|8,3:0|0:3,0:0:0:0:
30,118,38004,1,10,0:0:0:0:
107,72,38320,2,0,P|168:78|196:81,1,90,4|10,3:0|0:0,0:0:0:0:
258,147,38952,2,0,P|302:156|356:135,1,90,4|10,3:0|0:0,0:0:0:0:
434,141,39583,6,0,P|427:68|418:-18,1,135,4|8,3:0|0:3,0:0:0:0:
302,64,40531,1,10,0:0:0:0:
343,143,40847,2,0,P|335:198|330:258,1,90,4|8,3:0|0:0,0:0:0:0:
254,277,41478,2,0,P|227:234|237:181,1,90,4|8,3:0|0:0,0:0:0:0:
188,117,42110,2,0,P|136:123|49:137,1,135,4|8,3:0|0:3,0:0:0:0:
0,219,42899,5,4,0:3:0:0:
18,307,43215,1,6,3:2:0:0:
136,372,43689,2,0,P|193:334|269:355,1,135,6|6,3:2|3:2,0:0:0:0:
388,366,44636,6,0,L|379:276,2,90,6|10|2,3:2|0:0|3:2,0:0:0:0:
498,288,45741,2,0,P|489:221|481:154,1,135,10|8,0:0|3:2,0:0:0:0:
495,64,46531,1,8,0:3:0:0:
418,16,46847,1,8,3:2:0:0:
338,58,47162,6,0,P|303:54|236:46,1,90,8|4,0:0|0:3,0:0:0:0:
172,96,47794,1,4,0:3:0:0:
45,47,48268,2,0,P|53:113|65:190,1,135,4|4,0:3|0:3,0:0:0:0:
149,207,49057,2,0,P|172:244|168:293,1,90,4|0,3:0|3:0,0:0:0:0:
97,344,49689,6,0,P|54:336|-12:325,2,90,4|0|0,3:2|3:0|3:0,0:0:0:0:
169,288,50636,1,0,3:0:0:0:
229,354,50952,2,0,P|268:336|318:341,1,90,0|0,3:0|3:0,0:0:0:0:
384,283,51583,2,0,P|429:290|473:297,1,90,2|2,3:0|3:0,0:0:0:0:
503,212,52215,5,2,3:0:0:0:
488,122,52531,1,2,3:0:0:0:
468,34,52847,2,0,P|401:66|333:37,1,135,2|4,3:0|3:2,0:0:0:0:
233,123,53794,2,0,P|189:117|139:111,1,90,8|8,3:2|3:2,0:0:0:0:
23,43,54583,1,8,3:2:0:0:
391,340,56004,6,0,P|315:294|230:312,1,180,6|0,3:2|3:0,0:0:0:0:
153,360,56952,1,8,0:0:0:0:
85,303,57268,2,0,L|73:207,1,90,2|8,3:2|0:0,0:0:0:0:
132,145,57899,1,0,3:0:0:0:
216,176,58215,1,8,0:0:0:0:
299,132,58531,2,0,P|341:115|391:129,1,90,0|8,3:0|0:0,0:0:0:0:
469,151,59162,5,2,3:2:0:0:
358,228,59636,2,0,P|365:276|370:317,1,90,2|2,0:0|0:0,0:0:0:0:
286,352,60268,1,2,0:0:0:0:
210,303,60583,1,2,3:2:0:0:
140,364,60899,6,0,P|86:380|12:346,1,135,6|8,3:2|0:0,0:0:0:0:
8,260,61689,1,2,3:2:0:0:
129,201,62162,2,0,P|121:129|115:64,1,135,2|8,0:0|0:0,0:0:0:0:
183,7,62952,1,2,3:2:0:0:
280,100,63426,6,0,P|366:89|414:83,1,135,2|8,0:0|0:0,0:0:0:0:
473,150,64215,2,0,P|498:190|487:242,1,90,2|10,3:2|0:0,0:0:0:0:
440,304,64847,1,0,3:0:0:0:
364,255,65162,2,0,P|322:262|275:271,1,90,12|12,0:0|0:0,0:0:0:0:
210,207,65794,1,14,0:0:0:0:
144,268,66110,6,0,P|58:278|3:211,1,180,6|0,3:2|3:0,0:0:0:0:
64,145,67057,1,10,0:0:0:0:
12,70,67373,2,0,L|110:55,1,90,2|8,3:2|0:0,0:0:0:0:
177,104,68004,1,0,3:0:0:0:
247,47,68320,1,8,0:0:0:0:
322,95,68636,2,0,L|410:79,1,90,0|8,3:0|0:0,0:0:0:0:
492,118,69268,1,2,3:2:0:0:
434,239,69741,6,0,P|386:244|349:228,1,90,2|2,0:0|0:0,0:0:0:0:
264,195,70373,1,2,0:0:0:0:
280,283,70689,1,2,3:2:0:0:
289,372,71004,6,0,P|235:366|134:357,1,135,6|8,3:2|0:0,0:0:0:0:
66,379,71794,1,2,3:2:0:0:
1,260,72268,2,0,P|-19:195|7:134,1,135,2|8,0:0|0:0,0:0:0:0:
85,93,73057,1,2,3:2:0:0:
209,155,73531,2,0,P|201:222|193:289,1,135,2|8,0:0|0:0,0:0:0:0:
260,348,74320,6,0,P|300:360|351:348,1,90,2|10,3:2|0:0,0:0:0:0:
423,304,74952,1,0,3:0:0:0:
394,218,75268,1,12,0:0:0:0:
428,131,75583,2,0,P|376:121|320:111,1,90,12|8,0:0|0:0,0:0:0:0:
275,178,76215,5,6,3:2:0:0:
118,17,77004,2,0,P|73:24|29:32,1,90,2|6,3:2|3:2,0:0:0:0:
108,290,78268,2,0,P|152:298|196:305,1,90,2|6,3:2|3:2,0:0:0:0:
449,210,79531,5,2,3:2:0:0:
428,122,79847,2,0,P|367:99|294:138,1,135,4|8,3:2|0:0,0:0:0:0:
289,213,80636,2,0,P|299:268|308:325,1,90,8|8,0:0|3:2,0:0:0:0:
237,362,81268,6,0,P|172:353|96:341,1,135,8|8,3:2|0:3,0:0:0:0:
23,300,82057,1,8,0:0:0:0:
53,215,82373,2,0,P|138:183|208:243,1,180,8|8,0:0|0:3,0:0:0:0:
271,291,83320,1,8,0:0:0:0:
348,245,83636,2,0,P|337:178|312:37,1,180,8|8,3:2|0:3,0:0:0:0:
387,9,84583,1,8,0:0:0:0:
470,42,84899,6,0,P|505:98|496:163,1,135,8|8,0:0|0:0,0:0:0:0:
417,207,85689,2,0,P|359:199|282:191,1,135,8|4,0:0|3:2,0:0:0:0:
256,192,86320,12,0,90741,0:0:0:0:
