osu file format v14

[General]
AudioFilename: GATE ~Sore wa Akatsuki no You ni~ (TV Size).mp3
AudioLeadIn: 0
PreviewTime: 50361
Countdown: 0
SampleSet: Soft
StackLeniency: 0.7
Mode: 0
LetterboxInBreaks: 0
WidescreenStoryboard: 0

[Editor]
DistanceSpacing: 1.3
BeatDivisor: 4
GridSize: 4
TimelineZoom: 1.1

[Metadata]
Title:GATE~Sore wa Akatsuki no you ni~ (TV size)
TitleUnicode:GATE~それは暁のように~ (TV Size)
Artist:KISIDA KYODAN & THE AKEBOSI ROCKETS
ArtistUnicode:岸田教団&THE明星ロケッツ
Creator:Del05
Version:Hard
Source:GATE 自衛隊 彼の地にて、斯く戦えり
Tags:Jieitai Kanochi Nite Kaku Tatakaeri Opening Kyle Y walaowey Rory Tuka ゲート
BeatmapID:765566
BeatmapSetID:346872

[Difficulty]
HPDrainRate:5
CircleSize:3.5
OverallDifficulty:6
ApproachRate:8
SliderMultiplier:1.4
SliderTickRate:1

[Events]
//Background and Video events
Video,0,"OP.avi"
0,0,"BG.jpg",0,0
//Break Periods
//Storyboard Layer 0 (Background)
//Storyboard Layer 1 (Fail)
//Storyboard Layer 2 (Pass)
//Storyboard Layer 3 (Foreground)
//Storyboard Sound Samples

[TimingPoints]
561,300,4,2,1,50,1,0
561,-133.333333333333,4,2,1,50,0,0
1611,-125,4,2,1,50,0,0
10311,-133.333333333333,4,2,1,30,0,0
11961,-133.333333333333,4,2,1,30,0,0
12411,-100,4,2,1,70,0,0
22011,-125,4,2,1,55,0,0
30711,-100,4,2,1,55,0,0
31611,-111.111111111111,4,2,1,55,0,0
41211,-133.333333333333,4,2,1,40,0,0
45411,-100,4,2,1,40,0,0
46011,-100,4,2,1,70,0,0
50811,-100,4,2,1,75,0,1
59961,-100,4,2,1,45,0,1
60411,-100,4,2,1,75,0,1
69561,-100,4,2,1,45,0,1
70011,-100,4,2,1,75,0,1
79611,-100,4,2,1,70,0,0
87561,-100,4,2,1,40,0,0
88011,-100,4,2,1,45,0,0

[Colours]
Combo1 : 61,171,248
Combo2 : 233,235,108
Combo3 : 146,229,235
Combo4 : 222,76,89
Combo5 : 209,152,94

[HitObjects]
368,296,561,5,4,0:0:0:0:
368,296,861,1,4,0:0:0:0:
256,200,1161,2,0,L|264:172,2,26.2500010013581,2|8|8,0:0|0:0|0:0,0:0:0:0:
220,276,1461,1,2,0:0:0:0:
176,204,1611,6,0,L|140:92,1,112,6|0,0:0|0:0,0:0:0:0:
68,56,2061,2,0,L|49:111,1,56
28,192,2361,1,2,0:0:0:0:
28,192,2436,1,2,0:0:0:0:
28,192,2511,2,0,P|36:244|88:296,1,112,8|2,0:0|0:0,0:0:0:0:
236,332,3111,5,2,0:0:0:0:
304,280,3261,2,0,L|316:212,1,56,8|0,0:0|0:0,0:0:0:0:
380,172,3561,2,0,L|376:136,5,28,2|8|8|8|8|8,0:0|0:0|0:0|0:0|0:0|0:0,0:0:0:0:
384,104,4011,6,0,L|260:112,1,112,6|2,0:0|0:0,0:0:0:0:
188,124,4461,1,8,0:0:0:0:
132,188,4611,2,8,L|96:180,2,28
168,272,4911,2,8,L|195:278,3,28
240,288,5211,6,0,B|272:244|272:244|324:212,1,112,6|2,0:0|0:0,0:0:0:0:
396,172,5661,2,0,L|404:116,1,56,8|8,0:0|0:0,0:0:0:0:
380,36,5961,1,2,0:0:0:0:
380,36,6111,2,0,P|328:52|248:44,1,112,8|2,0:0|0:0,0:0:0:0:
104,36,6711,5,2,0:0:0:0:
44,92,6861,2,0,L|32:156,1,56,8|2,0:0|0:0,0:0:0:0:
96,204,7161,2,0,L|108:268,1,56,2|2,0:0|0:0,0:0:0:0:
144,344,7461,1,8,0:0:0:0:
144,344,7611,6,0,P|204:352|268:336,1,112,6|0,0:0|0:0,0:0:0:0:
316,284,8061,2,0,L|328:208,1,56,8|2,0:0|0:0,0:0:0:0:
391,140,8361,2,0,L|400:196,1,56,8|2,0:0|0:0,0:0:0:0:
460,256,8661,1,8,0:0:0:0:
460,256,8811,6,0,P|484:209|466:138,1,112,6|2,0:0|0:0,0:0:0:0:
392,140,9261,1,8,0:0:0:0:
340,76,9411,1,8,0:0:0:0:
272,124,9561,1,8,0:0:0:0:
324,192,9711,5,8,0:0:0:0:
340,76,9861,1,8,0:0:0:0:
224,56,10011,1,6,0:1:0:0:
148,192,10311,5,0,0:0:0:0:
148,192,10461,2,0,L|136:256,1,52.5000020027161,2|0,0:1|0:0,0:0:0:0:
216,252,10761,2,0,L|204:316,1,52.5000020027161,2|0,0:1|0:0,0:0:0:0:
284,308,11061,2,0,L|272:372,1,52.5000020027161,2|0,0:1|0:0,0:0:0:0:
352,364,11361,6,0,L|361:312,1,52.5000020027161,2|0,0:1|0:0,0:0:0:0:
440,324,11661,2,0,L|449:272,1,52.5000020027161,2|0,0:1|0:0,0:0:0:0:
408,204,11961,2,8,L|420:156,5,26.2500010013581
420,120,12411,6,0,P|332:116|288:72,1,140,6|2,0:0|0:0,0:0:0:0:
224,28,12861,2,0,L|155:41,1,70,8|0,0:0|0:0,0:0:0:0:
84,96,13161,2,0,L|4:76,2,70,2|2|8,0:0|0:0|0:0,0:0:0:0:
152,156,13611,6,0,P|156:219|144:312,1,140,2|2,0:0|0:0,0:0:0:0:
216,356,14061,2,0,L|304:344,1,70,8|0,0:0|0:0,0:0:0:0:
340,276,14361,2,0,L|409:286,1,70,2|2,0:0|0:0,0:0:0:0:
476,352,14661,1,8,0:0:0:0:
476,352,14811,6,0,P|501:276|453:205,1,140,6|2,0:0|0:0,0:0:0:0:
412,160,15261,2,0,L|400:88,1,70,8|0,0:0|0:0,0:0:0:0:
324,44,15561,2,0,L|312:120,1,70,2|2,0:0|0:0,0:0:0:0:
236,164,15861,1,8,0:0:0:0:
236,164,16011,6,0,P|166:139|97:174,1,140,2|2,0:0|0:0,0:0:0:0:
68,244,16461,2,0,L|71:313,1,70,8|0,0:0|0:0,0:0:0:0:
164,300,16761,2,0,L|171:230,2,70,2|2|8,0:0|0:0|0:0,0:0:0:0:
240,348,17211,6,0,P|304:320|388:336,1,140,6|2,0:0|0:0,0:0:0:0:
456,364,17661,2,0,P|463:322|451:277,1,70,8|0,0:0|0:0,0:0:0:0:
412,216,17961,1,2,0:0:0:0:
332,172,18111,1,2,0:0:0:0:
280,96,18261,1,8,0:0:0:0:
280,96,18411,6,0,P|213:80|132:104,1,140,2|2,0:0|0:0,0:0:0:0:
84,164,18861,2,0,P|76:208|56:244,1,70,8|0,0:0|0:0,0:0:0:0:
0,296,19161,1,2,0:0:0:0:
64,360,19311,1,2,0:0:0:0:
156,352,19461,1,8,0:0:0:0:
156,352,19611,6,0,B|212:368|237:348|264:328|320:344,1,140,6|2,0:0|0:0,0:0:0:0:
380,360,20061,2,0,P|381:322|368:283,1,70,8|0,0:0|0:0,0:0:0:0:
308,228,20361,2,0,P|307:190|320:151,2,70,2|2|8,0:0|0:0|0:0,0:0:0:0:
396,204,20811,5,6,0:0:0:0:
256,84,21111,1,6,0:0:0:0:
116,204,21411,1,6,0:0:0:0:
256,320,21711,1,6,0:0:0:0:
256,320,22011,6,0,L|256:204,1,112,6|2,0:0|0:0,0:0:0:0:
184,164,22461,2,0,P|150:171|104:168,1,56,8|0,0:0|0:0,0:0:0:0:
52,132,22761,2,0,P|52:102|48:64,2,56,2|2|8,0:0|0:0|0:0,0:0:0:0:
20,212,23211,6,0,P|21:271|70:318,1,112,2|2,0:0|0:0,0:0:0:0:
100,240,23661,2,0,L|168:256,1,56,8|0,0:0|0:0,0:0:0:0:
208,320,23961,2,0,L|276:304,1,56,2|2,0:0|0:0,0:0:0:0:
340,276,24261,1,8,0:0:0:0:
340,276,24411,6,0,P|328:228|328:160,1,112,2|2,0:0|0:0,0:0:0:0:
252,128,24861,2,0,P|221:131|189:127,1,56,8|0,0:0|0:0,0:0:0:0:
124,88,25161,2,0,P|93:85|61:89,1,56,2|2,0:0|0:0,0:0:0:0:
4,140,25461,1,8,0:0:0:0:
4,140,25611,6,0,L|16:272,1,112,2|2,0:0|0:0,0:0:0:0:
72,312,26061,2,0,P|97:313|132:308,1,56,8|0,0:0|0:0,0:0:0:0:
204,272,26361,2,0,P|229:270|264:276,1,56,2|2,0:0|0:0,0:0:0:0:
336,308,26661,1,8,0:0:0:0:
336,308,26811,6,0,P|337:249|301:201,1,112,6|2,0:0|0:0,0:0:0:0:
240,156,27261,2,0,L|232:88,1,56,8|0,0:0|0:0,0:0:0:0:
184,32,27561,1,2,0:0:0:0:
104,60,27711,1,2,0:0:0:0:
152,128,27861,1,8,0:0:0:0:
152,128,28011,6,0,L|136:248,1,112,2|2,0:0|0:0,0:0:0:0:
168,316,28461,2,0,P|193:322|232:320,1,56,8|0,0:0|0:0,0:0:0:0:
304,292,28761,2,0,P|329:285|368:288,1,56,2|2,0:0|0:0,0:0:0:0:
436,320,29061,1,8,0:0:0:0:
484,252,29211,6,0,P|506:201|492:136,1,112,2|2,0:0|0:0,0:0:0:0:
432,92,29661,2,0,L|372:104,1,56,8|0,0:0|0:0,0:0:0:0:
264,157,29961,2,0,L|320:164,1,56,2|2,0:0|0:0,0:0:0:0:
364,236,30261,1,8,0:0:0:0:
304,292,30411,1,0,0:0:0:0:
304,292,30561,6,0,L|312:336,2,28,8|8|6,0:0|0:0|0:0,0:0:0:0:
124,192,31011,1,6,0:0:0:0:
248,80,31311,1,6,0:0:0:0:
248,80,31611,6,0,L|260:228,1,125.999996154785,6|2,0:0|0:0,0:0:0:0:
312,268,32061,2,0,P|344:269|374:262,1,62.9999980773926,8|0,0:0|0:0,0:0:0:0:
436,204,32361,2,0,L|432:141,2,62.9999980773926,2|2|8,0:0|0:0|0:0,0:0:0:0:
488,80,32811,6,0,P|421:60|360:99,1,125.999996154785,2|2,0:0|0:0,0:0:0:0:
308,132,33261,2,0,L|246:117,1,62.9999980773926,8|0,0:0|0:0,0:0:0:0:
168,96,33561,1,2,0:0:0:0:
108,152,33711,1,2,0:0:0:0:
188,176,33861,1,8,0:0:0:0:
188,176,34011,6,0,P|220:240|276:268,1,125.999996154785,2|2,0:0|0:0,0:0:0:0:
344,244,34461,2,0,L|356:172,1,62.9999980773926,8|0,0:0|0:0,0:0:0:0:
428,144,34761,2,0,L|440:216,1,62.9999980773926,2|2,0:0|0:0,0:0:0:0:
448,288,35061,1,8,0:0:0:0:
448,288,35211,6,0,P|403:335|324:330,1,125.999996154785,2|2,0:0|0:0,0:0:0:0:
272,300,35661,2,0,P|236:296|194:316,1,62.9999980773926,8|0,0:0|0:0,0:0:0:0:
136,340,35961,2,0,P|100:344|58:324,1,62.9999980773926,2|2,0:0|0:0,0:0:0:0:
36,264,36261,1,8,0:0:0:0:
36,264,36411,6,0,L|52:136,1,125.999996154785,2|2,0:0|0:0,0:0:0:0:
112,84,36861,2,0,P|141:80|176:88,1,62.9999980773926,8|0,0:0|0:0,0:0:0:0:
240,136,37161,1,2,0:0:0:0:
308,88,37311,1,2,0:0:0:0:
376,136,37461,1,8,0:0:0:0:
308,184,37611,6,0,P|348:215|437:193,1,125.999996154785,2|2,0:0|0:0,0:0:0:0:
484,156,38061,2,0,L|472:80,1,62.9999980773926,8|0,0:0|0:0,0:0:0:0:
408,40,38361,2,0,P|372:50|320:52,1,62.9999980773926,2|2,0:0|0:0,0:0:0:0:
268,32,38661,1,8,0:0:0:0:
268,32,38811,6,0,P|196:24|128:40,1,125.999996154785,6|2,0:0|0:0,0:0:0:0:
80,84,39261,2,0,L|68:160,1,62.9999980773926,8|0,0:0|0:0,0:0:0:0:
16,208,39561,2,0,L|25:270,1,62.9999980773926,2|2,0:0|0:0,0:0:0:0:
84,328,39861,1,8,0:0:0:0:
84,328,40011,6,0,P|148:340|231:320,1,125.999996154785,6|2,0:0|0:0,0:0:0:0:
272,280,40461,2,0,L|280:204,1,62.9999980773926,8|2,0:0|0:0,0:0:0:0:
360,220,40761,2,0,L|365:157,1,62.9999980773926,8|2,0:0|0:0,0:0:0:0:
448,156,41061,2,0,L|456:86,1,62.9999980773926,8|6,0:0|0:0,0:0:0:0:
276,248,41661,6,0,L|269:315,1,52.5000020027161,2|0,0:0|0:0,0:0:0:0:
196,268,41961,2,0,L|189:335,1,52.5000020027161,2|0,0:0|0:0,0:0:0:0:
116,288,42261,2,0,L|109:355,1,52.5000020027161,2|0,0:0|0:0,0:0:0:0:
36,312,42561,6,0,L|50:196,1,105.000004005432,2|2,0:0|0:0,0:0:0:0:
64,128,43011,1,0,0:0:0:0:
140,152,43161,2,0,L|200:152,1,52.5000020027161,2|0,0:0|0:0,0:0:0:0:
240,216,43461,2,0,L|300:216,1,52.5000020027161,2|0,0:0|0:0,0:0:0:0:
388,152,43761,6,0,L|336:152,1,52.5000020027161,2|0,0:0|0:0,0:0:0:0:
296,84,44061,2,0,L|243:84,1,52.5000020027161,2|0,0:0|0:0,0:0:0:0:
192,152,44361,2,0,L|139:152,1,52.5000020027161,2|0,0:0|0:0,0:0:0:0:
240,216,44661,2,0,L|293:216,1,52.5000020027161,2|0,0:0|0:0,0:0:0:0:
360,292,44961,6,0,L|308:292,1,52.5000020027161,2|0,0:0|0:0,0:0:0:0:
240,332,45261,1,2,0:0:0:0:
176,288,45411,2,8,L|160:248,2,35
124,348,45711,1,8,0:0:0:0:
60,300,45861,1,8,0:0:0:0:
60,300,46011,6,0,P|62:230|59:160,1,140,6|8,0:0|0:0,0:0:0:0:
120,92,46461,2,0,L|196:104,1,70,2|2,0:0|0:0,0:0:0:0:
264,156,46761,2,0,P|261:232|264:300,1,140,8|2,0:0|0:0,0:0:0:0:
332,352,47211,6,0,P|399:356|455:298,1,140,2|8,0:0|0:0,0:0:0:0:
368,272,47661,2,0,L|380:196,1,70,2|2,0:0|0:0,0:0:0:0:
460,160,47961,2,0,L|448:84,1,70,8|2,0:0|0:0,0:0:0:0:
376,36,48261,1,8,0:0:0:0:
376,36,48411,6,0,L|224:48,1,140,6|2,0:0|0:0,0:0:0:0:
164,100,48861,2,0,P|165:136|160:176,1,70,8|0,0:0|0:0,0:0:0:0:
108,244,49161,1,2,0:0:0:0:
32,196,49311,1,2,0:0:0:0:
0,280,49461,1,8,0:0:0:0:
0,280,49611,6,0,P|40:332|110:354,1,140,6|2,0:0|0:0,0:0:0:0:
192,312,50061,2,8,L|188:268,2,35
444,48,50811,6,0,P|452:120|448:186,1,140,6|2,0:0|0:0,0:0:0:0:
392,256,51261,2,0,L|322:246,1,70,8|0,0:0|0:0,0:0:0:0:
252,188,51561,2,0,L|172:196,1,70,2|2,0:0|0:0,0:0:0:0:
92,212,51861,1,8,0:0:0:0:
92,212,52011,6,0,P|104:145|166:104,1,140,2|2,0:0|0:0,0:0:0:0:
244,72,52461,1,8,0:0:0:0:
302,143,52611,1,0,0:0:0:0:
380,96,52761,2,0,P|413:86|451:89,1,70,2|2,0:0|0:0,0:0:0:0:
424,176,53061,1,8,0:0:0:0:
424,176,53211,6,0,P|346:182|296:128,1,140,6|2,0:0|0:0,0:0:0:0:
244,72,53661,2,0,L|164:80,1,70,8|0,0:0|0:0,0:0:0:0:
92,36,53961,2,0,L|6:30,2,70,2|2|8,0:0|0:0|0:0,0:0:0:0:
152,104,54411,6,0,P|147:170|148:260,1,140,2|2,0:0|0:0,0:0:0:0:
208,312,54861,2,0,P|241:316|280:308,1,70,8|0,0:0|0:0,0:0:0:0:
356,264,55161,2,0,P|389:259|428:268,1,70,2|2,0:0|0:0,0:0:0:0:
500,316,55461,1,8,0:0:0:0:
500,316,55611,22,0,L|480:168,1,140,6|2,0:0|0:0,0:0:0:0:
412,116,56061,1,8,0:0:0:0:
348,180,56211,1,0,0:0:0:0:
276,120,56361,2,0,P|232:116|192:124,1,70,2|2,0:0|0:0,0:0:0:0:
132,172,56661,1,8,0:0:0:0:
204,256,56811,54,0,L|348:260,1,140,6|2,0:0|0:0,0:0:0:0:
456,232,57261,1,8,0:0:0:0:
424,340,57411,54,0,L|280:336,1,140,6|2,0:0|0:0,0:0:0:0:
204,256,57861,1,8,0:0:0:0:
272,344,58011,54,0,P|303:273|281:190,1,140,6|2,0:0|0:0,0:0:0:0:
256,132,58461,2,0,L|172:152,1,70,8|0,0:0|0:0,0:0:0:0:
100,172,58761,1,2,0:0:0:0:
100,172,58911,1,2,0:0:0:0:
120,84,59061,1,8,0:0:0:0:
120,84,59211,6,0,L|260:48,1,140,6|2,0:0|0:0,0:0:0:0:
336,92,59661,2,0,P|336:128|344:180,1,70,8|0,0:0|0:0,0:0:0:0:
404,224,59961,2,8,L|412:260,5,35
448,288,60411,22,0,L|304:308,1,140,6|2,0:0|0:0,0:0:0:0:
232,352,60861,2,0,L|156:340,1,70,8|0,0:0|0:0,0:0:0:0:
108,268,61161,2,0,L|177:258,1,70,2|2,0:0|0:0,0:0:0:0:
264,228,61461,1,8,0:0:0:0:
264,228,61611,6,0,P|221:177|146:171,1,140,2|2,0:0|0:0,0:0:0:0:
64,192,62061,2,0,P|64:149|79:114,1,70,8|0,0:0|0:0,0:0:0:0:
140,60,62361,2,0,P|103:35|56:33,2,70,2|2|8,0:0|0:0|0:0,0:0:0:0:
196,132,62811,6,0,P|265:149|339:131,1,140,6|2,0:0|0:0,0:0:0:0:
412,92,63261,2,0,L|424:172,1,70,8|0,0:0|0:0,0:0:0:0:
480,232,63561,2,0,L|468:316,1,70,2|2,0:0|0:0,0:0:0:0:
400,360,63861,1,8,0:0:0:0:
400,360,64011,6,0,L|232:352,1,140,2|2,0:0|0:0,0:0:0:0:
188,300,64461,2,0,P|193:261|188:216,1,70,8|0,0:0|0:0,0:0:0:0:
148,148,64761,1,2,0:0:0:0:
208,80,64911,1,2,0:0:0:0:
272,144,65061,1,8,0:0:0:0:
272,144,65211,38,0,P|329:174|412:138,1,140,6|2,0:0|0:0,0:0:0:0:
340,84,65661,2,0,P|304:60|257:55,1,70,8|0,0:0|0:0,0:0:0:0:
188,56,65961,2,0,P|154:65|126:85,1,70,2|2,0:0|0:0,0:0:0:0:
194,146,66261,1,8,0:0:0:0:
92,196,66411,38,0,P|137:244|217:257,1,140,6|2,0:0|0:0,0:0:0:0:
284,208,66861,1,8,0:0:0:0:
209,285,67011,54,0,L|193:145,1,140,6|2,0:0|0:0,0:0:0:0:
164,36,67461,1,8,0:0:0:0:
268,68,67611,54,0,L|283:207,1,140,6|2,0:0|0:0,0:0:0:0:
355,271,68061,2,0,P|389:280|424:280,1,70,8|2,0:0|0:0,0:0:0:0:
308,348,68361,2,0,P|273:339|212:344,1,70,8|2,0:0|0:0,0:0:0:0:
152,360,68661,1,8,0:0:0:0:
152,360,68811,6,0,L|136:196,1,140,6|2,0:0|0:0,0:0:0:0:
204,156,69261,2,0,P|236:175|280:184,1,70,8|0,0:0|0:0,0:0:0:0:
352,148,69561,2,8,L|352:112,5,35
388,84,70011,22,0,L|248:72,1,140,6|2,0:0|0:0,0:0:0:0:
168,32,70461,2,0,L|98:39,1,70,8|0,0:0|0:0,0:0:0:0:
32,103,70761,2,0,P|32:138|40:173,2,70,2|2|8,0:0|0:0|0:0,0:0:0:0:
4,256,71211,6,0,P|80:256|129:195,1,140,2|2,0:0|0:0,0:0:0:0:
188,152,71661,2,0,L|260:172,1,70,8|0,0:0|0:0,0:0:0:0:
316,240,71961,2,0,L|383:222,1,70,2|2,0:0|0:0,0:0:0:0:
448,156,72261,1,8,0:0:0:0:
448,156,72411,6,0,P|475:207|453:284,1,140,6|2,0:0|0:0,0:0:0:0:
392,348,72861,2,0,L|313:326,1,70,8|0,0:0|0:0,0:0:0:0:
240,292,73161,1,2,0:0:0:0:
168,348,73311,1,2,0:0:0:0:
100,284,73461,1,8,0:0:0:0:
32,344,73611,6,0,P|7:286|41:215,1,140,2|2,0:0|0:0,0:0:0:0:
112,168,74061,2,0,L|104:84,1,70,8|0,0:0|0:0,0:0:0:0:
196,108,74361,2,0,L|204:24,2,70,2|2|8,0:0|0:0|0:0,0:0:0:0:
236,192,74811,6,0,P|304:216|390:191,1,140,6|2,0:0|0:0,0:0:0:0:
436,144,75261,2,0,L|428:68,1,70,8|0,0:0|0:0,0:0:0:0:
344,36,75561,2,0,P|308:44|255:41,1,70,2|2,0:0|0:0,0:0:0:0:
184,28,75861,1,8,0:0:0:0:
184,28,76011,6,0,P|168:96|164:180,1,140,2|2,0:0|0:0,0:0:0:0:
208,244,76461,2,0,L|277:250,1,70,8|0,0:0|0:0,0:0:0:0:
368,252,76761,1,2,0:0:0:0:
396,168,76911,1,2,0:0:0:0:
320,116,77061,1,8,0:0:0:0:
320,116,77211,6,0,P|252:100|172:119,1,140,6|2,0:0|0:0,0:0:0:0:
116,176,77661,2,0,L|104:256,1,70,8|2,0:0|0:0,0:0:0:0:
169,365,77961,2,0,L|180:296,1,70,8|2,0:0|0:0,0:0:0:0:
278,198,78261,2,0,L|268:268,1,70,8|2,0:0|0:0,0:0:0:0:
340,354,78561,6,0,L|344:320,2,35,8|8|2,0:0|0:0|0:0,0:0:0:0:
427,245,78861,2,0,L|424:280,2,35,8|8|2,0:0|0:0|0:0,0:0:0:0:
360,184,79161,2,0,L|363:149,2,35,8|8|2,0:0|0:0|0:0,0:0:0:0:
276,224,79461,1,8,0:0:0:0:
276,224,79536,1,8,0:0:0:0:
276,224,79611,6,0,P|188:220|144:176,1,140,6|2,0:0|0:0,0:0:0:0:
160,96,80061,2,0,L|240:80,1,70,8|0,0:0|0:0,0:0:0:0:
304,32,80361,2,0,L|372:44,2,70,2|2|8,0:0|0:0|0:0,0:0:0:0:
464,32,80811,6,0,P|448:94|379:137,1,140,2|2,0:0|0:0,0:0:0:0:
296,132,81261,2,0,L|304:216,1,70,8|0,0:0|0:0,0:0:0:0:
212,224,81561,2,0,L|217:154,1,70,2|2,0:0|0:0,0:0:0:0:
236,64,81861,1,8,0:0:0:0:
236,64,82011,6,0,P|174:72|128:135,1,140,6|2,0:0|0:0,0:0:0:0:
120,220,82461,2,0,L|36:212,1,70,8|0,0:0|0:0,0:0:0:0:
4,292,82761,2,0,L|73:300,1,70,2|2,0:0|0:0,0:0:0:0:
164,304,83061,1,8,0:0:0:0:
164,304,83211,6,0,P|213:248|203:172,1,140,2|2,0:0|0:0,0:0:0:0:
164,108,83661,2,0,L|228:80,1,70,8|0,0:0|0:0,0:0:0:0:
292,148,83961,2,0,L|355:119,2,70,2|2|8,0:0|0:0|0:0,0:0:0:0:
408,40,84411,6,0,P|443:86|417:185,1,140,6|2,0:0|0:0,0:0:0:0:
360,216,84861,2,0,L|372:308,1,70,8|0,0:0|0:0,0:0:0:0:
300,348,85161,1,2,0:0:0:0:
232,284,85311,1,2,0:0:0:0:
164,348,85461,1,8,0:0:0:0:
163,347,85611,6,0,P|139:284|162:219,1,140,2|2,0:0|0:0,0:0:0:0:
248,192,86061,2,0,P|223:153|187:131,1,70,8|0,0:0|0:0,0:0:0:0:
112,136,86361,1,2,0:0:0:0:
160,56,86511,1,2,0:0:0:0:
252,60,86661,1,8,0:0:0:0:
252,60,86811,6,0,P|308:80|392:84,1,140,6|2,0:0|0:0,0:0:0:0:
476,64,87261,2,0,L|484:160,1,70,8|0,0:0|0:0,0:0:0:0:
428,208,87561,2,8,L|388:192,5,35
352,180,88011,5,6,0:0:0:0:
256,332,88311,1,6,0:0:0:0:
160,180,88611,1,6,0:0:0:0:
256,24,88911,1,6,0:0:0:0:
