osu file format v14

[General]
AudioFilename: audio.mp3
AudioLeadIn: 0
PreviewTime: 189722
Countdown: 0
SampleSet: Soft
StackLeniency: 0.4
Mode: 0
LetterboxInBreaks: 0
WidescreenStoryboard: 0

[Editor]
Bookmarks: 36497,65297,161297,196697,228347
DistanceSpacing: 0.5
BeatDivisor: 4
GridSize: 4
TimelineZoom: 2

[Metadata]
Title:GATE~Sore wa Akatsuki no you ni~
TitleUnicode:GATE~それは暁のように~
Artist:KISIDA KYODAN & THE AKEBOSI ROCKETS
ArtistUnicode:岸田教団&THE明星ロケッツ
Creator:Akitoshi
Version:NiNo's Extra
Source:GATE 自衛隊 彼の地にて、斯く戦えり
Tags:Jieitai Kanochi Nite Kaku Tatakaeri Opening Rory ゲート Full version SnowNiNo_ Corinn
BeatmapID:1032263
BeatmapSetID:480386

[Difficulty]
HPDrainRate:6
CircleSize:3.5
OverallDifficulty:8.5
ApproachRate:9.2
SliderMultiplier:1.8
SliderTickRate:1

[Events]
//Background and Video events
0,0,"rory.jpg",0,0
//Break Periods
//Storyboard Layer 0 (Background)
//Storyboard Layer 1 (Fail)
//Storyboard Layer 2 (Pass)
//Storyboard Layer 3 (Foreground)
//Storyboard Sound Samples

[TimingPoints]
5447,300,4,2,1,40,1,0
5447,-142.857142857143,4,2,1,40,0,0
6047,-117.647058823529,4,2,1,40,0,0
6497,-100,4,2,1,50,0,0
14897,-142.857142857143,4,2,1,50,0,0
15197,-142.857142857143,4,2,1,30,0,0
16547,-117.647058823529,4,2,1,50,0,0
16847,-100,4,2,1,50,0,0
17297,-90.9090909090909,4,2,1,70,0,0
26897,-111.111111111111,4,2,1,50,0,0
46097,-133.333333333333,4,2,1,50,0,0
50897,-100,4,2,1,50,0,0
55397,-133.333333333333,4,2,1,50,0,0
55622,-133.333333333333,4,2,1,5,0,0
55697,-79.9999999999999,4,2,1,70,0,1
61697,-100,4,2,1,70,0,1
62297,-80,4,2,1,70,0,1
62897,-66.6666666666667,4,2,1,70,0,1
63647,-80,4,2,1,70,0,1
71897,-80,4,2,1,70,0,1
72497,-100,4,2,1,70,0,1
74447,-90.9090909090909,4,2,1,60,0,0
74897,-83.3333333333333,4,2,1,70,0,1
83297,-100,4,2,1,70,0,1
84497,-83.3333333333333,4,2,1,70,0,0
94097,-111.111111111111,4,2,1,50,0,0
113297,-133.333333333333,4,2,1,50,0,0
118097,-125,4,2,1,50,0,0
122897,-111.111111111111,4,2,1,50,0,0
131897,-133.333333333333,4,2,1,50,0,0
132497,-83.3333333333333,4,2,1,70,0,1
138497,-100,4,2,1,70,0,1
139097,-80,4,2,1,70,0,1
139697,-66.6666666666667,4,2,1,70,0,1
140447,-83.3333333333333,4,2,1,70,0,1
149297,-100,4,2,1,70,0,1
151697,-83.3333333333333,4,2,1,50,0,0
161297,-83.3333333333333,4,2,1,70,0,0
170897,-125,4,2,1,50,0,0
180497,-111.111111111111,4,2,1,50,0,0
185297,-117.647058823529,4,2,1,50,0,0
189797,-153.846153846154,4,2,1,50,0,0
190097,-333.333333333333,4,2,1,50,0,0
190547,-50,4,2,1,50,0,0
190697,-90.9090909090909,4,2,1,50,0,0
191822,-90.9090909090909,4,2,1,10,0,0
191897,-90.9090909090909,4,2,1,50,0,0
192122,-90.9090909090909,4,2,1,10,0,0
192197,-90.9090909090909,4,2,1,50,0,0
192422,-90.9090909090909,4,2,1,10,0,0
192497,-76.9230769230769,4,2,1,70,0,1
196097,-90.9090909090909,4,2,1,70,0,1
196697,-71.4285714285714,4,2,1,70,0,1
197297,-58.8235294117647,4,2,1,70,0,1
198047,-76.9230769230769,4,2,1,70,0,1
206897,-90.9090909090909,4,2,1,70,0,1
208847,-90.9090909090909,4,2,1,70,0,0
209297,-76.9230769230769,4,2,1,70,0,1
217697,-83.3333333333333,4,2,1,70,0,0
218897,-76.9230769230769,4,2,1,70,0,0
227297,-66.6666666666667,4,2,1,70,0,0
227522,-66.6666666666667,4,2,1,10,0,0
227597,-66.6666666666667,4,2,1,70,0,0
227822,-66.6666666666667,4,2,1,10,0,0
227897,-66.6666666666667,4,2,1,70,0,0
228122,-66.6666666666667,4,2,1,10,0,0
228197,-66.6666666666667,4,2,1,70,0,0
228347,-66.6666666666667,4,2,1,10,0,0

[Colours]
Combo1 : 255,128,255
Combo2 : 255,128,64
Combo3 : 255,128,128
Combo4 : 242,24,57

[HitObjects]
103,94,5447,5,4,0:0:0:0:
409,94,5747,1,4,0:0:0:0:
256,216,6047,1,8,0:0:0:0:
256,197,6122,1,8,0:0:0:0:
256,178,6197,1,8,0:0:0:0:
256,308,6347,1,2,0:0:0:0:
200,101,6497,6,0,P|164:50|46:37,1,180,2|0,0:0|0:0,0:0:0:0:
263,162,6947,2,0,P|286:119|276:63,1,90,4|0,0:0|0:0,0:0:0:0:
141,174,7247,1,2,3:0:0:0:
144,196,7322,1,2,0:0:0:0:
147,218,7397,2,0,L|163:326,1,90,12|0,0:0|0:0,0:0:0:0:
314,334,7697,6,0,B|358:355|358:355|380:341|380:341|422:360|422:360|446:336|504:342,1,180,4|0,0:0|0:0,0:0:0:0:
421,230,8147,2,0,P|404:179|420:126,1,90,8|0,0:0|0:0,0:0:0:0:
478,26,8447,1,4,3:0:0:0:
455,28,8522,1,8,0:0:0:0:
432,30,8597,1,8,0:0:0:0:
409,32,8672,1,8,0:0:0:0:
386,34,8747,1,8,0:0:0:0:
363,36,8822,1,8,0:0:0:0:
340,38,8897,6,0,L|148:55,1,180,4|0,0:0|0:0,0:0:0:0:
57,25,9347,1,8,0:0:0:0:
186,158,9497,1,0,3:0:0:0:
32,140,9647,1,8,0:0:0:0:
22,160,9722,1,0,3:0:0:0:
15,181,9797,1,0,3:0:0:0:
11,203,9872,1,0,3:0:0:0:
10,226,9947,1,0,3:0:0:0:
12,248,10022,1,0,3:0:0:0:
16,270,10097,6,0,B|56:291|82:279|82:279|92:292|92:292|130:270|196:285,1,180,4|0,0:0|0:0,0:0:0:0:
321,377,10547,1,8,0:0:0:0:
250,207,10697,2,0,P|240:151|249:115,1,90,8|2,0:0|0:0,0:0:0:0:
408,282,10997,2,0,P|418:226|409:190,1,90,8|0,0:0|0:0,0:0:0:0:
491,30,11297,6,0,B|457:74|457:74|404:34|328:61,1,180,4|0,0:0|0:0,0:0:0:0:
174,21,11747,2,0,P|183:71|171:125,1,90,8|0,0:0|0:0,0:0:0:0:
102,178,12047,1,8,3:0:0:0:
274,136,12197,1,8,3:0:0:0:
64,71,12347,1,8,0:0:0:0:
123,303,12497,6,0,B|176:291|176:291|208:310|208:310|252:289|311:304,1,180,4|0,0:0|0:0,0:0:0:0:
14,362,12947,1,8,0:0:0:0:
55,182,13097,1,0,0:0:0:0:
162,371,13247,1,8,0:0:0:0:
137,131,13397,1,0,0:0:0:0:
87,384,13547,1,8,0:0:0:0:
11,231,13697,6,0,L|200:215,1,180,4|0,0:0|0:0,0:0:0:0:
278,180,14147,1,8,3:0:0:0:
222,305,14297,1,8,0:0:0:0:
208,133,14447,1,8,0:0:0:0:
336,282,14597,1,8,0:0:0:0:
280,98,14747,1,8,0:0:0:0:
136,324,14897,1,6,0:0:0:0:
136,324,15197,6,0,P|154:272|144:186,1,125.999996154785
100,84,15647,1,0,0:0:0:0:
27,187,15797,1,0,0:0:0:0:
149,202,15947,1,0,0:0:0:0:
100,84,16097,6,0,L|109:3,1,62.9999980773926,0|0,0:0|0:0,0:0:0:0:
194,113,16397,2,0,L|203:32,1,62.9999980773926,0|4,0:0|0:0,0:0:0:0:
302,53,16697,1,0,0:0:0:0:
269,210,16847,1,8,0:0:0:0:
255,228,16922,1,8,0:0:0:0:
238,242,16997,1,8,0:0:0:0:
217,251,17072,1,8,0:0:0:0:
195,256,17147,1,8,0:0:0:0:
173,254,17222,1,8,0:0:0:0:
152,247,17297,6,0,P|99:254|30:380,1,198.000006042481,6|0,0:0|0:0,0:0:0:0:
269,281,17747,2,0,L|258:178,1,99.0000030212403,8|0,0:0|0:0,0:0:0:0:
165,147,18047,1,2,0:0:0:0:
358,173,18197,1,0,0:0:0:0:
192,325,18347,1,8,0:0:0:0:
274,90,18497,6,0,B|333:77|333:77|408:101|408:101|479:84,1,198.000006042481,2|0,0:0|0:0,0:0:0:0:
329,160,18947,1,8,0:0:0:0:
412,19,19097,1,0,0:0:0:0:
412,231,19247,1,2,0:0:0:0:
294,44,19397,1,0,0:0:0:0:
444,242,19547,1,8,0:0:0:0:
194,217,19697,6,0,B|148:207|104:224|104:224|60:187|70:125,1,198.000006042481,6|0,0:0|0:0,0:0:0:0:
268,174,20147,2,0,P|279:229|252:286,1,99.0000030212403,8|0,0:0|0:0,0:0:0:0:
157,133,20447,1,2,0:0:0:0:
344,78,20597,1,0,0:0:0:0:
265,268,20747,1,8,0:0:0:0:
244,82,20897,6,0,P|185:37|72:76,1,198.000006042481,2|0,0:0|0:0,0:0:0:0:
154,212,21347,1,8,0:0:0:0:
75,71,21497,2,0,P|162:33|244:82,1,198.000006042481,0|0,0:0|3:0,0:0:0:0:
154,212,21947,1,8,0:0:0:0:
464,150,22097,6,0,B|372:196|372:105|274:152,1,198.000006042481,6|0,0:0|0:0,0:0:0:0:
341,311,22547,2,0,P|320:258|329:212,1,99.0000030212403,8|0,0:0|0:0,0:0:0:0:
422,76,22847,1,2,0:0:0:0:
413,251,22997,1,0,3:0:0:0:
490,33,23147,1,8,0:0:0:0:
327,218,23297,6,0,B|295:202|271:214|271:214|228:176|167:173|127:225,1,198.000006042481,2|0,0:0|0:0,0:0:0:0:
69,294,23747,1,8,0:0:0:0:
116,100,23897,1,0,0:0:0:0:
204,275,24047,1,2,0:0:0:0:
30,182,24197,1,0,0:0:0:0:
146,353,24347,1,8,0:0:0:0:
218,158,24497,6,0,P|270:130|400:177,1,198.000006042481,6|0,0:0|0:0,0:0:0:0:
145,211,24947,2,0,P|129:152|145:110,1,99.0000030212403,8|0,0:0|0:0,0:0:0:0:
246,56,25247,1,2,0:0:0:0:
218,274,25397,1,0,0:0:0:0:
159,29,25547,1,8,0:0:0:0:
303,173,25697,6,0,P|349:183|418:172,1,99.0000030212403,2|0,0:0|0:0,0:0:0:0:
203,115,25997,2,0,P|188:70|144:15,1,99.0000030212403,2|0,0:0|0:0,0:0:0:0:
196,234,26297,2,0,P|164:268|139:334,1,99.0000030212403,2|0,0:0|0:0,0:0:0:0:
306,355,26597,1,8,0:0:0:0:
354,361,26672,1,8,0:0:0:0:
403,350,26747,1,8,0:0:0:0:
445,325,26822,1,8,0:0:0:0:
476,286,26897,6,0,P|454:225|477:117,1,161.999995056153,6|0,0:0|0:0,0:0:0:0:
488,21,27347,2,0,L|398:34,1,80.9999975280763,8|0,0:0|0:0,0:0:0:0:
317,113,27647,1,2,0:0:0:0:
469,130,27797,1,0,0:0:0:0:
328,26,27947,1,8,0:0:0:0:
382,175,28097,6,0,L|364:343,1,161.999995056153,2|0,0:0|0:0,0:0:0:0:
270,203,28547,2,0,P|235:183|176:182,1,80.9999975280763,8|0,0:0|0:0,0:0:0:0:
293,291,28847,1,2,0:0:0:0:
308,119,28997,1,0,0:0:0:0:
196,280,29147,1,8,0:0:0:0:
365,210,29297,6,0,B|487:201|487:201|446:181,1,161.999995056153,2|0,0:0|0:0,0:0:0:0:
308,119,29747,1,8,0:0:0:0:
293,291,29897,1,0,0:0:0:0:
399,106,30047,1,2,0:0:0:0:
424,297,30197,1,0,0:0:0:0:
250,200,30347,1,8,0:0:0:0:
459,196,30497,6,0,P|478:144|477:110,1,80.9999975280763,2|0,0:0|0:0,0:0:0:0:
342,279,30797,2,0,P|344:319|361:356,1,80.9999975280763,0|8,0:0|0:0,0:0:0:0:
366,188,31097,1,0,0:0:0:0:
366,188,31247,1,2,0:0:0:0:
260,324,31397,1,0,0:0:0:0:
459,196,31547,1,8,0:0:0:0:
252,209,31697,6,0,B|233:152|233:152|239:102|239:102|221:40,1,161.999995056153,6|0,0:0|0:0,0:0:0:0:
321,144,32147,1,8,0:0:0:0:
152,109,32297,1,0,0:0:0:0:
152,109,32372,1,0,0:0:0:0:
152,109,32447,1,2,0:0:0:0:
176,229,32597,1,0,0:0:0:0:
224,52,32747,1,8,0:0:0:0:
359,180,32897,6,0,P|342:229|373:340,1,161.999995056153,2|0,0:0|0:0,0:0:0:0:
424,131,33347,2,0,P|392:103|334:104,1,80.9999975280763,8|0,0:0|0:0,0:0:0:0:
444,226,33647,1,2,0:0:0:0:
466,43,33797,1,0,0:0:0:0:
489,292,33947,1,8,0:0:0:0:
424,131,34097,6,0,P|364:143|274:94,1,161.999995056153,2|0,0:0|0:0,0:0:0:0:
206,30,34547,1,8,0:0:0:0:
211,173,34697,2,0,P|219:204|213:263,1,80.9999975280763,0|2,0:0|0:0,0:0:0:0:
91,103,34997,2,0,P|87:62|96:23,1,80.9999975280763,0|8,0:0|0:0,0:0:0:0:
116,199,35297,1,2,0:0:0:0:
206,30,35447,5,2,0:0:0:0:
226,31,35522,1,2,0:0:0:0:
246,33,35597,2,0,L|343:41,1,80.9999975280763,2|0,3:0|0:0,0:0:0:0:
199,140,35897,2,0,L|296:132,1,80.9999975280763,2|0,3:0|0:0,0:0:0:0:
155,237,36197,2,0,L|252:245,1,80.9999975280763,2|0,3:0|0:0,0:0:0:0:
359,334,36497,6,0,P|339:285|377:174,1,161.999995056153,6|0,0:0|0:0,0:0:0:0:
415,80,36947,2,0,P|376:58|327:61,1,80.9999975280763,8|0,0:0|0:0,0:0:0:0:
275,138,37247,1,2,0:0:0:0:
246,16,37397,1,0,0:0:0:0:
186,181,37547,1,8,0:0:0:0:
340,57,37697,6,0,L|424:52,1,80.9999975280763,2|0,0:0|0:0,0:0:0:0:
267,186,37997,2,0,L|183:181,1,80.9999975280763,0|8,0:0|0:0,0:0:0:0:
347,146,38297,2,0,P|357:189|336:242,1,80.9999975280763,0|2,0:0|0:0,0:0:0:0:
116,220,38597,2,0,P|107:180|117:142,1,80.9999975280763,0|8,0:0|0:0,0:0:0:0:
231,280,38897,6,0,P|263:335|371:335,1,161.999995056153,2|0,0:0|0:0,0:0:0:0:
464,192,39347,2,0,L|373:180,1,80.9999975280763,8|0,0:0|0:0,0:0:0:0:
320,259,39647,1,2,0:0:0:0:
338,92,39797,1,0,0:0:0:0:
404,263,39947,1,8,0:0:0:0:
268,169,40097,6,0,L|357:164,1,80.9999975280763,2|0,0:0|0:0,0:0:0:0:
471,346,40397,2,0,L|382:341,1,80.9999975280763,0|8,0:0|0:0,0:0:0:0:
309,267,40697,1,0,0:0:0:0:
496,265,40847,1,2,0:0:0:0:
307,352,40997,1,0,0:0:0:0:
445,197,41147,1,8,0:0:0:0:
248,208,41297,6,0,B|209:188|178:197|178:197|166:185|166:185|128:208|78:191,1,161.999995056153,6|0,0:0|0:0,0:0:0:0:
27,28,41747,2,0,P|39:78|32:125,1,80.9999975280763,8|0,0:0|0:0,0:0:0:0:
26,277,42047,1,2,0:0:0:0:
120,115,42197,1,0,0:0:0:0:
121,291,42347,1,8,0:0:0:0:
36,107,42497,6,0,P|58:57|180:56,1,161.999995056153,2|0,0:0|0:0,0:0:0:0:
281,27,42947,2,0,P|269:66|276:113,1,80.9999975280763,8|0,0:0|0:0,0:0:0:0:
331,197,43247,1,2,0:0:0:0:
182,163,43397,2,0,L|98:159,1,80.9999975280763,0|8,0:0|0:0,0:0:0:0:
273,105,43697,6,0,P|232:149|241:255,1,161.999995056153,6|0,0:0|0:0,0:0:0:0:
363,116,44147,2,0,P|360:71|338:37,1,80.9999975280763,8|0,0:0|0:0,0:0:0:0:
198,49,44447,1,2,0:0:0:0:
331,197,44597,2,0,L|425:193,1,80.9999975280763,0|8,0:0|0:0,0:0:0:0:
251,244,44897,6,0,P|237:210|247:160,1,80.9999975280763,6|0,0:0|0:0,0:0:0:0:
314,83,45197,1,0,0:0:0:0:
133,171,45347,1,8,0:0:0:0:
191,60,45497,1,2,0:0:0:0:
30,179,45647,1,8,0:0:0:0:
74,70,45797,1,2,0:0:0:0:
109,267,45947,1,8,0:0:0:0:
191,60,46097,6,0,L|338:50,1,135.000005149842,6|0,0:0|0:0,0:0:0:0:
238,154,46547,2,0,L|317:159,1,67.5000025749208,2|0,0:0|0:0,0:0:0:0:
191,248,46847,2,0,L|270:242,1,67.5000025749208,8|0,3:0|0:0,0:0:0:0:
238,342,47147,2,0,L|317:347,1,67.5000025749208,8|0,3:0|0:0,0:0:0:0:
258,243,47447,2,0,L|330:243,1,67.5000025749208,8|0,3:0|0:0,0:0:0:0:
238,154,47747,2,0,L|317:148,1,67.5000025749208,8|0,3:0|0:0,0:0:0:0:
456,185,48047,2,0,L|376:179,1,67.5000025749208,8|0,3:0|0:0,0:0:0:0:
305,149,48347,1,8,3:0:0:0:
376,89,48497,1,0,0:0:0:0:
388,180,48647,6,0,P|392:213|373:263,1,67.5000025749208,8|0,3:0|0:0,0:0:0:0:
305,149,48947,2,0,P|296:116|300:83,1,67.5000025749208,8|0,3:0|0:0,0:0:0:0:
288,244,49247,2,0,P|249:259|204:248,1,67.5000025749208,8|0,3:0|0:0,0:0:0:0:
148,110,49547,2,0,P|181:108|211:122,1,67.5000025749208,8|0,3:0|0:0,0:0:0:0:
123,217,49847,2,0,L|114:300,1,67.5000025749208,8|0,3:0|0:0,0:0:0:0:
224,256,50147,5,8,3:0:0:0:
45,141,50297,1,8,0:0:0:0:
45,141,50372,1,8,0:0:0:0:
45,141,50447,1,8,0:0:0:0:
290,183,50597,1,8,0:0:0:0:
41,300,50747,1,0,0:0:0:0:
180,86,50897,6,0,L|286:74,1,90,4|0,0:0|0:0,0:0:0:0:
487,33,51197,1,8,0:0:0:0:
407,163,51347,1,2,0:0:0:0:
335,27,51497,1,0,0:0:0:0:
485,221,51647,2,0,P|443:254|329:221,1,180,8|2,0:0|0:0,0:0:0:0:
200,113,52097,6,0,L|188:231,1,90,2|8,0:0|0:0,0:0:0:0:
48,371,52397,1,2,0:0:0:0:
197,329,52547,1,2,0:0:0:0:
87,223,52697,1,0,0:0:0:0:
349,270,52847,6,0,L|250:261,1,90,8|0,0:0|0:0,0:0:0:0:
111,309,53147,1,8,0:0:0:0:
421,339,53297,2,0,P|445:298|396:180,1,180,6|0,0:0|0:0,0:0:0:0:
297,76,53747,2,0,L|397:67,1,90,8|0,0:0|0:0,0:0:0:0:
300,179,54047,1,2,0:0:0:0:
212,19,54197,1,0,0:0:0:0:
401,183,54347,1,8,0:0:0:0:
142,163,54497,5,6,0:0:0:0:
142,163,54797,1,8,3:0:0:0:
137,207,54872,1,8,3:0:0:0:
132,252,54947,1,8,0:0:0:0:
128,297,55022,1,8,0:0:0:0:
123,342,55097,1,8,0:0:0:0:
123,342,55397,6,0,P|162:334|220:353,1,101.250003862381,0|0,0:0|0:0,0:0:0:0:
294,361,55697,6,0,B|319:283|319:283|306:223|306:223|329:145,1,225,6|0,0:0|0:0,0:0:0:0:
134,253,56147,2,0,P|186:283|238:276,1,112.5,8|0,0:0|0:0,0:0:0:0:
390,227,56447,1,2,0:0:0:0:
227,147,56597,1,0,0:0:0:0:
371,345,56747,1,8,0:0:0:0:
447,138,56897,6,0,P|399:81|250:78,1,225,2|0,0:0|0:0,0:0:0:0:
48,31,57347,2,0,P|66:86|51:146,1,112.5,8|0,0:0|0:0,0:0:0:0:
18,239,57647,1,2,0:0:0:0:
152,93,57797,1,0,0:0:0:0:
169,315,57947,1,8,0:0:0:0:
48,31,58097,6,0,B|207:14|207:14|265:61,1,225,6|0,0:0|0:0,0:0:0:0:
410,44,58547,2,0,L|417:166,1,112.5,8|0,0:0|0:0,0:0:0:0:
306,154,58847,1,2,0:0:0:0:
495,79,58997,1,0,0:0:0:0:
257,54,59147,1,8,0:0:0:0:
416,156,59297,6,0,B|479:268|368:268|437:378,1,225,2|0,0:0|0:0,0:0:0:0:
244,226,59747,2,0,P|293:208|367:229,1,112.5,8|0,0:0|0:0,0:0:0:0:
206,319,60047,1,2,0:0:0:0:
225,126,60197,1,0,0:0:0:0:
110,348,60347,1,8,0:0:0:0:
350,218,60497,6,0,B|292:196|292:196|218:209|218:209|125:175,1,225,6|0,0:0|0:0,0:0:0:0:
281,298,60947,1,8,0:0:0:0:
294,98,61097,1,0,0:0:0:0:
169,288,61247,1,2,0:0:0:0:
380,129,61397,1,0,0:0:0:0:
183,322,61547,1,8,0:0:0:0:
165,37,61697,6,0,P|234:64|327:14,1,180,6|0,0:0|0:0,0:0:0:0:
34,31,62147,1,8,0:0:0:0:
150,118,62297,6,0,P|238:141|365:87,1,225,6|0,0:0|0:0,0:0:0:0:
34,31,62747,1,8,0:0:0:0:
135,197,62897,6,0,P|244:219|399:164,1,270.000010299683,6|0,0:0|0:0,0:0:0:0:
34,31,63347,2,0,P|9:96|22:168,1,135.000005149842,8|0,0:0|0:0,0:0:0:0:
158,151,63647,1,2,0:0:0:0:
22,302,63797,1,0,0:0:0:0:
149,62,63947,1,8,0:0:0:0:
156,269,64097,6,0,P|217:279|267:267,1,112.5,6|0,0:0|0:0,0:0:0:0:
393,111,64397,2,0,P|338:99|283:109,1,112.5,2|8,0:0|0:0,0:0:0:0:
384,233,64697,1,2,0:0:0:0:
201,180,64847,1,8,0:0:0:0:
185,156,64922,1,8,0:0:0:0:
176,129,64997,1,8,0:0:0:0:
175,101,65072,1,8,0:0:0:0:
180,74,65147,1,8,0:0:0:0:
193,49,65222,1,8,0:0:0:0:
211,28,65297,6,0,B|285:70|363:21|363:21|393:81,1,225,6|0,0:0|0:0,0:0:0:0:
409,275,65747,1,8,0:0:0:0:
235,170,65897,2,0,P|281:152|357:164,1,112.5,0|2,0:0|0:0,0:0:0:0:
455,351,66197,2,0,P|399:357|347:338,1,112.5,0|8,0:0|0:0,0:0:0:0:
451,224,66497,6,0,B|472:61|472:61|419:24,1,225,2|0,0:0|0:0,0:0:0:0:
388,283,66947,2,0,P|442:312|503:296,1,112.5,8|0,0:0|0:0,0:0:0:0:
342,157,67247,1,2,0:0:0:0:
279,360,67397,1,0,0:0:0:0:
451,224,67547,1,8,0:0:0:0:
215,229,67697,6,0,B|232:171|222:114|222:114|170:135|111:102,1,225,6|0,0:0|0:0,0:0:0:0:
108,282,68147,1,8,0:0:0:0:
294,226,68297,2,0,P|302:160|298:107,1,112.5,0|2,0:0|0:0,0:0:0:0:
38,53,68597,2,0,P|35:109|43:164,1,112.5,0|8,0:0|0:0,0:0:0:0:
17,351,68897,6,0,B|49:305|49:305|154:284|221:317,1,225,2|0,0:0|0:0,0:0:0:0:
387,356,69347,2,0,P|380:289|395:239,1,112.5,8|0,0:0|0:0,0:0:0:0:
495,359,69647,1,2,0:0:0:0:
279,219,69797,1,0,0:0:0:0:
496,280,69947,1,8,0:0:0:0:
215,314,70097,6,0,P|167:245|226:119,1,225,6|0,0:0|0:0,0:0:0:0:
319,74,70547,1,8,0:0:0:0:
101,127,70697,2,0,P|77:230|120:347,1,225,0|0,0:0|0:0,0:0:0:0:
270,350,71147,1,8,0:0:0:0:
285,154,71297,6,0,P|247:105|90:147,1,225,6|0,0:0|0:0,0:0:0:0:
270,350,71747,1,8,0:0:0:0:
102,127,71897,6,0,P|202:87|286:155,1,225,6|0,0:0|0:0,0:0:0:0:
270,350,72347,1,8,0:0:0:0:
286,154,72497,6,0,B|310:20|310:20|328:71,1,180,6|0,0:0|0:0,0:0:0:0:
366,234,72947,1,8,0:0:0:0:
177,189,73097,1,0,0:0:0:0:
384,137,73247,1,8,0:0:0:0:
254,289,73397,1,0,0:0:0:0:
323,61,73547,1,8,0:0:0:0:
337,315,73697,6,0,P|308:359|186:346,1,180,6|0,0:0|0:0,0:0:0:0:
328,168,74147,2,0,L|421:180,1,90,8|0,0:0|0:0,0:0:0:0:
260,246,74447,1,8,0:0:0:0:
243,228,74522,1,8,0:0:0:0:
232,206,74597,1,8,0:0:0:0:
225,182,74672,1,8,0:0:0:0:
225,157,74747,1,8,0:0:0:0:
230,133,74822,1,8,0:0:0:0:
241,111,74897,6,0,L|464:139,1,215.999993408203,6|0,0:0|0:0,0:0:0:0:
360,47,75347,2,0,L|245:33,1,107.999996704102,8|0,0:0|0:0,0:0:0:0:
84,22,75647,2,0,B|113:73|62:159|62:159|115:208,1,215.999993408203,2|8,0:0|0:0,0:0:0:0:
31,346,76097,2,0,P|81:322|141:327,1,107.999996704102,2|0,0:0|0:0,0:0:0:0:
260,355,76397,2,0,B|285:302|265:251|265:251|306:204|275:135,1,215.999993408203,0|0,0:0|0:0,0:0:0:0:
191,80,76847,1,2,0:0:0:0:
132,324,76997,1,2,0:0:0:0:
16,197,77147,1,8,0:0:0:0:
281,149,77297,6,0,B|436:166|436:166|381:202,1,215.999993408203,6|0,0:0|0:0,0:0:0:0:
209,200,77747,2,0,P|192:152|217:90,1,107.999996704102,8|0,0:0|0:0,0:0:0:0:
297,246,78047,1,2,0:0:0:0:
111,216,78197,1,2,0:0:0:0:
385,198,78347,1,8,0:0:0:0:
190,352,78497,6,0,P|180:295|205:248,1,107.999996704102,2|0,0:0|0:0,0:0:0:0:
306,118,78797,2,0,B|222:149|174:73|174:73|121:136,1,215.999993408203,0|0,0:0|0:0,0:0:0:0:
201,251,79247,1,2,0:0:0:0:
262,32,79397,1,2,0:0:0:0:
299,222,79547,1,8,0:0:0:0:
134,121,79697,6,0,P|79:142|62:293,1,215.999993408203,6|0,0:0|0:0,0:0:0:0:
241,227,80147,2,0,P|181:212|134:225,1,107.999996704102,8|0,0:0|0:0,0:0:0:0:
264,329,80447,1,2,0:0:0:0:
237,123,80597,1,2,0:0:0:0:
139,314,80747,1,8,0:0:0:0:
336,213,80897,6,0,P|400:198|440:211,1,107.999996704102,2|0,0:0|0:0,0:0:0:0:
264,329,81197,1,0,0:0:0:0:
439,211,81347,2,0,P|458:152|444:103,1,107.999996704102,8|0,0:0|0:0,0:0:0:0:
331,108,81647,1,2,0:0:0:0:
505,11,81797,1,2,0:0:0:0:
336,213,81947,1,8,0:0:0:0:
401,28,82097,6,0,B|254:16|254:16|191:59,1,215.999993408203,6|0,0:0|3:0,0:0:0:0:
142,168,82547,1,8,3:0:0:0:
76,25,82697,1,8,3:0:0:0:
221,136,82847,1,8,3:0:0:0:
37,131,82997,1,8,3:0:0:0:
168,277,83147,1,8,3:0:0:0:
209,56,83297,5,4,3:0:0:0:
244,55,83372,1,0,0:0:0:0:
275,72,83447,1,8,0:0:0:0:
293,103,83522,1,8,0:0:0:0:
321,149,83597,5,4,3:0:0:0:
353,165,83672,1,0,0:0:0:0:
388,164,83747,1,8,0:0:0:0:
419,146,83822,1,8,0:0:0:0:
449,190,83897,5,4,3:0:0:0:
447,225,83972,1,0,0:0:0:0:
445,260,84047,1,8,0:0:0:0:
444,295,84122,1,8,0:0:0:0:
392,280,84197,5,4,3:0:0:0:
361,261,84272,1,0,0:0:0:0:
325,254,84347,1,8,0:0:0:0:
290,265,84422,1,0,0:0:0:0:
264,294,84497,6,0,B|210:252|153:282|153:282|172:230|150:171,1,215.999993408203,4|0,0:0|0:0,0:0:0:0:
200,361,84947,2,0,P|256:385|312:369,1,107.999996704102,8|0,0:0|0:0,0:0:0:0:
423,346,85247,1,2,0:0:0:0:
264,294,85397,1,0,0:0:0:0:
392,244,85547,1,8,0:0:0:0:
200,361,85697,6,0,P|173:306|228:168,1,215.999993408203,2|0,0:0|0:0,0:0:0:0:
230,42,86147,2,0,P|168:57|109:43,1,107.999996704102,8|0,0:0|0:0,0:0:0:0:
11,173,86447,1,2,0:0:0:0:
37,15,86597,1,0,0:0:0:0:
142,199,86747,1,8,0:0:0:0:
125,49,86897,6,0,L|348:33,1,215.999993408203,6|0,0:0|0:0,0:0:0:0:
476,34,87347,2,0,P|490:93|477:152,1,107.999996704102,8|0,0:0|0:0,0:0:0:0:
321,202,87647,1,2,0:0:0:0:
340,33,87797,1,0,0:0:0:0:
482,138,87947,1,8,0:0:0:0:
310,115,88097,6,0,P|216:94|132:183,1,215.999993408203,2|0,0:0|0:0,0:0:0:0:
242,294,88547,2,0,P|257:233|231:184,1,107.999996704102,8|0,0:0|0:0,0:0:0:0:
132,331,88847,1,2,0:0:0:0:
356,278,88997,1,0,0:0:0:0:
135,170,89147,1,8,0:0:0:0:
256,350,89297,6,0,L|475:359,1,215.999993408203,6|0,0:0|0:0,0:0:0:0:
356,278,89747,2,0,P|342:218|364:157,1,107.999996704102,8|0,0:0|0:0,0:0:0:0:
315,52,90047,1,2,0:0:0:0:
437,223,90197,1,0,0:0:0:0:
474,40,90347,1,8,0:0:0:0:
271,210,90497,6,0,B|211:237|134:213|134:213|145:169|119:119,1,215.999993408203,2|0,0:0|0:0,0:0:0:0:
149,301,90947,2,0,P|208:309|272:296,1,107.999996704102,8|0,0:0|0:0,0:0:0:0:
215,141,91247,1,2,0:0:0:0:
51,310,91397,1,0,0:0:0:0:
115,76,91547,1,8,0:0:0:0:
255,301,91697,6,0,B|299:284|337:306|337:306|357:289|357:289|407:324|462:308,1,215.999993408203,6|0,0:0|0:0,0:0:0:0:
419,122,92147,2,0,P|410:174|427:226,1,107.999996704102,8|0,0:0|0:0,0:0:0:0:
497,34,92447,1,2,0:0:0:0:
301,125,92597,1,0,0:0:0:0:
506,244,92747,1,8,0:0:0:0:
301,125,92897,6,0,L|184:118,1,107.999996704102,2|0,0:0|0:0,0:0:0:0:
284,354,93197,2,0,L|401:347,1,107.999996704102,2|0,0:0|0:0,0:0:0:0:
130,247,93497,2,0,L|358:233,1,215.999993408203,2|8,0:0|0:0,0:0:0:0:
345,234,93872,1,8,0:0:0:0:
345,234,93947,1,8,0:0:0:0:
471,105,94097,6,0,P|396:109|324:46,1,161.999995056153,6|8,0:0|0:0,0:0:0:0:
217,30,94547,1,2,0:0:0:0:
276,161,94697,1,0,0:0:0:0:
140,95,94847,2,0,P|86:88|46:104,1,80.9999975280763,8|0,0:0|0:0,0:0:0:0:
42,197,95147,1,0,0:0:0:0:
208,174,95297,6,0,P|236:135|204:17,1,161.999995056153,2|8,0:0|0:0,0:0:0:0:
120,59,95747,1,0,0:0:0:0:
318,33,95897,1,0,0:0:0:0:
86,178,96047,1,8,0:0:0:0:
217,29,96197,1,0,0:0:0:0:
243,277,96347,1,8,0:0:0:0:
168,118,96497,6,0,L|356:109,1,161.999995056153,2|8,0:0|0:0,0:0:0:0:
460,57,96947,2,0,P|450:107|462:149,1,80.9999975280763,2|0,0:0|0:0,0:0:0:0:
479,299,97247,2,0,P|424:260|323:277,1,161.999995056153,8|0,0:0|0:0,0:0:0:0:
227,343,97697,6,0,L|233:248,1,80.9999975280763,2|0,0:0|0:0,0:0:0:0:
130,261,97997,2,0,L|119:94,1,161.999995056153,8|8,0:0|0:0,0:0:0:0:
119,99,98372,1,8,0:0:0:0:
119,99,98447,1,8,0:0:0:0:
19,187,98597,1,8,0:0:0:0:
20,16,98747,1,8,0:0:0:0:
203,125,98897,6,0,L|295:121,1,80.9999975280763,6|0,0:0|0:0,0:0:0:0:
498,233,99197,1,8,0:0:0:0:
466,107,99347,1,2,0:0:0:0:
371,195,99497,1,0,0:0:0:0:
375,28,99647,2,0,L|200:20,1,161.999995056153,8|2,0:0|0:0,0:0:0:0:
83,30,100097,6,0,P|103:76|69:193,1,161.999995056153,2|8,0:0|0:0,0:0:0:0:
19,299,100547,2,0,P|72:283|112:289,1,80.9999975280763,2|0,0:0|0:0,0:0:0:0:
209,339,100847,1,8,0:0:0:0:
79,181,100997,1,0,0:0:0:0:
72,371,101147,1,8,0:0:0:0:
197,159,101297,6,0,P|240:131|354:144,1,161.999995056153,6|0,0:0|0:0,0:0:0:0:
489,211,101747,2,0,L|478:116,1,80.9999975280763,8|0,0:0|0:0,0:0:0:0:
346,139,102047,1,2,0:0:0:0:
491,15,102197,1,0,0:0:0:0:
392,228,102347,2,0,P|347:240|297:224,1,80.9999975280763,8|2,0:0|0:0,0:0:0:0:
418,75,102647,5,8,0:0:0:0:
451,290,102797,1,0,0:0:0:0:
338,91,102947,1,8,0:0:0:0:
352,308,103097,1,0,0:0:0:0:
256,92,103247,1,8,0:0:0:0:
479,182,103397,1,2,0:0:0:0:
479,182,103697,6,0,P|504:119|480:21,1,161.999995056153,6|0,0:0|0:0,0:0:0:0:
355,80,104147,2,0,P|295:94|256:82,1,80.9999975280763,8|0,0:0|0:0,0:0:0:0:
179,30,104447,1,2,0:0:0:0:
215,189,104597,2,0,L|212:284,1,80.9999975280763,0|8,0:0|0:0,0:0:0:0:
72,136,104897,6,0,P|118:119|171:128,1,80.9999975280763,2|0,0:0|0:0,0:0:0:0:
289,285,105197,2,0,P|248:285|211:269,1,80.9999975280763,0|8,0:0|0:0,0:0:0:0:
366,234,105497,2,0,P|382:275|370:332,1,80.9999975280763,0|2,0:0|0:0,0:0:0:0:
140,323,105797,2,0,P|124:282|136:225,1,80.9999975280763,0|8,0:0|0:0,0:0:0:0:
72,136,106097,6,0,P|139:132|204:57,1,161.999995056153,2|0,0:0|0:0,0:0:0:0:
319,34,106547,2,0,L|323:133,1,80.9999975280763,8|0,0:0|0:0,0:0:0:0:
280,229,106847,1,2,0:0:0:0:
400,212,106997,2,0,P|442:206|501:221,1,80.9999975280763,0|8,0:0|0:0,0:0:0:0:
322,115,107297,6,0,L|138:106,1,161.999995056153,2|0,0:0|0:0,0:0:0:0:
24,46,107747,2,0,P|38:100|32:137,1,80.9999975280763,8|0,0:0|0:0,0:0:0:0:
55,246,108047,1,2,0:0:0:0:
160,106,108197,1,0,0:0:0:0:
159,284,108347,1,8,0:0:0:0:
35,124,108497,6,0,L|214:99,1,161.999995056153,6|0,0:0|0:0,0:0:0:0:
320,40,108947,2,0,P|311:83|334:132,1,80.9999975280763,8|0,0:0|0:0,0:0:0:0:
422,147,109247,1,2,0:0:0:0:
249,190,109397,1,0,0:0:0:0:
414,52,109547,1,8,0:0:0:0:
351,229,109697,6,0,B|338:346|338:346|302:293,1,161.999995056153,2|0,0:0|0:0,0:0:0:0:
433,314,110147,2,0,L|443:216,1,80.9999975280763,8|0,0:0|0:0,0:0:0:0:
403,97,110447,1,2,0:0:0:0:
351,229,110597,2,0,P|296:242|257:232,1,80.9999975280763,0|8,0:0|0:0,0:0:0:0:
154,270,110897,6,0,P|179:212|150:111,1,161.999995056153,2|0,0:0|0:0,0:0:0:0:
217,23,111347,2,0,L|322:30,1,80.9999975280763,8|0,0:0|0:0,0:0:0:0:
423,74,111647,1,2,0:0:0:0:
263,179,111797,2,0,P|251:136|267:92,1,80.9999975280763,0|8,0:0|0:0,0:0:0:0:
277,323,112097,6,0,P|233:334|190:326,1,80.9999975280763,6|0,0:0|0:0,0:0:0:0:
74,212,112397,2,0,P|113:207|152:218,1,80.9999975280763,2|8,0:0|0:0,0:0:0:0:
33,304,112697,1,2,0:0:0:0:
63,112,112847,1,8,0:0:0:0:
198,329,112997,1,2,0:0:0:0:
160,120,113147,1,8,0:0:0:0:
33,304,113297,6,0,L|180:296,1,135.000005149842,6|0,0:0|0:0,0:0:0:0:
227,214,113747,2,0,L|129:208,1,67.5000025749208,0|0,0:0|0:0,0:0:0:0:
99,128,114047,1,0,0:0:0:0:
199,117,114197,2,0,L|296:111,1,67.5000025749208,0|0,0:0|0:0,0:0:0:0:
366,95,114497,2,0,P|349:137|353:171,1,67.5000025749208,0|0,0:0|0:0,0:0:0:0:
438,208,114797,2,0,P|467:281|460:341,1,135.000005149842,0|0,0:0|0:0,0:0:0:0:
367,301,115247,6,0,P|322:281|228:294,1,135.000005149842,0|0,0:0|0:0,0:0:0:0:
143,322,115697,2,0,L|148:244,1,67.5000025749208,0|0,0:0|0:0,0:0:0:0:
72,184,115997,2,0,L|67:106,1,67.5000025749208,0|0,0:0|0:0,0:0:0:0:
140,48,116297,1,0,0:0:0:0:
209,121,116447,1,0,0:0:0:0:
282,53,116597,2,0,P|327:44|359:54,1,67.5000025749208,0|0,0:0|0:0,0:0:0:0:
448,37,116897,6,0,P|435:79|464:180,1,135.000005149842,0|0,0:0|0:0,0:0:0:0:
473,265,117347,2,0,L|391:259,1,67.5000025749208,0|0,0:0|0:0,0:0:0:0:
304,254,117647,1,2,3:0:0:0:
454,166,117797,1,2,0:0:0:0:
494,368,117947,1,8,0:0:0:0:
348,157,118097,6,0,L|197:147,1,144,6|0,0:0|0:0,0:0:0:0:
67,103,118547,1,8,0:0:0:0:
67,103,118697,2,0,L|49:198,1,72,0|8,0:0|0:0,0:0:0:0:
155,302,118997,2,0,L|137:207,1,72,0|8,0:0|0:0,0:0:0:0:
204,147,119297,2,0,P|250:125|351:132,1,144,0|0,0:0|0:0,0:0:0:0:
463,115,119747,6,0,P|453:159|461:191,1,72,8|0,0:0|0:0,0:0:0:0:
452,292,120047,1,8,0:0:0:0:
361,232,120197,1,0,0:0:0:0:
458,184,120347,1,8,0:0:0:0:
355,341,120497,1,6,0:0:0:0:
355,341,121697,5,6,0:0:0:0:
355,341,121997,5,0,0:0:0:0:
355,341,122147,2,0,L|263:336,1,72,8|0,0:0|0:3,0:0:0:0:
175,349,122447,1,8,0:0:0:0:
186,334,122522,1,8,0:3:0:0:
194,318,122597,1,8,0:3:0:0:
200,301,122672,1,8,0:3:0:0:
203,284,122747,1,8,0:3:0:0:
203,266,122822,1,8,0:3:0:0:
199,248,122897,6,0,P|239:229|359:248,1,161.999995056153,6|0,0:0|0:0,0:0:0:0:
460,175,123347,2,0,L|457:89,1,80.9999975280763,2|0,0:0|0:0,0:0:0:0:
353,157,123647,2,0,L|350:71,1,80.9999975280763,2|0,0:0|0:0,0:0:0:0:
244,136,123947,2,0,L|241:50,1,80.9999975280763,2|0,0:0|0:0,0:0:0:0:
201,214,124247,6,0,P|233:227|278:219,1,80.9999975280763,2|0,0:0|0:0,0:0:0:0:
134,100,124547,2,0,P|94:91|57:105,1,80.9999975280763,2|0,0:0|0:0,0:0:0:0:
23,222,124847,2,0,L|30:318,1,80.9999975280763,2|0,0:0|0:0,0:0:0:0:
132,353,125147,1,2,0:0:0:0:
103,173,125297,1,8,0:0:0:0:
246,266,125447,6,0,P|211:280|162:278,1,80.9999975280763,0|0,0:0|0:0,0:0:0:0:
59,86,125747,2,0,P|99:85|136:99,1,80.9999975280763,2|0,0:0|0:0,0:0:0:0:
249,54,126047,2,0,L|254:150,1,80.9999975280763,2|0,0:0|0:0,0:0:0:0:
87,164,126347,2,0,L|82:260,1,80.9999975280763,2|0,0:0|0:0,0:0:0:0:
31,359,126647,6,0,P|76:339|119:340,1,80.9999975280763,2|0,0:0|0:0,0:0:0:0:
187,247,126947,2,0,P|232:267|275:266,1,80.9999975280763,4|0,0:0|0:0,0:0:0:0:
375,315,127247,2,0,P|387:269|371:217,1,80.9999975280763,2|0,0:0|0:0,0:0:0:0:
399,119,127547,1,8,3:0:0:0:
263,268,127697,6,0,P|236:206|272:104,1,161.999995056153,6|0,0:0|0:0,0:0:0:0:
152,174,128147,2,0,P|110:187|65:177,1,80.9999975280763,2|0,0:0|0:0,0:0:0:0:
29,332,128447,2,0,P|68:326|106:339,1,80.9999975280763,8|0,0:0|0:0,0:0:0:0:
231,362,128747,1,2,0:0:0:0:
92,219,128897,6,0,P|80:175|95:124,1,80.9999975280763,2|0,0:0|0:0,0:0:0:0:
28,34,129197,2,0,P|74:49|180:17,1,161.999995056153,8|0,0:0|0:0,0:0:0:0:
292,63,129647,1,8,0:0:0:0:
140,138,129797,1,0,0:0:0:0:
371,99,129947,1,8,0:0:0:0:
236,299,130097,6,0,P|206:253|224:149,1,161.999995056153,6|0,0:0|0:0,0:0:0:0:
292,63,130547,1,8,0:0:0:0:
112,122,130697,2,0,P|54:137|9:128,1,80.9999975280763,2|0,0:0|0:0,0:0:0:0:
177,38,130997,1,0,0:0:0:0:
129,227,131147,1,8,0:0:0:0:
292,63,131297,6,0,B|348:84|348:84|393:79|393:79|458:100,1,161.999995056153,6|0,0:0|0:0,0:0:0:0:
357,3,131747,1,8,0:0:0:0:
386,166,131897,5,0,0:0:0:0:
405,193,131972,1,0,0:0:0:0:
416,225,132047,1,12,3:0:0:0:
416,258,132122,1,8,3:0:0:0:
406,290,132197,1,8,3:0:0:0:
387,318,132272,1,8,3:0:0:0:
360,338,132347,1,8,3:0:0:0:
328,349,132422,1,8,3:0:0:0:
294,350,132497,6,0,B|246:310|193:332|193:332|144:356|80:322,1,215.999993408203,6|0,0:0|0:0,0:0:0:0:
151,146,132947,2,0,P|160:201|141:265,1,107.999996704102,8|0,0:0|0:0,0:0:0:0:
64,105,133247,1,2,0:0:0:0:
248,132,133397,1,0,0:0:0:0:
106,18,133547,1,8,0:0:0:0:
226,220,133697,6,0,L|337:213,1,107.999996704102,2|0,0:0|0:0,0:0:0:0:
213,24,133997,2,0,L|102:17,1,107.999996704102,0|8,0:0|0:0,0:0:0:0:
309,116,134297,2,0,P|324:63|311:7,1,107.999996704102,0|2,0:0|0:0,0:0:0:0:
49,159,134597,2,0,P|38:211|53:262,1,107.999996704102,0|8,0:0|0:0,0:0:0:0:
339,342,134897,6,0,B|286:326|258:340|258:340|249:323|249:323|209:355|168:355|136:333,1,215.999993408203,6|0,0:0|0:0,0:0:0:0:
39,145,135347,2,0,L|156:155,1,107.999996704102,8|0,0:0|0:0,0:0:0:0:
182,256,135647,1,2,0:0:0:0:
136,47,135797,1,0,0:0:0:0:
65,301,135947,1,8,0:0:0:0:
227,120,136097,6,0,B|303:112|303:112|359:131|359:131|461:119,1,215.999993408203,2|0,0:0|0:0,0:0:0:0:
307,295,136547,2,0,B|286:240|286:240|293:181,1,107.999996704102,8|0,0:0|0:0,0:0:0:0:
369,48,136847,1,2,0:0:0:0:
199,213,136997,1,0,0:0:0:0:
288,29,137147,1,8,0:0:0:0:
414,225,137297,6,0,L|195:212,1,215.999993408203,6|0,0:0|0:0,0:0:0:0:
371,109,137747,1,8,0:0:0:0:
365,338,137897,1,0,0:0:0:0:
256,111,138047,1,2,0:0:0:0:
455,311,138197,1,0,0:0:0:0:
273,85,138347,1,8,0:0:0:0:
185,348,138497,6,0,L|383:336,1,180,6|2,0:0|0:0,0:0:0:0:
193,148,138947,1,8,0:0:0:0:
141,351,139097,6,0,L|384:336,1,225,6|2,0:0|0:0,0:0:0:0:
193,148,139547,1,8,0:0:0:0:
96,354,139697,6,0,L|391:336,1,270.000010299683,6|0,0:0|0:0,0:0:0:0:
193,148,140147,2,0,P|181:77|206:11,1,135.000005149842,8|8,0:0|3:0,0:0:0:0:
279,206,140447,1,8,0:0:0:0:
262,227,140522,1,8,3:0:0:0:
240,243,140597,1,8,3:0:0:0:
215,252,140672,1,8,3:0:0:0:
188,255,140747,1,8,0:0:0:0:
162,251,140822,1,8,0:0:0:0:
137,240,140897,6,0,P|92:204|79:140,1,107.999996704102,6|0,0:0|0:0,0:0:0:0:
305,126,141197,2,0,P|350:162|363:226,1,107.999996704102,0|8,0:0|0:0,0:0:0:0:
187,112,141497,2,0,L|203:0,1,107.999996704102,0|8,0:0|0:0,0:0:0:0:
279,206,141797,1,8,0:0:0:0:
282,232,141872,1,8,0:0:0:0:
286,259,141947,1,8,0:0:0:0:
290,286,142022,1,8,0:0:0:0:
293,312,142097,6,0,B|241:337|198:312|198:312|184:334|184:334|145:302|91:315,1,215.999993408203,6|0,0:0|0:0,0:0:0:0:
23,187,142547,1,8,0:0:0:0:
169,138,142697,2,0,P|181:196|163:255,1,107.999996704102,0|2,0:0|0:0,0:0:0:0:
24,366,142997,2,0,P|12:313|24:261,1,107.999996704102,0|8,0:0|0:0,0:0:0:0:
16,86,143297,6,0,P|81:99|205:16,1,215.999993408203,2|0,0:0|0:0,0:0:0:0:
227,158,143747,2,0,L|220:272,1,107.999996704102,8|0,0:0|0:0,0:0:0:0:
360,123,144047,1,2,0:0:0:0:
201,23,144197,1,0,0:0:0:0:
424,81,144347,1,8,0:0:0:0:
227,158,144497,6,0,B|92:140|92:140|19:200,1,215.999993408203,6|0,0:0|0:0,0:0:0:0:
248,248,144947,1,8,0:0:0:0:
270,75,145097,2,0,L|146:58,1,107.999996704102,0|2,0:0|0:0,0:0:0:0:
32,290,145397,2,0,L|156:273,1,107.999996704102,0|8,0:0|0:0,0:0:0:0:
260,213,145697,6,0,P|251:280|368:369,1,215.999993408203,2|0,0:0|0:0,0:0:0:0:
329,159,146147,2,0,P|285:129|218:136,1,107.999996704102,8|0,0:0|0:0,0:0:0:0:
359,259,146447,1,2,0:0:0:0:
370,61,146597,1,0,0:0:0:0:
462,257,146747,1,8,0:0:0:0:
280,156,146897,6,0,B|129:145|129:145|92:85,1,215.999993408203,6|0,0:0|0:0,0:0:0:0:
227,37,147347,1,8,0:0:0:0:
109,222,147497,2,0,L|220:230,1,107.999996704102,0|2,0:0|0:0,0:0:0:0:
302,74,147797,1,0,0:0:0:0:
326,265,147947,1,8,0:0:0:0:
385,71,148097,6,0,P|319:-4|227:37,1,215.999993408203,6|0,0:0|0:0,0:0:0:0:
326,265,148547,1,8,0:0:0:0:
226,38,148697,6,0,P|317:-4|385:71,1,215.999993408203,6|2,0:0|0:0,0:0:0:0:
326,265,149147,1,8,0:0:0:0:
385,71,149297,6,0,B|260:81|260:81|222:32,1,180,6|0,0:0|0:0,0:0:0:0:
484,26,149747,1,8,0:0:0:0:
404,246,149897,1,2,0:0:0:0:
297,3,150047,1,8,0:0:0:0:
493,154,150197,1,2,0:0:0:0:
216,113,150347,1,8,0:0:0:0:
484,26,150497,6,0,P|432:66|456:180,1,180,6|0,0:0|0:0,0:0:0:0:
325,282,150947,1,8,0:0:0:0:
504,109,151097,1,2,0:0:0:0:
268,48,151247,1,8,0:0:0:0:
438,221,151397,1,2,0:0:0:0:
203,285,151547,1,8,0:0:0:0:
407,80,151697,6,0,P|446:153|374:286,1,215.999993408203,6|0,0:0|0:0,0:0:0:0:
325,89,152147,2,0,P|334:36|390:0,1,107.999996704102,8|0,0:0|0:0,0:0:0:0:
350,183,152447,1,2,0:0:0:0:
232,59,152597,1,0,0:0:0:0:
407,80,152747,1,8,0:0:0:0:
199,195,152897,6,0,P|133:201|55:65,1,215.999993408203,2|0,0:0|0:0,0:0:0:0:
288,37,153347,2,0,L|301:157,1,107.999996704102,8|0,0:0|0:0,0:0:0:0:
125,286,153647,1,2,0:0:0:0:
161,93,153797,1,0,0:0:0:0:
293,289,153947,1,8,0:0:0:0:
26,160,154097,6,0,B|171:139|171:139|226:189,1,215.999993408203,6|0,0:0|0:0,0:0:0:0:
149,359,154547,2,0,P|129:309|150:235,1,107.999996704102,8|0,0:0|0:0,0:0:0:0:
307,131,154847,1,2,0:0:0:0:
212,299,154997,1,0,0:0:0:0:
176,73,155147,1,8,0:0:0:0:
321,256,155297,6,0,P|377:274|437:257,1,107.999996704102,2|0,0:0|0:0,0:0:0:0:
146,180,155597,2,0,P|93:170|43:188,1,107.999996704102,0|8,0:0|0:0,0:0:0:0:
256,166,155897,2,0,B|287:87|260:5|260:5|231:53,1,215.999993408203,0|0,0:0|0:0,0:0:0:0:
146,245,156347,1,8,0:0:0:0:
356,195,156497,6,0,B|509:181|509:181|446:224,1,215.999993408203,6|0,0:0|0:0,0:0:0:0:
296,278,156947,1,8,0:0:0:0:
322,98,157097,1,0,0:0:0:0:
393,290,157247,1,2,0:0:0:0:
228,138,157397,1,0,0:0:0:0:
226,348,157547,1,8,0:0:0:0:
410,150,157697,6,0,L|179:134,1,215.999993408203,2|0,0:0|0:0,0:0:0:0:
119,298,158147,2,0,P|95:254|114:179,1,107.999996704102,8|0,0:0|0:0,0:0:0:0:
219,246,158447,1,2,0:0:0:0:
18,244,158597,1,0,0:0:0:0:
194,135,158747,1,8,0:0:0:0:
213,351,158897,6,0,P|249:298|396:338,1,215.999993408203,6|0,0:0|0:0,0:0:0:0:
360,202,159347,2,0,L|350:79,1,107.999996704102,8|0,0:0|0:0,0:0:0:0:
306,371,159647,1,2,0:0:0:0:
449,244,159797,1,0,0:0:0:0:
221,247,159947,1,8,0:0:0:0:
482,362,160097,6,0,L|462:139,1,215.999993408203,6|0,0:0|0:0,0:0:0:0:
489,25,160547,1,8,0:0:0:0:
333,132,160697,1,0,3:0:0:0:
308,142,160772,1,0,3:0:0:0:
281,146,160847,1,8,0:0:0:0:
254,143,160922,1,8,3:0:0:0:
229,133,160997,1,8,3:0:0:0:
207,118,161072,1,8,3:0:0:0:
183,107,161147,1,8,3:0:0:0:
156,103,161222,1,8,3:0:0:0:
129,106,161297,6,0,B|147:178|147:178|99:194|74:254|100:303,1,215.999993408203,6|0,0:0|0:0,0:0:0:0:
289,258,161747,2,0,L|168:263,1,107.999996704102,8|0,0:0|0:0,0:0:0:0:
334,149,162047,1,2,0:0:0:0:
245,352,162197,1,0,0:0:0:0:
212,110,162347,1,8,0:0:0:0:
384,298,162497,6,0,P|425:238|397:95,1,215.999993408203,2|0,0:0|0:0,0:0:0:0:
283,231,162947,2,0,L|160:240,1,107.999996704102,8|0,0:0|0:0,0:0:0:0:
88,337,163247,1,2,0:0:0:0:
131,119,163397,1,0,0:0:0:0:
2,362,163547,1,8,0:0:0:0:
220,154,163697,6,0,B|373:141|373:141|311:110,1,215.999993408203,6|0,0:0|0:0,0:0:0:0:
131,119,164147,2,0,P|124:175|155:225,1,107.999996704102,8|0,0:0|0:0,0:0:0:0:
223,51,164447,1,2,0:0:0:0:
18,144,164597,1,0,0:0:0:0:
238,234,164747,1,8,0:0:0:0:
36,34,164897,6,0,B|18:145|18:145|66:174|118:142,1,215.999993408203,2|0,0:0|0:0,0:0:0:0:
341,241,165347,2,0,P|281:224|221:242,1,107.999996704102,8|0,0:0|0:0,0:0:0:0:
137,342,165647,1,2,0:0:0:0:
115,143,165797,1,0,0:0:0:0:
26,302,165947,1,8,0:0:0:0:
237,233,166097,6,0,B|216:69|216:69|264:105,1,215.999993408203,6|0,0:0|0:0,0:0:0:0:
128,250,166547,2,0,L|114:136,1,107.999996704102,8|0,0:0|0:0,0:0:0:0:
208,316,166847,1,2,0:0:0:0:
26,265,166997,1,0,0:0:0:0:
229,167,167147,1,8,0:0:0:0:
31,358,167297,6,0,P|93:329|81:190,1,215.999993408203,2|0,0:0|0:0,0:0:0:0:
31,53,167747,2,0,L|153:67,1,107.999996704102,8|0,0:0|0:0,0:0:0:0:
268,129,168047,1,2,0:0:0:0:
89,197,168197,1,0,0:0:0:0:
228,46,168347,1,8,0:0:0:0:
226,322,168497,6,0,B|266:298|313:312|313:312|328:294|328:294|375:330|441:306,1,215.999993408203,6|0,0:0|0:0,0:0:0:0:
403,130,168947,2,0,P|383:177|395:242,1,107.999996704102,8|0,0:0|0:0,0:0:0:0:
500,359,169247,1,2,0:0:0:0:
467,188,169397,1,0,0:0:0:0:
351,368,169547,1,8,0:0:0:0:
403,130,169697,1,0,0:0:0:0:
500,359,169847,5,2,0:0:0:0:
245,243,169997,1,0,0:0:0:0:
475,80,170147,1,8,0:0:0:0:
360,328,170297,2,0,L|231:336,1,107.999996704102,2|0,0:0|0:0,0:0:0:0:
185,110,170597,2,0,P|239:122|308:94,1,107.999996704102,6|0,0:0|0:0,0:0:0:0:
65,68,170897,6,0,P|100:149|48:264,1,216,6|2,0:0|0:0,0:0:0:0:
52,260,171647,1,8,0:0:0:0:
209,344,172097,6,0,B|263:290|263:290|424:322,1,216,2|2,0:0|0:0,0:0:0:0:
400,318,172847,1,8,0:0:0:0:
417,89,173297,6,0,P|370:117|245:34,1,216,2|2,0:0|0:0,0:0:0:0:
246,42,174047,1,8,0:0:0:0:
83,240,174497,6,0,L|316:221,1,216,2|2,0:0|0:0,0:0:0:0:
298,222,175247,1,8,0:0:0:0:
427,70,175697,6,0,B|391:217|391:217|449:271,1,216,2|2,0:0|0:0,0:0:0:0:
438,261,176447,1,8,0:0:0:0:
263,82,176897,6,0,P|172:51|85:155,1,216,2|2,0:0|0:0,0:0:0:0:
89,123,177647,1,8,0:0:0:0:
256,372,178097,6,0,L|256:129,1,216,2|2,0:0|0:0,0:0:0:0:
256,156,178847,1,8,0:0:0:0:
152,72,179297,6,0,P|220:46|372:80,1,216,2|2,0:0|0:0,0:0:0:0:
357,70,180047,1,8,0:0:0:0:
382,153,180197,2,0,L|456:146,1,72,0|0,0:0|0:0,0:0:0:0:
300,133,180497,6,0,P|276:182|309:289,1,161.999995056153,6|0,0:0|0:0,0:0:0:0:
186,362,180947,2,0,L|199:272,1,80.9999975280763,2|0,0:0|0:0,0:0:0:0:
106,128,181247,2,0,L|119:218,1,80.9999975280763,2|0,0:0|0:0,0:0:0:0:
74,294,181547,1,2,0:0:0:0:
210,189,181697,1,8,0:0:0:0:
186,362,181847,6,0,L|273:357,1,80.9999975280763,2|0,0:0|0:0,0:0:0:0:
408,282,182147,2,0,L|321:277,1,80.9999975280763,2|0,0:0|0:0,0:0:0:0:
201,266,182447,2,0,P|215:222|206:178,1,80.9999975280763,2|0,0:0|0:0,0:0:0:0:
175,84,182747,1,2,0:0:0:0:
320,188,182897,1,8,0:0:0:0:
137,216,183047,6,0,L|46:221,1,80.9999975280763,2|0,0:0|0:0,0:0:0:0:
221,289,183347,2,0,L|312:294,1,80.9999975280763,2|0,0:0|0:0,0:0:0:0:
388,359,183647,1,2,0:0:0:0:
320,188,183797,1,8,0:0:0:0:
489,275,183947,2,0,L|398:280,1,80.9999975280763,2|8,0:0|0:0,0:0:0:0:
320,188,184247,6,0,P|336:141|330:108,1,80.9999975280763,2|0,0:0|0:0,0:0:0:0:
210,249,184547,2,0,P|205:288|221:326,1,80.9999975280763,2|0,0:0|0:0,0:0:0:0:
256,64,184847,1,8,0:0:0:0:
256,64,185147,5,0,0:0:0:0:
256,64,185297,2,0,L|87:73,1,153.000002918243,6|0,0:0|0:0,0:0:0:0:
327,131,185747,2,0,P|350:96|353:50,1,76.5000014591217,2|0,0:0|0:0,0:0:0:0:
199,156,186047,2,0,L|208:318,1,153.000002918243,8|0,0:0|0:0,0:0:0:0:
314,259,186497,6,0,P|353:245|406:253,1,76.5000014591217,2|0,0:0|0:0,0:0:0:0:
207,308,186797,2,0,P|169:309|133:295,1,76.5000014591217,8|2,0:0|0:0,0:0:0:0:
32,241,187097,2,0,P|16:288|20:321,1,76.5000014591217,0|8,0:0|0:0,0:0:0:0:
188,213,187397,2,0,P|188:175|174:139,1,76.5000014591217,0|8,0:0|0:0,0:0:0:0:
165,25,187697,6,0,P|227:11|318:37,1,153.000002918243,6|0,0:0|0:0,0:0:0:0:
427,36,188147,2,0,P|401:76|423:180,1,153.000002918243,8|2,0:0|0:0,0:0:0:0:
325,172,188597,1,0,0:0:0:0:
486,110,188747,1,8,0:0:0:0:
441,283,188897,6,0,L|344:289,1,76.5000014591217,6|0,0:0|0:0,0:0:0:0:
264,345,189197,1,8,0:0:0:0:
244,343,189272,1,8,0:0:0:0:
225,342,189347,1,8,0:0:0:0:
206,341,189422,1,8,0:0:0:0:
187,340,189497,1,6,0:0:0:0:
187,340,189797,6,0,L|77:333,1,87.749995983124,0|0,0:0|0:0,0:0:0:0:
28,367,190097,6,0,P|22:353|29:299,1,67.4999979400635,0|0,0:0|0:0,0:0:0:0:
96,251,190547,6,0,L|91:153,1,90,2|0,0:0|0:0,0:0:0:0:
41,82,190697,6,0,P|91:67|178:127,1,148.50000453186,4|0,3:0|0:0,0:0:0:0:
219,27,190997,2,0,P|256:62|247:168,1,148.50000453186,4|0,3:0|0:0,0:0:0:0:
175,211,191297,2,0,P|220:247|311:240,1,148.50000453186,4|0,3:0|0:0,0:0:0:0:
313,340,191597,2,0,P|366:319|406:236,1,148.50000453186,4|0,3:0|0:0,0:0:0:0:
439,146,191897,2,0,L|267:126,1,148.50000453186,4|0,3:0|0:0,0:0:0:0:
266,32,192197,2,0,L|94:52,1,148.50000453186,4|0,3:0|0:0,0:0:0:0:
36,97,192497,6,0,B|54:180|54:180|32:235|32:235|57:343,1,233.999989288331,6|0,0:0|0:0,0:0:0:0:
181,362,192947,1,8,0:0:0:0:
248,201,193097,2,0,P|174:194|122:227,1,116.999994644165,0|2,0:0|0:0,0:0:0:0:
290,313,193397,1,0,0:0:0:0:
276,85,193547,1,8,0:0:0:0:
378,261,193697,6,0,P|309:212|189:310,1,233.999989288331,2|0,0:0|0:0,0:0:0:0:
115,179,194147,2,0,L|132:61,1,116.999994644165,8|0,0:0|0:0,0:0:0:0:
193,280,194447,1,2,0:0:0:0:
10,254,194597,1,0,0:0:0:0:
230,122,194747,1,8,0:0:0:0:
256,364,194897,6,0,P|314:278|448:315,1,233.999989288331,6|0,0:0|0:0,0:0:0:0:
314,172,195347,1,8,0:0:0:0:
360,374,195497,1,0,0:0:0:0:
438,167,195647,1,2,0:0:0:0:
201,203,195797,1,0,0:0:0:0:
469,194,195947,1,8,0:0:0:0:
214,58,196097,6,0,L|195:260,1,198.000006042481,6|0,0:0|0:0,0:0:0:0:
398,160,196547,1,8,0:0:0:0:
214,58,196697,6,0,L|186:347,1,251.999992309571,6|0,0:0|0:0,0:0:0:0:
398,160,197147,1,8,0:0:0:0:
214,58,197297,6,0,L|181:402,1,306.000005836487,6|0,0:0|0:0,0:0:0:0:
398,160,197747,2,0,P|317:142|242:185,1,153.000002918243,8|0,0:0|3:0,0:0:0:0:
106,98,198047,1,8,0:0:0:0:
124,120,198122,1,0,3:0:0:0:
137,146,198197,1,0,3:0:0:0:
142,175,198272,1,0,3:0:0:0:
140,204,198347,1,0,3:0:0:0:
130,231,198422,1,0,3:0:0:0:
114,255,198497,6,0,P|90:314|101:370,1,116.999994644165,6|0,0:0|0:0,0:0:0:0:
222,200,198797,1,2,0:0:0:0:
7,201,198947,1,8,0:0:0:0:
217,104,199097,1,2,0:0:0:0:
178,319,199247,1,8,0:0:0:0:
100,106,199397,1,8,0:0:0:0:
129,105,199472,1,8,0:0:0:0:
158,104,199547,1,8,0:0:0:0:
187,103,199622,1,8,0:0:0:0:
217,104,199697,6,0,B|277:83|317:109|317:109|333:93|333:93|368:103|368:103|399:86|441:100,1,233.999989288331,6|0,0:0|0:0,0:0:0:0:
413,293,200147,2,0,L|407:157,1,116.999994644165,8|0,0:0|0:0,0:0:0:0:
292,236,200447,1,2,0:0:0:0:
365,24,200597,1,0,0:0:0:0:
509,193,200747,1,8,0:0:0:0:
299,119,200897,6,0,B|226:133|188:87|188:87|138:121|58:99,1,233.999989288331,2|0,0:0|0:0,0:0:0:0:
153,296,201347,2,0,P|183:231|171:180,1,116.999994644165,8|0,0:0|0:0,0:0:0:0:
121,24,201647,1,2,0:0:0:0:
267,35,201797,1,0,0:0:0:0:
92,187,201947,1,8,0:0:0:0:
357,86,202097,6,0,B|369:265|369:265|323:212,1,233.999989288331,6|0,0:0|0:0,0:0:0:0:
208,209,202547,1,8,0:0:0:0:
340,339,202697,2,0,P|407:337|442:297,1,116.999994644165,0|2,0:0|0:0,0:0:0:0:
272,145,202997,2,0,P|212:113|162:130,1,116.999994644165,0|8,0:0|0:0,0:0:0:0:
32,70,203297,6,0,L|49:313,1,233.999989288331,2|0,0:0|0:0,0:0:0:0:
186,365,203747,2,0,L|195:231,1,116.999994644165,8|0,0:0|0:0,0:0:0:0:
167,125,204047,1,2,0:0:0:0:
325,236,204197,1,0,0:0:0:0:
100,205,204347,1,8,0:0:0:0:
310,70,204497,6,0,B|348:139|325:236|325:236|367:226|382:183,1,233.999989288331,6|0,0:0|0:0,0:0:0:0:
220,154,204947,1,8,0:0:0:0:
445,128,205097,2,0,P|473:180|353:299,1,233.999989288331,0|0,0:0|0:0,0:0:0:0:
234,328,205547,1,8,0:0:0:0:
311,99,205697,6,0,P|227:53|98:123,1,233.999989288331,6|0,0:0|0:0,0:0:0:0:
144,263,206147,1,8,0:0:0:0:
108,105,206297,6,0,P|208:52|311:99,1,233.999989288331,6|0,0:0|0:0,0:0:0:0:
144,263,206747,1,8,0:0:0:0:
311,99,206897,6,0,B|315:170|315:170|301:210|301:210|308:315,1,198.000006042481,6|0,0:0|0:0,0:0:0:0:
221,153,207347,1,8,0:0:0:0:
393,226,207497,1,0,0:0:0:0:
194,298,207647,1,8,0:0:0:0:
160,261,207722,1,8,0:0:0:0:
115,242,207797,1,8,0:0:0:0:
66,243,207872,1,8,0:0:0:0:
21,263,207947,1,2,0:0:0:0:
7,216,208022,1,0,0:0:0:0:
10,166,208097,1,8,0:0:0:0:
28,121,208172,1,0,0:0:0:0:
61,83,208247,6,0,L|102:45,1,49.5000015106202,2|0,0:0|0:0,0:0:0:0:
209,32,208397,1,8,0:0:0:0:
244,66,208472,1,8,0:0:0:0:
288,88,208547,1,8,0:0:0:0:
336,97,208622,1,8,0:0:0:0:
385,92,208697,1,8,0:0:0:0:
431,73,208772,1,8,0:0:0:0:
469,42,208847,5,8,3:0:0:0:
471,67,208922,1,8,3:0:0:0:
472,91,208997,1,8,3:0:0:0:
474,116,209072,1,8,3:0:0:0:
475,141,209147,1,8,3:0:0:0:
477,166,209222,1,8,3:0:0:0:
478,191,209297,6,0,B|487:340|487:340|449:308|385:316,1,233.999989288331,6|0,0:0|0:0,0:0:0:0:
260,358,209747,2,0,P|289:300|276:233,1,116.999994644165,8|0,0:0|0:0,0:0:0:0:
169,123,210047,1,2,0:0:0:0:
203,286,210197,1,2,0:0:0:0:
72,70,210347,1,8,0:0:0:0:
259,189,210497,6,0,B|403:182|403:182|444:148|439:83,1,233.999989288331,2|0,0:0|0:0,0:0:0:0:
381,268,210947,2,0,L|257:274,1,116.999994644165,8|0,0:0|0:0,0:0:0:0:
351,102,211247,1,2,0:0:0:0:
469,315,211397,1,2,0:0:0:0:
439,102,211547,1,8,0:0:0:0:
278,345,211697,6,0,P|299:279|199:156,1,233.999989288331,6|0,0:0|0:0,0:0:0:0:
81,248,212147,2,0,L|67:379,1,116.999994644165,8|0,0:0|0:0,0:0:0:0:
207,157,212447,1,2,0:0:0:0:
21,174,212597,1,2,0:0:0:0:
196,274,212747,1,8,0:0:0:0:
202,39,212897,6,0,B|349:24|349:24|426:86,1,233.999989288331,2|0,0:0|0:0,0:0:0:0:
323,257,213347,2,0,P|303:202|323:121,1,116.999994644165,8|0,0:0|0:0,0:0:0:0:
437,270,213647,1,2,0:0:0:0:
215,220,213797,1,2,0:0:0:0:
416,78,213947,1,8,0:0:0:0:
370,341,214097,6,0,B|256:280|256:380|120:317,1,233.999989288331,6|0,0:0|0:0,0:0:0:0:
198,130,214547,2,0,P|214:207|197:262,1,116.999994644165,8|0,0:0|0:0,0:0:0:0:
96,95,214847,1,2,0:0:0:0:
304,108,214997,1,2,0:0:0:0:
180,20,215147,1,8,0:0:0:0:
205,243,215297,6,0,P|276:203|436:229,1,233.999989288331,2|0,0:0|0:0,0:0:0:0:
90,266,215747,2,0,L|101:142,1,116.999994644165,8|0,0:0|0:0,0:0:0:0:
258,107,216047,1,2,0:0:0:0:
162,333,216197,1,2,0:0:0:0:
100,149,216347,1,8,0:0:0:0:
368,268,216497,6,0,L|359:150,1,116.999994644165,6|0,0:0|0:0,0:0:0:0:
331,38,216797,1,0,0:0:0:0:
273,205,216947,1,8,3:0:0:0:
420,76,217097,1,8,3:0:0:0:
229,95,217247,1,8,3:0:0:0:
496,14,217397,1,8,3:0:0:0:
191,175,217547,1,8,3:0:0:0:
407,129,217697,5,4,3:0:0:0:
405,161,217772,1,0,0:0:0:0:
415,191,217847,1,8,0:0:0:0:
435,215,217922,1,8,0:0:0:0:
419,266,217997,5,4,3:0:0:0:
387,282,218072,1,0,0:0:0:0:
352,281,218147,1,8,0:0:0:0:
321,263,218222,1,8,0:0:0:0:
267,258,218297,5,4,3:0:0:0:
269,293,218372,1,0,0:0:0:0:
271,328,218447,1,8,0:0:0:0:
272,363,218522,1,8,0:0:0:0:
222,342,218597,5,4,3:0:0:0:
191,323,218672,1,0,0:0:0:0:
155,316,218747,1,8,0:0:0:0:
120,327,218822,1,0,0:0:0:0:
68,299,218897,6,0,B|46:196|46:196|118:198|156:129,1,233.999989288331,6|0,0:0|0:0,0:0:0:0:
342,53,219347,2,0,L|325:180,1,116.999994644165,8|0,0:0|0:0,0:0:0:0:
223,244,219647,1,2,0:0:0:0:
424,182,219797,1,0,0:0:0:0:
329,337,219947,1,8,0:0:0:0:
228,142,220097,6,0,B|142:105|56:139|56:139|114:177,1,233.999989288331,2|0,0:0|0:0,0:0:0:0:
326,168,220547,2,0,P|343:108|321:51,1,116.999994644165,8|0,0:0|0:0,0:0:0:0:
223,244,220847,1,2,0:0:0:0:
448,201,220997,1,0,0:0:0:0:
267,346,221147,1,8,0:0:0:0:
257,115,221297,6,0,B|181:153|111:99|111:99|144:136|121:195,1,233.999989288331,6|0,0:0|0:0,0:0:0:0:
331,170,221747,2,0,P|352:114|323:48,1,116.999994644165,8|0,0:0|0:0,0:0:0:0:
222,223,222047,1,2,0:0:0:0:
423,51,222197,1,0,0:0:0:0:
312,269,222347,1,8,0:0:0:0:
244,36,222497,6,0,B|80:39|80:39|31:102,1,233.999989288331,2|0,0:0|0:0,0:0:0:0:
34,262,222947,1,8,0:0:0:0:
123,124,223097,2,0,B|287:127|287:127|329:182,1,233.999989288331,0|0,0:0|0:0,0:0:0:0:
289,324,223547,1,8,0:0:0:0:
412,120,223697,6,0,P|356:82|227:185,1,233.999989288331,6|0,0:0|0:0,0:0:0:0:
103,76,224147,2,0,L|118:209,1,116.999994644165,8|0,0:0|0:0,0:0:0:0:
329,182,224447,1,2,0:0:0:0:
173,276,224597,2,0,P|116:293|40:262,1,116.999994644165,0|8,0:0|0:0,0:0:0:0:
222,180,224897,6,0,P|270:233|212:376,1,233.999989288331,2|0,0:0|0:0,0:0:0:0:
116,192,225347,2,0,L|124:72,1,116.999994644165,8|0,0:0|0:0,0:0:0:0:
173,276,225647,1,2,0:0:0:0:
288,44,225797,2,0,L|296:164,1,116.999994644165,0|8,0:0|0:0,0:0:0:0:
363,351,226097,6,0,B|305:316|305:316|125:357,1,233.999989288331,6|0,0:0|0:0,0:0:0:0:
45,244,226547,2,0,P|74:181|69:112,1,116.999994644165,8|0,0:0|0:0,0:0:0:0:
66,105,226772,1,0,0:0:0:0:
77,77,226847,1,8,0:0:0:0:
102,62,226922,1,8,0:0:0:0:
130,57,226997,1,8,0:0:0:0:
158,64,227072,1,8,0:0:0:0:
181,81,227147,1,8,0:0:0:0:
208,90,227222,1,8,0:0:0:0:
238,90,227297,6,0,B|308:78|308:78|366:35,1,135.000005149842,6|0,0:0|0:0,0:0:0:0:
232,272,227597,2,0,B|162:284|162:284|104:327,1,135.000005149842,6|0,0:0|0:0,0:0:0:0:
345,189,227897,2,0,B|411:213|411:213|483:205,1,135.000005149842,6|0,0:0|0:0,0:0:0:0:
139,174,228197,2,0,B|72:149|72:149|0:157,1,135.000005149842,6|0,0:0|0:0,0:0:0:0:
