osu file format v14

[General]
AudioFilename: audio.mp3
AudioLeadIn: 0
PreviewTime: 189722
Countdown: 0
SampleSet: Soft
StackLeniency: 0.4
Mode: 0
LetterboxInBreaks: 0
WidescreenStoryboard: 0

[Editor]
Bookmarks: 36497,65297,161297,228347
DistanceSpacing: 0.7
BeatDivisor: 4
GridSize: 4
TimelineZoom: 1

[Metadata]
Title:GATE~Sore wa Akatsuki no you ni~
TitleUnicode:GATE~それは暁のように~
Artist:KISIDA KYODAN & THE AKEBOSI ROCKETS
ArtistUnicode:岸田教団&THE明星ロケッツ
Creator:Akitoshi
Version:Insane
Source:GATE 自衛隊 彼の地にて、斯く戦えり
Tags:Jieitai Kanochi Nite Kaku Tatakaeri Opening Rory ゲート Full version SnowNiNo_ Corinn
BeatmapID:1028092
BeatmapSetID:480386

[Difficulty]
HPDrainRate:6
CircleSize:4
OverallDifficulty:7.5
ApproachRate:9
SliderMultiplier:1.6
SliderTickRate:1

[Events]
//Background and Video events
0,0,"rory.jpg",0,0
//Break Periods
2,113497,117497
2,171097,179897
//Storyboard Layer 0 (Background)
//Storyboard Layer 1 (Fail)
//Storyboard Layer 2 (Pass)
//Storyboard Layer 3 (Foreground)
//Storyboard Sound Samples

[TimingPoints]
5447,300,4,2,1,40,1,0
5447,-142.857142857143,4,2,1,40,0,0
6047,-117.647058823529,4,2,1,40,0,0
6497,-100,4,2,1,50,0,0
14897,-142.857142857143,4,2,1,50,0,0
15197,-142.857142857143,4,2,1,30,0,0
16547,-117.647058823529,4,2,1,50,0,0
16847,-100,4,2,1,50,0,0
17297,-90.9090909090909,4,2,1,70,0,0
26897,-111.111111111111,4,2,1,50,0,0
46097,-133.333333333333,4,2,1,50,0,0
50897,-117.647058823529,4,2,1,50,0,0
55397,-133.333333333333,4,2,1,50,0,0
55622,-133.333333333333,4,2,1,5,0,0
55697,-86.9565217391304,4,2,1,70,0,1
61697,-100,4,2,1,70,0,1
62297,-86.9565217391304,4,2,1,70,0,1
62897,-76.9230769230769,4,2,1,70,0,1
63647,-86.9565217391304,4,2,1,70,0,1
71297,-76.9230769230769,4,2,1,70,0,1
71897,-86.9565217391304,4,2,1,70,0,1
72497,-100,4,2,1,70,0,1
74447,-90.9090909090909,4,2,1,60,0,0
74897,-86.9565217391304,4,2,1,70,0,1
83297,-100,4,2,1,70,0,1
84497,-86.9565217391304,4,2,1,70,0,0
94097,-111.111111111111,4,2,1,50,0,0
113297,-133.333333333333,4,2,1,50,0,0
118097,-125,4,2,1,50,0,0
122897,-111.111111111111,4,2,1,50,0,0
131897,-133.333333333333,4,2,1,50,0,0
132497,-86.9565217391304,4,2,1,70,0,1
138497,-100,4,2,1,70,0,1
139097,-86.9565217391304,4,2,1,70,0,1
139697,-76.9230769230769,4,2,1,70,0,1
140447,-86.9565217391304,4,2,1,70,0,1
148097,-76.9230769230769,4,2,1,70,0,1
148697,-86.9565217391304,4,2,1,70,0,1
149297,-100,4,2,1,70,0,1
151697,-86.9565217391304,4,2,1,50,0,0
161297,-86.9565217391304,4,2,1,70,0,0
170897,-125,4,2,1,50,0,0
180497,-111.111111111111,4,2,1,50,0,0
185297,-117.647058823529,4,2,1,50,0,0
189797,-133.333333333333,4,2,1,50,0,0
190097,-200,4,2,1,50,0,0
190547,-90.9090909090909,4,2,1,50,0,0
191822,-90.9090909090909,4,2,1,10,0,0
191897,-90.9090909090909,4,2,1,50,0,0
192122,-90.9090909090909,4,2,1,10,0,0
192197,-90.9090909090909,4,2,1,50,0,0
192422,-90.9090909090909,4,2,1,10,0,0
192497,-83.3333333333333,4,2,1,70,0,1
196097,-95.2380952380952,4,2,1,70,0,1
196697,-83.3333333333333,4,2,1,70,0,1
197297,-74.0740740740741,4,2,1,70,0,1
198047,-83.3333333333333,4,2,1,70,0,1
205697,-71.4285714285714,4,2,1,70,0,1
206297,-83.3333333333333,4,2,1,70,0,1
206897,-95.2380952380952,4,2,1,70,0,1
208847,-90.9090909090909,4,2,1,70,0,0
209297,-83.3333333333333,4,2,1,70,0,1
217697,-90.9090909090909,4,2,1,70,0,1
218897,-83.3333333333333,4,2,1,70,0,0
227297,-71.4285714285714,4,2,1,70,0,0
227522,-71.4285714285714,4,2,1,10,0,0
227597,-71.4285714285714,4,2,1,70,0,0
227822,-71.4285714285714,4,2,1,10,0,0
227897,-71.4285714285714,4,2,1,70,0,0
228122,-71.4285714285714,4,2,1,10,0,0
228197,-71.4285714285714,4,2,1,70,0,0
228347,-71.4285714285714,4,2,1,10,0,0

[Colours]
Combo1 : 255,128,255
Combo2 : 255,128,64
Combo3 : 255,128,128
Combo4 : 242,24,57

[HitObjects]
175,225,5447,5,4,0:0:0:0:
201,358,5747,1,4,0:0:0:0:
276,202,6047,1,8,0:0:0:0:
276,202,6122,1,8,0:0:0:0:
276,202,6197,1,8,0:0:0:0:
298,301,6347,1,2,0:0:0:0:
175,225,6497,6,0,P|179:164|252:98,1,160,2|0,0:0|0:0,0:0:0:0:
367,96,6947,2,0,P|374:57|362:11,1,80,4|0,0:0|0:0,0:0:0:0:
354,178,7247,1,2,3:0:0:0:
354,178,7322,1,2,0:0:0:0:
354,178,7397,2,0,P|391:174|439:137,1,80,12|0,0:0|0:0,0:0:0:0:
247,99,7697,6,0,B|204:87|204:87|59:97,1,160,4|0,0:0|0:0,0:0:0:0:
13,188,8147,2,0,P|3:228|17:281,1,80,8|0,0:0|0:0,0:0:0:0:
91,354,8447,1,4,3:0:0:0:
114,351,8522,1,8,0:0:0:0:
136,341,8597,2,0,L|147:281,3,40,8|8|8|8,0:0|0:0|0:0|0:0,0:0:0:0:
204,250,8897,6,0,P|275:236|354:282,1,160,4|0,0:0|0:0,0:0:0:0:
443,352,9347,1,8,0:0:0:0:
492,242,9497,1,0,3:0:0:0:
498,219,9572,1,0,0:0:0:0:
502,195,9647,2,0,L|504:147,5,40,8|0|0|0|0|0,0:0|3:0|3:0|3:0|3:0|3:0,0:0:0:0:
447,96,10097,6,0,B|399:113|399:113|272:98,1,160,4|0,0:0|0:0,0:0:0:0:
170,86,10547,1,8,0:0:0:0:
236,186,10697,1,8,0:0:0:0:
117,168,10847,1,2,0:0:0:0:
183,268,10997,2,0,P|218:282|279:275,1,80,8|0,0:0|0:0,0:0:0:0:
350,176,11297,6,0,B|353:121|353:121|339:80|339:80|344:6,1,160,4|0,0:0|0:0,0:0:0:0:
447,77,11747,2,0,L|440:169,1,80,8|0,0:0|0:0,0:0:0:0:
418,274,12047,1,8,3:0:0:0:
350,176,12197,1,8,3:0:0:0:
313,290,12347,1,8,0:0:0:0:
245,192,12497,6,0,B|192:183|192:183|72:195,1,160,4|0,0:0|0:0,0:0:0:0:
17,94,12947,2,0,L|105:85,1,80,8|0,0:0|0:0,0:0:0:0:
200,25,13247,2,0,L|288:16,1,80,8|0,0:0|0:0,0:0:0:0:
389,64,13547,1,8,0:0:0:0:
418,204,13697,6,0,B|408:320|408:320|364:256,1,160,4|0,0:0|0:0,0:0:0:0:
301,196,14147,1,8,3:0:0:0:
271,312,14297,1,8,0:0:0:0:
194,219,14447,1,8,0:0:0:0:
164,335,14597,1,8,0:0:0:0:
80,249,14747,1,8,0:0:0:0:
130,112,14897,5,6,0:0:0:0:
130,112,15197,2,0,L|257:107,1,111.999996582031,0|0,0:0|0:0,0:0:0:0:
325,101,15647,2,0,P|327:62|321:28,1,55.9999982910157,0|0,0:0|0:0,0:0:0:0:
402,126,15947,2,0,P|400:165|406:199,1,55.9999982910157,0|0,0:0|0:0,0:0:0:0:
391,265,16247,2,0,L|314:259,1,55.9999982910157,0|0,0:0|0:0,0:0:0:0:
262,333,16547,6,0,L|177:325,1,68.0000012969971,4|0,0:0|0:0,0:0:0:0:
85,274,16847,1,8,0:0:0:0:
70,254,16922,1,8,0:0:0:0:
64,230,16997,1,8,0:0:0:0:
65,206,17072,1,8,0:0:0:0:
70,182,17147,1,8,0:0:0:0:
84,163,17222,1,8,0:0:0:0:
105,147,17297,6,0,B|157:142|157:142|213:159|213:159|281:151,1,176.000005371094,6|0,0:0|0:0,0:0:0:0:
402,101,17747,2,0,B|405:65|405:65|397:7,1,88.000002685547,8|0,0:0|0:0,0:0:0:0:
370,196,18047,2,0,B|367:232|367:232|375:290,1,88.000002685547,2|0,0:0|0:0,0:0:0:0:
500,242,18347,1,8,0:0:0:0:
346,360,18497,6,0,B|281:365|281:365|236:347|236:347|163:350,1,176.000005371094,2|0,0:0|0:0,0:0:0:0:
41,346,18947,2,0,P|31:305|43:245,1,88.000002685547,8|0,0:0|0:0,0:0:0:0:
119,157,19247,2,0,P|160:147|220:159,1,88.000002685547,2|0,0:0|0:0,0:0:0:0:
168,279,19547,1,8,0:0:0:0:
301,194,19697,6,0,P|305:122|214:49,1,176.000005371094,6|0,0:0|0:0,0:0:0:0:
102,67,20147,2,0,B|68:72|68:72|5:66,1,88.000002685547,8|0,0:0|0:0,0:0:0:0:
0,198,20447,2,0,B|34:193|34:193|97:199,1,88.000002685547,2|0,0:0|0:0,0:0:0:0:
218,215,20747,1,8,0:0:0:0:
312,87,20897,6,0,B|373:56|445:80|445:80|419:97|412:131,1,176.000005371094,2|0,0:0|0:0,0:0:0:0:
373,232,21347,1,8,0:0:0:0:
267,152,21497,2,0,P|239:116|241:51,1,88.000002685547,0|2,0:0|0:0,0:0:0:0:
111,25,21797,1,0,3:0:0:0:
164,145,21947,1,8,0:0:0:0:
312,87,22097,6,0,B|369:84|369:84|419:100|419:100|487:96,1,176.000005371094,6|0,0:0|0:0,0:0:0:0:
461,226,22547,2,0,L|366:232,1,88.000002685547,8|0,0:0|0:0,0:0:0:0:
241,249,22847,2,0,P|221:288|226:350,1,88.000002685547,2|0,0:0|3:0,0:0:0:0:
334,319,23147,1,8,0:0:0:0:
281,169,23297,6,0,B|229:145|186:180|186:180|149:168|149:168|89:179,1,176.000005371094,2|0,0:0|0:0,0:0:0:0:
137,304,23747,1,8,0:0:0:0:
114,175,23897,1,0,0:0:0:0:
241,249,24047,2,0,P|285:259|347:228,1,88.000002685547,2|0,0:0|0:0,0:0:0:0:
400,138,24347,1,8,0:0:0:0:
298,2,24497,6,0,B|270:43|270:43|281:178,1,176.000005371094,6|0,0:0|0:0,0:0:0:0:
175,249,24947,2,0,L|183:146,1,88.000002685547,8|0,0:0|0:0,0:0:0:0:
66,95,25247,2,0,L|74:197,1,88.000002685547,2|0,0:0|0:0,0:0:0:0:
101,312,25547,1,8,0:0:0:0:
247,252,25697,6,0,B|285:246|285:246|364:254,1,88.000002685547,2|0,0:0|0:0,0:0:0:0:
182,161,25997,2,0,B|220:167|220:167|299:159,1,88.000002685547,2|0,0:0|0:0,0:0:0:0:
119,70,26297,2,0,B|157:64|157:64|236:72,1,88.000002685547,2|0,0:0|0:0,0:0:0:0:
380,94,26597,1,8,0:0:0:0:
400,110,26672,1,8,0:0:0:0:
416,130,26747,1,8,0:0:0:0:
425,154,26822,1,8,0:0:0:0:
431,178,26897,6,0,L|420:335,1,143.999995605469,6|0,0:0|0:0,0:0:0:0:
301,372,27347,1,8,0:0:0:0:
232,279,27497,1,0,0:0:0:0:
232,279,27572,1,0,0:0:0:0:
232,279,27647,2,0,P|187:270|137:280,1,71.9999978027344,2|0,0:0|0:0,0:0:0:0:
54,345,27947,1,8,0:0:0:0:
15,221,28097,6,0,B|3:177|3:177|15:69,1,143.999995605469,2|0,0:0|0:0,0:0:0:0:
131,22,28547,1,8,0:0:0:0:
220,115,28697,2,0,L|305:116,1,71.9999978027344,0|2,0:0|0:0,0:0:0:0:
200,207,28997,2,0,L|115:208,1,71.9999978027344,0|8,0:0|0:0,0:0:0:0:
220,298,29297,6,0,P|273:265|283:172,1,143.999995605469,2|0,0:0|0:0,0:0:0:0:
375,91,29747,2,0,P|410:79|468:91,1,71.9999978027344,8|0,0:0|0:0,0:0:0:0:
454,196,30047,2,0,P|419:208|361:196,1,71.9999978027344,2|0,0:0|0:0,0:0:0:0:
292,115,30347,1,8,0:0:0:0:
200,207,30497,6,0,L|210:372,1,143.999995605469,2|0,0:0|0:0,0:0:0:0:
81,376,30947,2,0,L|85:304,1,71.9999978027344,8|0,0:0|0:0,0:0:0:0:
93,189,31247,1,2,0:0:0:0:
7,266,31397,1,0,0:0:0:0:
24,137,31547,1,8,0:0:0:0:
161,241,31697,6,0,B|205:248|205:248|321:238,1,143.999995605469,6|0,0:0|0:0,0:0:0:0:
434,228,32147,1,8,0:0:0:0:
368,132,32297,1,0,0:0:0:0:
368,132,32372,1,0,0:0:0:0:
368,132,32447,2,0,L|374:45,1,71.9999978027344,2|0,0:0|0:0,0:0:0:0:
267,13,32747,1,8,0:0:0:0:
191,118,32897,6,0,B|144:119|144:119|90:104|90:104|26:106,1,143.999995605469,2|0,0:0|0:0,0:0:0:0:
8,228,33347,2,0,P|1:266|9:311,1,71.9999978027344,8|0,0:0|0:0,0:0:0:0:
96,370,33647,2,0,P|134:377|179:369,1,71.9999978027344,2|0,0:0|0:0,0:0:0:0:
266,288,33947,1,8,0:0:0:0:
256,158,34097,6,0,B|309:142|309:142|418:152,1,143.999995605469,2|0,0:0|0:0,0:0:0:0:
340,266,34547,1,8,0:0:0:0:
206,236,34697,2,0,P|180:212|164:169,1,71.9999978027344,0|2,0:0|0:0,0:0:0:0:
173,60,34997,1,0,0:0:0:0:
256,158,35147,1,8,0:0:0:0:
321,46,35297,1,2,0:0:0:0:
342,44,35372,1,0,0:0:0:0:
362,51,35447,1,2,0:0:0:0:
380,61,35522,1,2,0:0:0:0:
394,76,35597,6,0,P|405:115|393:165,1,71.9999978027344,2|0,3:0|0:0,0:0:0:0:
347,317,35897,2,0,P|336:278|348:228,1,71.9999978027344,2|0,3:0|0:0,0:0:0:0:
255,107,36197,2,0,L|166:105,1,71.9999978027344,2|0,3:0|0:0,0:0:0:0:
40,158,36497,6,0,P|95:183|111:278,1,143.999995605469,6|0,0:0|0:0,0:0:0:0:
199,360,36947,1,8,0:0:0:0:
268,265,37097,1,0,0:0:0:0:
268,265,37172,1,0,0:0:0:0:
268,265,37247,2,0,L|345:265,1,71.9999978027344,2|0,0:0|0:0,0:0:0:0:
469,267,37547,1,8,0:0:0:0:
391,163,37697,6,0,B|383:120|383:120|397:71|397:71|391:20,1,143.999995605469,2|0,0:0|0:0,0:0:0:0:
466,108,38147,1,8,0:0:0:0:
308,79,38297,1,0,0:0:0:0:
308,79,38372,1,0,0:0:0:0:
308,79,38447,2,0,P|270:66|222:69,1,71.9999978027344,2|0,0:0|0:0,0:0:0:0:
255,180,38747,1,8,0:0:0:0:
391,163,38897,6,0,P|422:106|406:13,1,143.999995605469,2|0,0:0|0:0,0:0:0:0:
308,79,39347,1,8,0:0:0:0:
262,187,39497,1,0,0:0:0:0:
262,187,39572,1,0,0:0:0:0:
262,187,39647,2,0,L|179:184,1,71.9999978027344,2|0,0:0|0:0,0:0:0:0:
220,295,39947,1,8,0:0:0:0:
103,238,40097,6,0,P|88:180|134:100,1,143.999995605469,2|0,0:0|0:0,0:0:0:0:
234,76,40547,2,0,B|236:47|236:47|229:4,1,71.9999978027344,8|0,0:0|0:0,0:0:0:0:
340,33,40847,2,0,B|338:62|338:62|345:105,1,71.9999978027344,2|0,0:0|0:0,0:0:0:0:
384,212,41147,1,8,0:0:0:0:
291,303,41297,6,0,B|243:306|243:306|198:293|198:293|145:297,1,143.999995605469,6|0,0:0|0:0,0:0:0:0:
34,234,41747,1,8,0:0:0:0:
133,175,41897,1,0,0:0:0:0:
133,175,41972,1,0,0:0:0:0:
133,175,42047,2,0,P|139:134|125:82,1,71.9999978027344,2|0,0:0|0:0,0:0:0:0:
216,22,42347,1,8,0:0:0:0:
318,101,42497,6,0,B|333:143|333:143|331:250,1,143.999995605469,2|0,0:0|0:0,0:0:0:0:
324,372,42947,1,8,0:0:0:0:
424,315,43097,1,0,0:0:0:0:
424,315,43172,1,0,0:0:0:0:
424,315,43247,2,0,P|443:280|445:227,1,71.9999978027344,2|0,0:0|0:0,0:0:0:0:
420,121,43547,1,8,0:0:0:0:
287,178,43697,6,0,P|210:179|125:178,1,143.999995605469,6|0,0:0|0:0,0:0:0:0:
40,126,44147,2,0,B|36:89|36:89|42:43,1,71.9999978027344,8|0,0:0|0:0,0:0:0:0:
144,107,44447,2,0,B|148:144|148:144|142:190,1,71.9999978027344,2|0,0:0|0:0,0:0:0:0:
114,290,44747,1,8,0:0:0:0:
230,346,44897,6,0,L|312:341,1,71.9999978027344,6|0,0:0|0:0,0:0:0:0:
417,333,45197,1,0,0:0:0:0:
320,246,45347,1,8,0:0:0:0:
432,221,45497,1,2,0:0:0:0:
335,134,45647,1,8,0:0:0:0:
448,112,45797,1,2,0:0:0:0:
351,25,45947,1,8,0:0:0:0:
230,79,46097,6,0,B|211:115|211:115|215:214,1,120.000004577637,6|0,0:0|0:0,0:0:0:0:
226,283,46547,1,2,0:0:0:0:
65,201,46847,2,0,P|45:143|71:67,2,120.000004577637,8|8|8,3:0|3:0|3:0,0:0:0:0:
226,283,47747,1,8,3:0:0:0:
327,134,48047,6,0,B|367:127|367:127|450:137,1,120.000004577637,8|8,3:0|3:0,0:0:0:0:
488,216,48497,2,0,P|497:246|490:288,1,60.0000022888184,0|8,0:0|3:0,0:0:0:0:
446,350,48797,1,0,0:0:0:0:
356,338,48947,2,0,B|277:344|277:344|224:313,2,120.000004577637,8|8|8,3:0|3:0|3:0,0:0:0:0:
414,270,49697,6,0,P|419:239|411:190,1,60.0000022888184,0|8,0:0|3:0,0:0:0:0:
367,135,49997,2,0,P|362:104|370:55,1,60.0000022888184,0|8,0:0|3:0,0:0:0:0:
269,36,50297,1,8,0:0:0:0:
269,36,50372,1,8,0:0:0:0:
269,36,50447,1,8,0:0:0:0:
185,69,50597,1,8,0:0:0:0:
106,27,50747,1,0,0:0:0:0:
167,173,50897,6,0,B|184:214|184:214|174:322,1,136.000002593994,4|8,0:0|0:0,0:0:0:0:
274,352,51347,2,0,L|266:276,1,68.0000012969971,2|0,0:0|0:0,0:0:0:0:
359,211,51647,2,0,L|351:286,1,68.0000012969971,8|0,0:0|0:0,0:0:0:0:
459,256,51947,1,2,0:0:0:0:
410,143,52097,6,0,P|341:128|283:173,1,136.000002593994,2|2,0:0|0:0,0:0:0:0:
195,218,52547,2,0,P|181:185|187:129,1,68.0000012969971,2|0,0:0|0:0,0:0:0:0:
194,31,52847,1,8,0:0:0:0:
108,118,52997,1,0,0:0:0:0:
252,91,53147,1,8,0:0:0:0:
98,35,53297,6,0,P|40:69|34:155,1,136.000002593994,6|0,0:0|0:0,0:0:0:0:
49,252,53747,2,0,B|53:287|53:287|49:333,1,68.0000012969971,8|0,0:0|0:0,0:0:0:0:
147,369,54047,2,0,B|143:334|143:334|147:288,1,68.0000012969971,2|0,0:0|0:0,0:0:0:0:
181,184,54347,1,8,0:0:0:0:
297,288,54497,6,0,P|332:289|384:278,1,68.0000012969971,6|0,0:0|0:0,0:0:0:0:
455,212,54797,2,0,L|452:173,3,34.0000006484985,8|8|8|8,3:0|3:0|0:0|0:0,0:0:0:0:
428,154,55097,1,8,0:0:0:0:
342,69,55397,6,0,B|311:67|311:67|277:78|277:78|233:75,1,90.0000034332277,0|0,0:0|0:0,0:0:0:0:
230,76,55697,6,0,B|218:136|218:136|234:189|234:189|217:270,1,184.000003509522,6|0,0:0|0:0,0:0:0:0:
100,185,56147,1,8,0:0:0:0:
148,314,56297,2,0,P|186:343|245:344,1,92.0000017547608,0|2,0:0|0:0,0:0:0:0:
365,327,56597,2,0,P|327:298|268:297,1,92.0000017547608,0|8,0:0|0:0,0:0:0:0:
441,369,56897,6,0,P|450:322|428:267,1,92.0000017547608,2|0,0:0|0:0,0:0:0:0:
367,140,57197,2,0,P|358:187|377:240,1,92.0000017547608,0|8,0:0|0:0,0:0:0:0:
470,181,57497,1,0,0:0:0:0:
421,51,57647,1,2,0:0:0:0:
290,96,57797,2,0,L|192:90,1,92.0000017547608,0|8,0:0|0:0,0:0:0:0:
83,196,58097,6,0,B|147:199|147:199|196:228|196:228|269:232,1,184.000003509522,6|0,0:0|0:0,0:0:0:0:
140,302,58547,1,8,0:0:0:0:
14,243,58697,2,0,P|0:202|26:136,1,92.0000017547608,0|2,0:0|0:0,0:0:0:0:
129,84,58997,1,0,0:0:0:0:
173,214,59147,1,8,0:0:0:0:
290,96,59297,6,0,B|336:85|336:85|491:100,1,184.000003509522,2|0,0:0|0:0,0:0:0:0:
507,232,59747,2,0,L|402:242,1,92.0000017547608,8|0,0:0|0:0,0:0:0:0:
341,358,60047,2,0,L|445:368,1,92.0000017547608,2|0,0:0|0:0,0:0:0:0:
334,269,60347,1,8,0:0:0:0:
183,337,60497,6,0,B|176:278|176:278|199:226|199:226|188:144,1,184.000003509522,6|0,0:0|0:0,0:0:0:0:
82,71,60947,1,8,0:0:0:0:
115,204,61097,1,0,0:0:0:0:
175,80,61247,2,0,P|219:84|260:120,1,92.0000017547608,2|0,0:0|0:0,0:0:0:0:
307,240,61547,1,8,0:0:0:0:
454,178,61697,6,0,B|469:137|469:137|454:17,1,160,6|0,0:0|0:0,0:0:0:0:
366,104,62147,1,8,0:0:0:0:
408,263,62297,6,0,B|455:284|496:264|496:264|512:313|495:367,1,184.000003509522,6|0,0:0|0:0,0:0:0:0:
360,353,62747,1,8,0:0:0:0:
259,220,62897,6,0,B|250:151|250:151|281:94|281:94|268:16,1,207.999990478516,6|0,0:0|0:0,0:0:0:0:
332,164,63347,1,8,0:0:0:0:
200,80,63497,1,0,0:0:0:0:
356,79,63647,6,0,P|399:107|420:160,1,92.0000017547608,2|0,0:0|0:0,0:0:0:0:
419,280,63947,1,8,0:0:0:0:
308,362,64097,2,0,L|211:365,1,92.0000017547608,6|0,0:0|0:0,0:0:0:0:
111,272,64397,2,0,L|208:275,1,92.0000017547608,2|8,0:0|0:0,0:0:0:0:
340,257,64697,1,2,0:0:0:0:
417,142,64847,5,8,0:0:0:0:
428,112,64922,1,8,0:0:0:0:
422,80,64997,1,8,0:0:0:0:
402,54,65072,1,8,0:0:0:0:
374,36,65147,1,8,0:0:0:0:
342,29,65222,1,8,0:0:0:0:
310,35,65297,6,0,B|251:41|251:41|194:23|194:23|129:29,1,184.000003509522,6|0,0:0|0:0,0:0:0:0:
16,108,65747,1,8,0:0:0:0:
100,216,65897,2,0,B|109:260|109:260|101:340,1,92.0000017547608,0|2,0:0|0:0,0:0:0:0:
241,325,66197,2,0,B|232:281|232:281|240:201,1,92.0000017547608,0|8,0:0|0:0,0:0:0:0:
325,127,66497,6,0,L|427:121,1,92.0000017547608,2|0,0:0|0:0,0:0:0:0:
329,240,66797,2,0,L|227:234,1,92.0000017547608,0|8,0:0|0:0,0:0:0:0:
398,197,67097,1,0,0:0:0:0:
310,56,67247,2,0,P|270:79|253:135,1,92.0000017547608,2|0,0:0|0:0,0:0:0:0:
237,235,67547,1,8,0:0:0:0:
110,128,67697,6,0,B|78:185|78:185|93:309,1,184.000003509522,6|0,0:0|0:0,0:0:0:0:
212,371,68147,1,8,0:0:0:0:
307,271,68297,2,0,L|423:277,1,92.0000017547608,0|2,0:0|0:0,0:0:0:0:
467,155,68597,2,0,L|351:161,1,92.0000017547608,0|8,0:0|0:0,0:0:0:0:
205,136,68897,6,0,B|169:74|205:11|205:11|176:17|157:43,1,184.000003509522,2|0,0:0|0:0,0:0:0:0:
302,73,69347,2,0,P|343:88|415:71,1,92.0000017547608,8|0,0:0|0:0,0:0:0:0:
417,218,69647,2,0,P|376:203|304:220,1,92.0000017547608,2|0,0:0|0:0,0:0:0:0:
195,244,69947,1,8,0:0:0:0:
214,71,70097,6,0,B|265:49|302:74|302:74|352:104|413:74,1,184.000003509522,6|0,0:0|0:0,0:0:0:0:
258,153,70547,1,8,0:0:0:0:
354,11,70697,2,0,P|443:22|460:126,1,184.000003509522,0|0,0:0|0:0,0:0:0:0:
415,229,71147,1,8,0:0:0:0:
258,153,71297,6,0,P|182:166|118:286,1,207.999990478516,6|0,0:0|0:0,0:0:0:0:
247,281,71747,1,8,0:0:0:0:
367,134,71897,6,0,P|335:74|226:47,1,184.000003509522,6|0,0:0|0:0,0:0:0:0:
258,153,72347,1,8,0:0:0:0:
444,212,72497,6,0,P|474:150|440:52,1,160,6|0,0:0|0:0,0:0:0:0:
309,44,72947,2,0,L|214:47,1,80,8|0,0:0|0:0,0:0:0:0:
103,116,73247,2,0,L|198:119,1,80,8|0,0:0|0:0,0:0:0:0:
152,259,73547,1,8,0:0:0:0:
19,170,73697,6,0,P|3:101|58:26,1,160,6|0,0:0|0:0,0:0:0:0:
193,40,74147,2,0,B|234:48|234:48|284:39,1,80,8|0,0:0|0:0,0:0:0:0:
419,21,74447,1,8,0:0:0:0:
445,36,74522,1,8,0:0:0:0:
463,60,74597,1,8,0:0:0:0:
473,89,74672,1,8,0:0:0:0:
477,119,74747,1,8,0:0:0:0:
472,149,74822,1,8,0:0:0:0:
459,178,74897,6,0,B|429:231|429:231|446:363,1,184.000003509522,6|0,0:0|0:0,0:0:0:0:
317,297,75347,2,0,L|328:202,1,92.0000017547608,8|0,0:0|0:0,0:0:0:0:
203,266,75647,2,0,L|214:360,1,92.0000017547608,2|2,0:0|0:0,0:0:0:0:
80,319,75947,1,8,0:0:0:0:
135,192,76097,6,0,P|172:169|243:174,1,92.0000017547608,2|0,0:0|0:0,0:0:0:0:
353,135,76397,2,0,B|364:97|364:97|353:18,1,92.0000017547608,0|8,0:0|0:0,0:0:0:0:
222,81,76697,1,0,0:0:0:0:
296,196,76847,2,0,P|341:217|397:206,1,92.0000017547608,2|2,0:0|0:0,0:0:0:0:
500,142,77147,1,8,0:0:0:0:
353,135,77297,6,0,B|332:174|332:174|346:336,1,184.000003509522,6|0,0:0|0:0,0:0:0:0:
220,374,77747,2,0,L|229:273,1,92.0000017547608,8|0,0:0|0:0,0:0:0:0:
106,216,78047,2,0,L|115:316,1,92.0000017547608,2|2,0:0|0:0,0:0:0:0:
0,227,78347,1,8,0:0:0:0:
65,105,78497,6,0,P|114:98|163:113,1,92.0000017547608,2|0,0:0|0:0,0:0:0:0:
289,139,78797,2,0,B|292:81|292:81|274:30,1,92.0000017547608,0|8,0:0|0:0,0:0:0:0:
155,109,79097,1,0,0:0:0:0:
243,214,79247,2,0,P|279:227|336:213,1,92.0000017547608,2|2,0:0|0:0,0:0:0:0:
426,116,79547,1,8,0:0:0:0:
281,49,79697,6,0,B|234:35|234:35|92:44,1,184.000003509522,6|0,0:0|0:0,0:0:0:0:
23,160,80147,2,0,L|133:166,1,92.0000017547608,8|0,0:0|0:0,0:0:0:0:
202,272,80447,2,0,L|91:278,1,92.0000017547608,2|2,0:0|0:0,0:0:0:0:
206,377,80747,1,8,0:0:0:0:
312,289,80897,6,0,P|310:244|283:195,1,92.0000017547608,2|0,0:0|0:0,0:0:0:0:
189,106,81197,2,0,L|198:-14,1,92.0000017547608,0|8,0:0|0:0,0:0:0:0:
59,39,81497,1,0,0:0:0:0:
115,165,81647,2,0,P|153:194|208:199,1,92.0000017547608,2|2,0:0|0:0,0:0:0:0:
297,106,81947,1,8,0:0:0:0:
418,218,82097,6,0,B|419:347|419:347|375:278,1,184.000003509522,6|0,0:0|3:0,0:0:0:0:
303,192,82547,1,8,3:0:0:0:
302,329,82697,1,8,3:0:0:0:
195,200,82847,1,8,3:0:0:0:
186,337,82997,1,8,3:0:0:0:
95,233,83147,1,8,3:0:0:0:
225,130,83297,6,0,L|280:123,2,40,4|0|8,3:0|0:0|0:0,0:0:0:0:
297,34,83597,2,0,L|352:41,2,40,4|0|8,3:0|0:0|0:0,0:0:0:0:
370,128,83897,2,0,L|425:121,2,40,4|0|8,3:0|0:0|0:0,0:0:0:0:
442,32,84197,2,0,L|497:39,2,40,4|0|8,3:0|0:0|0:0,0:0:0:0:
297,34,84497,6,0,B|283:81|283:81|294:220,1,184.000003509522,4|0,0:0|0:0,0:0:0:0:
168,276,84947,2,0,L|175:172,1,92.0000017547608,8|0,0:0|0:0,0:0:0:0:
58,108,85247,2,0,L|65:211,1,92.0000017547608,2|0,0:0|0:0,0:0:0:0:
84,337,85547,1,8,0:0:0:0:
243,293,85697,6,0,B|304:287|304:287|363:307|363:307|436:299,1,184.000003509522,2|0,0:0|0:0,0:0:0:0:
496,183,86147,2,0,P|503:140|492:91,1,92.0000017547608,8|0,0:0|0:0,0:0:0:0:
355,87,86447,2,0,P|348:130|359:179,1,92.0000017547608,2|0,0:0|0:0,0:0:0:0:
423,301,86747,1,8,0:0:0:0:
243,293,86897,6,0,B|169:278|117:321|117:321|69:271,1,184.000003509522,6|0,0:0|0:0,0:0:0:0:
22,159,87347,2,0,L|28:61,1,92.0000017547608,8|0,0:0|0:0,0:0:0:0:
153,9,87647,2,0,L|159:107,1,92.0000017547608,2|0,0:0|0:0,0:0:0:0:
248,205,87947,1,8,0:0:0:0:
317,54,88097,6,0,B|380:37|380:37|505:49,1,184.000003509522,2|0,0:0|0:0,0:0:0:0:
500,187,88547,2,0,L|389:197,1,92.0000017547608,8|0,0:0|0:0,0:0:0:0:
356,324,88847,2,0,L|466:334,1,92.0000017547608,2|0,0:0|0:0,0:0:0:0:
288,232,89147,1,8,0:0:0:0:
180,286,89297,6,0,P|172:342|192:386,2,92.0000017547608,6|0|0,0:0|0:0|0:0,0:0:0:0:
239,161,89747,2,0,B|247:118|247:118|243:65,1,92.0000017547608,8|0,0:0|0:0,0:0:0:0:
104,81,90047,2,0,B|96:124|96:124|100:177,1,92.0000017547608,2|0,0:0|0:0,0:0:0:0:
180,286,90347,1,8,0:0:0:0:
326,209,90497,6,0,B|388:202|388:202|446:220|446:220|511:212,1,184.000003509522,2|0,0:0|0:0,0:0:0:0:
473,78,90947,2,0,L|352:64,1,92.0000017547608,8|0,0:0|0:0,0:0:0:0:
245,91,91247,2,0,P|207:126|191:175,1,92.0000017547608,2|0,0:0|0:0,0:0:0:0:
326,209,91547,1,8,0:0:0:0:
166,254,91697,6,0,P|107:206|133:89,1,184.000003509522,6|0,0:0|0:0,0:0:0:0:
223,20,92147,2,0,L|327:23,1,92.0000017547608,8|0,0:0|0:0,0:0:0:0:
417,116,92447,2,0,L|313:119,1,92.0000017547608,2|0,0:0|0:0,0:0:0:0:
193,163,92747,1,8,0:0:0:0:
286,299,92897,6,0,B|326:304|326:304|381:286|381:286|443:292,1,138.000002632141,2|0,0:0|0:0,0:0:0:0:
499,314,93197,2,0,P|496:256|419:208,1,138.000002632141,2|0,0:0|0:0,0:0:0:0:
353,211,93497,2,0,B|344:167|344:167|353:113,1,92.0000017547608,2|0,0:0|0:0,0:0:0:0:
426,27,93797,2,0,L|478:20,2,46.0000008773804,8|8|8,0:0|0:0|0:0,0:0:0:0:
286,65,94097,6,0,P|234:95|133:81,1,143.999995605469,6|8,0:0|0:0,0:0:0:0:
57,157,94547,2,0,L|60:241,1,71.9999978027344,2|0,0:0|0:0,0:0:0:0:
154,294,94847,2,0,L|157:210,1,71.9999978027344,8|0,0:0|0:0,0:0:0:0:
255,163,95147,1,0,0:0:0:0:
311,279,95297,6,0,B|361:289|361:289|461:269,1,143.999995605469,2|8,0:0|0:0,0:0:0:0:
510,171,95747,1,0,0:0:0:0:
416,103,95897,2,0,B|408:68|408:68|415:14,1,71.9999978027344,0|8,0:0|0:0,0:0:0:0:
326,109,96197,2,0,B|334:144|334:144|327:198,1,71.9999978027344,0|8,0:0|0:0,0:0:0:0:
232,242,96497,6,0,B|180:246|180:246|138:264|138:264|70:269,1,143.999995605469,2|8,0:0|0:0,0:0:0:0:
17,178,96947,2,0,P|8:143|16:98,1,71.9999978027344,2|0,0:0|0:0,0:0:0:0:
126,89,97247,2,0,P|135:124|127:169,1,71.9999978027344,8|0,0:0|0:0,0:0:0:0:
92,268,97547,1,0,0:0:0:0:
195,346,97697,6,0,B|234:361|271:343|271:343|304:325|354:338,1,143.999995605469,2|8,0:0|0:0,0:0:0:0:
446,361,98147,1,2,0:0:0:0:
383,247,98297,1,8,0:0:0:0:
383,247,98372,1,8,0:0:0:0:
383,247,98447,1,8,0:0:0:0:
509,274,98597,1,8,0:0:0:0:
446,160,98747,1,8,0:0:0:0:
304,185,98897,6,0,B|249:197|249:197|132:187,1,143.999995605469,6|8,0:0|0:0,0:0:0:0:
56,163,99347,2,0,P|50:129|61:77,1,71.9999978027344,2|0,0:0|0:0,0:0:0:0:
161,119,99647,2,0,P|167:153|156:205,1,71.9999978027344,8|0,0:0|0:0,0:0:0:0:
130,293,99947,1,2,0:0:0:0:
242,340,100097,6,0,B|287:322|287:322|405:328,1,143.999995605469,2|8,0:0|0:0,0:0:0:0:
479,277,100547,2,0,P|480:241|474:189,1,71.9999978027344,2|0,0:0|0:0,0:0:0:0:
380,255,100847,2,0,P|379:291|385:343,1,71.9999978027344,8|0,0:0|0:0,0:0:0:0:
482,367,101147,1,8,0:0:0:0:
400,169,101297,6,0,B|356:160|327:185|327:185|296:164|240:178,1,143.999995605469,6|0,0:0|0:0,0:0:0:0:
166,221,101747,1,8,0:0:0:0:
138,118,101897,2,0,L|142:34,1,71.9999978027344,0|2,0:0|0:0,0:0:0:0:
42,90,102197,2,0,L|46:174,1,71.9999978027344,0|8,0:0|0:0,0:0:0:0:
54,269,102497,1,2,0:0:0:0:
152,353,102647,6,0,P|184:358|241:340,1,71.9999978027344,8|0,0:0|0:0,0:0:0:0:
294,239,102947,1,8,0:0:0:0:
318,366,103097,1,0,0:0:0:0:
183,269,103247,1,8,0:0:0:0:
346,296,103397,1,2,0:0:0:0:
346,296,103697,6,0,L|336:144,1,143.999995605469,6|0,0:0|0:0,0:0:0:0:
248,77,104147,2,0,L|242:172,1,71.9999978027344,8|0,0:0|0:0,0:0:0:0:
186,248,104447,2,0,P|146:255|90:240,1,71.9999978027344,2|0,0:0|0:0,0:0:0:0:
23,180,104747,1,8,0:0:0:0:
106,80,104897,6,0,B|164:74|164:74|202:82|202:82|262:75,1,143.999995605469,2|0,0:0|0:0,0:0:0:0:
362,56,105347,1,8,0:0:0:0:
416,157,105497,2,0,L|412:252,1,71.9999978027344,0|2,0:0|0:0,0:0:0:0:
311,282,105797,2,0,L|307:187,1,71.9999978027344,0|8,0:0|0:0,0:0:0:0:
222,307,106097,6,0,P|265:362|363:359,1,143.999995605469,2|0,0:0|0:0,0:0:0:0:
424,299,106547,2,0,B|423:262|423:262|405:203,1,71.9999978027344,8|0,0:0|0:0,0:0:0:0:
337,140,106847,2,0,B|300:141|300:141|241:159,1,71.9999978027344,2|0,0:0|0:0,0:0:0:0:
175,222,107147,1,8,0:0:0:0:
50,187,107297,6,0,B|30:144|30:144|42:40,1,143.999995605469,2|0,0:0|0:0,0:0:0:0:
155,28,107747,2,0,L|165:109,1,71.9999978027344,8|0,0:0|0:0,0:0:0:0:
267,151,108047,2,0,L|277:69,1,71.9999978027344,2|0,0:0|0:0,0:0:0:0:
389,61,108347,1,8,0:0:0:0:
348,199,108497,6,0,P|283:244|206:223,1,143.999995605469,6|0,0:0|0:0,0:0:0:0:
130,303,108947,2,0,L|136:390,1,71.9999978027344,8|0,0:0|0:0,0:0:0:0:
34,317,109247,2,0,L|40:230,1,71.9999978027344,2|0,0:0|0:0,0:0:0:0:
117,159,109547,1,8,0:0:0:0:
222,234,109697,6,0,B|266:237|266:237|313:218|313:218|362:221,1,143.999995605469,2|0,0:0|0:0,0:0:0:0:
474,196,110147,2,0,P|481:153|465:111,1,71.9999978027344,8|0,0:0|0:0,0:0:0:0:
361,151,110447,2,0,P|354:194|370:236,1,71.9999978027344,2|0,0:0|0:0,0:0:0:0:
414,323,110747,1,8,0:0:0:0:
285,303,110897,6,0,B|241:294|241:294|122:304,1,143.999995605469,2|0,0:0|0:0,0:0:0:0:
40,248,111347,2,0,P|30:212|37:164,1,71.9999978027344,8|0,0:0|0:0,0:0:0:0:
113,76,111647,1,2,0:0:0:0:
136,203,111797,1,0,0:0:0:0:
254,149,111947,1,8,0:0:0:0:
285,303,112097,6,0,P|348:308|427:246,1,143.999995605469,6|2,0:0|0:0,0:0:0:0:
470,132,112547,1,8,0:0:0:0:
336,77,112697,2,0,B|331:44|331:44|337:-6,1,71.9999978027344,2|8,0:0|0:0,0:0:0:0:
232,106,112997,2,0,B|237:139|237:139|231:189,1,71.9999978027344,2|8,0:0|0:0,0:0:0:0:
172,296,113297,5,6,0:0:0:0:
163,116,118097,6,0,B|204:103|204:103|308:108,1,128,6|0,0:0|0:0,0:0:0:0:
384,112,118547,1,8,0:0:0:0:
259,258,118847,1,8,0:0:0:0:
445,212,119147,1,8,0:0:0:0:
320,358,119447,5,8,0:0:0:0:
242,182,119747,1,8,0:0:0:0:
117,328,120047,2,0,L|40:332,2,64,8|0|8,0:0|0:0|0:0,0:0:0:0:
76,213,120497,5,6,0:0:0:0:
76,213,121697,2,0,B|69:127|69:127|103:87,1,128,6|0,0:0|0:0,0:0:0:0:
187,25,122147,1,8,0:0:0:0:
204,33,122222,1,0,0:0:0:0:
221,40,122297,1,0,0:3:0:0:
239,43,122372,1,0,0:3:0:0:
257,45,122447,2,0,L|301:39,5,32,8|8|8|8|8|8,0:0|0:3|0:3|0:3|0:3|0:3,0:0:0:0:
371,40,122897,6,0,P|416:89|398:178,1,143.999995605469,6|0,0:0|0:0,0:0:0:0:
325,230,123347,2,0,L|340:383,2,143.999995605469,2|2|2,0:0|0:0|0:0,0:0:0:0:
242,160,124097,6,0,P|203:153|141:166,1,71.9999978027344,0|2,0:0|0:0,0:0:0:0:
199,260,124397,1,0,0:0:0:0:
101,213,124547,2,0,P|80:155|137:73,2,143.999995605469,2|2|2,0:0|0:0|0:0,0:0:0:0:
242,160,125297,6,0,B|284:153|284:153|344:164|344:164|394:157,1,143.999995605469,8|0,0:0|0:0,0:0:0:0:
487,125,125747,2,0,P|488:189|437:253,2,143.999995605469,2|2|2,0:0|0:0|0:0,0:0:0:0:
288,37,126647,6,0,L|121:43,1,143.999995605469,2|4,0:0|0:0,0:0:0:0:
12,213,127247,2,0,L|179:219,1,143.999995605469,2|8,0:0|3:0,0:0:0:0:
285,223,127697,6,0,B|303:262|303:262|294:370,1,143.999995605469,6|0,0:0|0:0,0:0:0:0:
403,359,128147,2,0,L|410:274,1,71.9999978027344,2|0,0:0|0:0,0:0:0:0:
403,179,128447,2,0,P|387:147|354:115,1,71.9999978027344,8|0,0:0|0:0,0:0:0:0:
267,68,128747,1,2,0:0:0:0:
207,182,128897,6,0,B|155:186|155:186|114:169|114:169|59:173,1,143.999995605469,2|8,0:0|0:0,0:0:0:0:
1,85,129347,2,0,P|33:68|78:64,1,71.9999978027344,2|0,0:0|0:0,0:0:0:0:
185,115,129647,2,0,P|202:147|206:192,1,71.9999978027344,8|0,0:0|0:0,0:0:0:0:
129,287,129947,1,8,0:0:0:0:
247,339,130097,6,0,B|297:347|297:347|397:339,1,143.999995605469,6|0,0:0|0:0,0:0:0:0:
471,268,130547,1,8,0:0:0:0:
405,181,130697,2,0,P|394:149|402:94,1,71.9999978027344,2|0,0:0|0:0,0:0:0:0:
501,132,130997,1,0,0:0:0:0:
441,41,131147,1,8,0:0:0:0:
303,84,131297,6,0,P|252:88|175:39,1,143.999995605469,6|0,0:0|0:0,0:0:0:0:
67,36,131747,1,8,0:0:0:0:
27,123,131897,1,0,0:0:0:0:
27,128,131972,1,0,0:0:0:0:
27,134,132047,1,12,3:0:0:0:
27,140,132122,1,8,3:0:0:0:
27,146,132197,1,8,3:0:0:0:
27,152,132272,1,8,3:0:0:0:
27,158,132347,1,8,3:0:0:0:
28,164,132422,1,8,3:0:0:0:
28,170,132497,6,0,P|95:218|213:186,1,184.000003509522,6|0,0:0|0:0,0:0:0:0:
276,94,132947,1,8,0:0:0:0:
405,142,133097,2,0,B|413:184|413:184|407:253,1,92.0000017547608,0|2,0:0|0:0,0:0:0:0:
393,371,133397,1,0,0:0:0:0:
498,282,133547,1,8,0:0:0:0:
314,296,133697,6,0,P|268:301|216:288,1,92.0000017547608,2|0,0:0|0:0,0:0:0:0:
241,154,133997,2,0,P|287:149|339:162,1,92.0000017547608,0|8,0:0|0:0,0:0:0:0:
466,185,134297,2,0,B|472:146|472:146|466:89,1,92.0000017547608,0|2,0:0|0:0,0:0:0:0:
348,22,134597,1,0,0:0:0:0:
331,158,134747,1,8,0:0:0:0:
206,63,134897,6,0,B|171:41|171:41|77:41|52:113,1,184.000003509522,6|0,0:0|0:0,0:0:0:0:
39,243,135347,1,8,0:0:0:0:
128,348,135497,2,0,L|228:342,1,92.0000017547608,0|2,0:0|0:0,0:0:0:0:
373,331,135797,1,0,0:0:0:0:
265,255,135947,1,8,0:0:0:0:
422,206,136097,6,0,B|439:154|439:154|423:26,1,184.000003509522,2|0,0:0|0:0,0:0:0:0:
284,25,136547,2,0,L|273:116,1,92.0000017547608,8|0,0:0|0:0,0:0:0:0:
265,255,136847,1,2,0:0:0:0:
191,138,136997,1,0,0:0:0:0:
319,187,137147,1,8,0:0:0:0:
168,230,137297,6,0,P|103:172|116:80,1,184.000003509522,6|0,0:0|0:0,0:0:0:0:
241,29,137747,2,0,L|335:25,1,92.0000017547608,8|0,0:0|0:0,0:0:0:0:
439,113,138047,2,0,L|345:109,1,92.0000017547608,2|0,0:0|0:0,0:0:0:0:
454,21,138347,1,8,0:0:0:0:
505,163,138497,6,0,P|512:204|504:265,1,80,6|0,0:0|0:0,0:0:0:0:
414,317,138797,2,0,P|407:276|415:215,1,80,2|8,0:0|0:0,0:0:0:0:
277,151,139097,6,0,B|238:143|238:143|147:148,1,92.0000017547608,6|0,0:0|0:0,0:0:0:0:
127,271,139397,2,0,B|166:279|166:279|257:274,1,92.0000017547608,2|8,0:0|0:0,0:0:0:0:
347,187,139697,6,0,B|361:152|355:117|329:93|329:93|372:64|372:64|354:12,1,207.999990478516,6|0,0:0|0:0,0:0:0:0:
277,151,140147,1,8,0:0:0:0:
367,277,140297,1,8,3:0:0:0:
367,277,140372,1,8,3:0:0:0:
367,277,140447,6,0,P|409:254|435:206,1,92.0000017547608,8|8,0:0|3:0,0:0:0:0:
336,100,140747,1,8,0:0:0:0:
336,100,140822,1,8,0:0:0:0:
336,100,140897,2,0,B|288:102|288:102|223:71,1,92.0000017547608,6|0,0:0|0:0,0:0:0:0:
106,17,141197,1,0,0:0:0:0:
151,147,141347,1,8,0:0:0:0:
3,95,141497,5,0,0:0:0:0:
48,225,141647,1,8,0:0:0:0:
151,147,141797,1,8,0:0:0:0:
181,137,141872,1,8,0:0:0:0:
213,140,141947,1,8,0:0:0:0:
241,154,142022,1,8,0:0:0:0:
258,180,142097,6,0,B|318:183|318:183|373:159|373:159|449:163,1,184.000003509522,6|0,0:0|0:0,0:0:0:0:
304,77,142547,1,8,0:0:0:0:
181,137,142697,2,0,P|170:184|191:239,1,92.0000017547608,0|2,0:0|0:0,0:0:0:0:
255,342,142997,2,0,P|266:295|245:240,1,92.0000017547608,0|8,0:0|0:0,0:0:0:0:
102,214,143297,6,0,B|61:222|61:222|4:218,1,92.0000017547608,2|0,0:0|0:0,0:0:0:0:
40,83,143597,2,0,B|81:75|81:75|138:79,1,92.0000017547608,0|8,0:0|0:0,0:0:0:0:
244,162,143897,2,0,L|255:260,1,92.0000017547608,0|2,0:0|0:0,0:0:0:0:
306,382,144197,1,0,0:0:0:0:
181,322,144347,1,8,0:0:0:0:
335,300,144497,6,0,B|398:285|442:317|442:317|482:313|488:255,1,184.000003509522,6|0,0:0|0:0,0:0:0:0:
490,129,144947,1,8,0:0:0:0:
359,173,145097,2,0,P|293:173|214:72,1,184.000003509522,0|0,0:0|0:0,0:0:0:0:
329,61,145547,1,8,0:0:0:0:
490,129,145697,6,0,B|496:188|496:188|473:239|473:239|485:320,1,184.000003509522,2|0,0:0|0:0,0:0:0:0:
345,264,146147,2,0,L|360:162,1,92.0000017547608,8|0,0:0|0:0,0:0:0:0:
221,213,146447,2,0,L|236:314,1,92.0000017547608,2|0,0:0|0:0,0:0:0:0:
98,279,146747,1,8,0:0:0:0:
179,145,146897,6,0,B|230:119|273:153|273:153|310:120|292:58,1,184.000003509522,6|0,0:0|0:0,0:0:0:0:
423,21,147347,1,8,0:0:0:0:
481,146,147497,2,0,B|491:204|491:204|474:240|474:240|507:280|489:340,1,184.000003509522,0|0,0:0|0:0,0:0:0:0:
368,379,147947,1,8,0:0:0:0:
295,240,148097,6,0,B|221:204|135:244|135:244|174:280,1,207.999990478516,6|0,0:0|0:0,0:0:0:0:
285,374,148547,1,8,0:0:0:0:
386,255,148697,6,0,B|398:218|398:218|390:146,1,92.0000017547608,6|0,0:0|0:0,0:0:0:0:
298,62,148997,2,0,B|286:99|286:99|294:171,1,92.0000017547608,2|8,0:0|0:0,0:0:0:0:
234,302,149297,6,0,P|180:320|84:264,1,160,6|0,0:0|0:0,0:0:0:0:
58,161,149747,2,0,L|67:65,1,80,8|2,0:0|0:0,0:0:0:0:
166,16,150047,2,0,L|175:112,1,80,8|2,0:0|0:0,0:0:0:0:
227,202,150347,1,8,0:0:0:0:
329,113,150497,6,0,B|366:91|366:91|501:98,1,160,6|0,0:0|0:0,0:0:0:0:
508,215,150947,2,0,L|405:221,1,80,8|2,0:0|0:0,0:0:0:0:
389,333,151247,2,0,L|491:339,1,80,8|2,0:0|0:0,0:0:0:0:
340,242,151547,1,8,0:0:0:0:
215,337,151697,6,0,B|142:375|73:337|73:337|97:322|111:286,1,184.000003509522,6|0,0:0|0:0,0:0:0:0:
133,178,152147,1,8,0:0:0:0:
22,260,152297,1,0,0:0:0:0:
39,123,152447,2,0,P|67:90|131:68,1,92.0000017547608,2|0,0:0|0:0,0:0:0:0:
247,89,152747,1,8,0:0:0:0:
289,239,152897,6,0,B|346:254|346:254|477:238,1,184.000003509522,2|0,0:0|0:0,0:0:0:0:
380,344,153347,2,0,B|335:349|335:349|279:331,1,92.0000017547608,8|0,0:0|0:0,0:0:0:0:
160,288,153647,1,2,0:0:0:0:
289,239,153797,1,0,0:0:0:0:
159,194,153947,1,8,0:0:0:0:
58,313,154097,6,0,B|26:261|26:261|47:113,1,184.000003509522,6|0,0:0|0:0,0:0:0:0:
143,44,154547,2,0,P|186:35|237:48,1,92.0000017547608,8|0,0:0|0:0,0:0:0:0:
351,115,154847,1,2,0:0:0:0:
232,185,154997,1,0,0:0:0:0:
232,45,155147,1,8,0:0:0:0:
310,180,155297,6,0,B|331:219|331:219|331:299|304:355,1,184.000003509522,2|0,0:0|0:0,0:0:0:0:
165,346,155747,1,8,0:0:0:0:
134,211,155897,2,0,P|134:163|165:109,1,92.0000017547608,0|2,0:0|0:0,0:0:0:0:
232,45,156197,1,0,0:0:0:0:
231,186,156347,1,8,0:0:0:0:
341,84,156497,6,0,B|381:54|381:54|459:84|465:156,1,184.000003509522,6|0,0:0|0:0,0:0:0:0:
430,283,156947,1,8,0:0:0:0:
339,180,157097,1,0,0:0:0:0:
239,276,157247,2,0,B|228:314|228:314|236:372,1,92.0000017547608,2|0,0:0|0:0,0:0:0:0:
341,276,157547,1,8,0:0:0:0:
221,175,157697,6,0,B|159:172|159:172|103:200|103:200|24:196,1,184.000003509522,2|0,0:0|0:0,0:0:0:0:
75,61,158147,1,8,0:0:0:0:
229,83,158297,2,0,P|291:115|297:227,1,184.000003509522,0|0,0:0|0:0,0:0:0:0:
209,324,158747,1,8,0:0:0:0:
363,300,158897,6,0,B|409:294|409:294|451:308|451:308|498:277|486:197,1,184.000003509522,6|0,0:0|0:0,0:0:0:0:
427,102,159347,2,0,B|419:69|419:69|428:0,1,92.0000017547608,8|0,0:0|0:0,0:0:0:0:
290,35,159647,2,0,B|298:68|298:68|289:137,1,92.0000017547608,2|0,0:0|0:0,0:0:0:0:
225,247,159947,1,8,0:0:0:0:
98,155,160097,6,0,B|65:216|65:216|83:338,1,184.000003509522,6|0,0:0|0:0,0:0:0:0:
211,375,160547,1,8,0:0:0:0:
333,310,160697,1,0,3:0:0:0:
333,310,160772,1,0,3:0:0:0:
333,310,160847,2,0,L|384:308,5,46.0000008773804,8|8|8|8|8|8,0:0|3:0|3:0|3:0|3:0|3:0,0:0:0:0:
434,252,161297,6,0,B|443:190|443:190|419:136|419:136|435:55,1,184.000003509522,6|0,0:0|0:0,0:0:0:0:
298,113,161747,2,0,L|318:212,1,92.0000017547608,8|0,0:0|0:0,0:0:0:0:
181,168,162047,2,0,L|201:68,1,92.0000017547608,2|0,0:0|0:0,0:0:0:0:
64,113,162347,1,8,0:0:0:0:
90,258,162497,6,0,P|129:285|259:269,1,184.000003509522,2|0,0:0|0:0,0:0:0:0:
336,154,162947,2,0,L|443:150,1,92.0000017547608,8|0,0:0|0:0,0:0:0:0:
489,274,163247,2,0,L|382:270,1,92.0000017547608,2|0,0:0|0:0,0:0:0:0:
258,270,163547,1,8,0:0:0:0:
171,139,163697,6,0,B|121:79|180:11|180:11|209:55,1,184.000003509522,6|0,0:0|0:0,0:0:0:0:
201,213,164147,2,0,P|155:217|114:195,1,92.0000017547608,8|0,0:0|0:0,0:0:0:0:
15,291,164447,2,0,P|61:287|102:309,1,92.0000017547608,2|0,0:0|0:0,0:0:0:0:
222,374,164747,1,8,0:0:0:0:
329,260,164897,6,0,B|352:206|352:206|335:78,1,184.000003509522,2|0,0:0|0:0,0:0:0:0:
201,45,165347,2,0,L|189:139,1,92.0000017547608,8|0,0:0|0:0,0:0:0:0:
65,197,165647,2,0,L|53:102,1,92.0000017547608,2|0,0:0|0:0,0:0:0:0:
190,136,165947,1,8,0:0:0:0:
131,280,166097,6,0,B|75:319|12:288|12:288|23:320|56:340,1,184.000003509522,6|0,0:0|0:0,0:0:0:0:
65,197,166547,2,0,P|108:177|176:186,1,92.0000017547608,8|0,0:0|0:0,0:0:0:0:
266,254,166847,1,2,0:0:0:0:
131,280,166997,1,0,0:0:0:0:
246,357,167147,1,8,0:0:0:0:
368,259,167297,6,0,P|333:175|239:154,1,184.000003509522,2|0,0:0|0:0,0:0:0:0:
113,176,167747,2,0,B|101:139|101:139|107:68,1,92.0000017547608,8|0,0:0|0:0,0:0:0:0:
242,62,168047,2,0,B|254:99|254:99|248:170,1,92.0000017547608,2|0,0:0|0:0,0:0:0:0:
202,282,168347,1,8,0:0:0:0:
334,199,168497,6,0,B|379:190|379:190|423:204|423:204|487:192|491:129,1,184.000003509522,6|0,0:0|0:0,0:0:0:0:
426,22,168947,1,8,0:0:0:0:
394,18,169022,1,0,0:0:0:0:
362,26,169097,1,0,0:0:0:0:
334,42,169172,1,0,0:0:0:0:
313,66,169247,2,0,L|315:112,3,46.0000008773804,2|0|0|0,0:0|0:0|0:0|0:0,0:0:0:0:
256,170,169547,2,0,L|258:216,3,46.0000008773804,8|0|0|0,0:0|0:0|0:0|0:0,0:0:0:0:
199,274,169847,6,0,P|141:282|79:264,2,92.0000017547608,2|0|8,0:0|0:0|0:0,0:0:0:0:
325,366,170297,2,0,P|383:358|445:376,1,92.0000017547608,2|0,0:0|0:0,0:0:0:0:
491,227,170597,2,0,B|502:181|502:181|489:115,1,92.0000017547608,6|0,0:0|0:0,0:0:0:0:
379,24,170897,5,6,0:0:0:0:
60,183,180497,6,0,B|108:181|108:181|152:192|152:192|204:189,1,143.999995605469,6|0,0:0|0:0,0:0:0:0:
310,176,180947,2,0,P|317:140|307:94,1,71.9999978027344,2|0,0:0|0:0,0:0:0:0:
204,118,181247,2,0,P|197:154|207:200,1,71.9999978027344,2|0,0:0|0:0,0:0:0:0:
253,283,181547,1,2,0:0:0:0:
310,176,181697,6,0,B|399:158|399:158|474:178,1,143.999995605469,8|0,0:0|0:0,0:0:0:0:
440,279,182147,2,0,P|401:280|356:256,1,71.9999978027344,2|0,0:0|0:0,0:0:0:0:
310,176,182447,1,2,0:0:0:0:
255,281,182597,1,0,0:0:0:0:
202,188,182747,1,2,0:0:0:0:
263,78,182897,6,0,P|326:68|401:120,1,143.999995605469,8|0,0:0|0:0,0:0:0:0:
447,200,183347,1,2,0:0:0:0:
499,105,183497,2,0,L|495:22,1,71.9999978027344,0|2,0:0|0:0,0:0:0:0:
447,200,183797,2,0,L|443:283,1,71.9999978027344,8|2,0:0|0:0,0:0:0:0:
331,336,184097,6,0,P|278:358|180:322,1,143.999995605469,8|0,0:0|0:0,0:0:0:0:
77,311,184547,2,0,L|84:385,1,71.9999978027344,2|0,0:0|0:0,0:0:0:0:
15,222,184847,2,0,B|50:196|50:196|107:212|160:196,1,143.999995605469,8|0,0:0|0:0,0:0:0:0:
266,163,185297,6,0,B|277:118|277:118|266:80|266:80|276:28,1,136.000002593994,6|0,0:0|0:0,0:0:0:0:
377,32,185747,2,0,P|413:27|460:32,1,68.0000012969971,2|0,0:0|0:0,0:0:0:0:
436,131,186047,2,0,P|400:136|353:131,1,68.0000012969971,8|0,0:0|0:0,0:0:0:0:
272,98,186347,1,0,0:0:0:0:
195,195,186497,6,0,B|186:240|186:240|199:284|199:284|188:345,1,136.000002593994,2|8,0:0|0:0,0:0:0:0:
96,290,186947,1,2,0:0:0:0:
16,225,187097,2,0,L|1:158,1,68.0000012969971,0|8,0:0|0:0,0:0:0:0:
115,132,187397,2,0,L|100:198,1,68.0000012969971,0|8,0:0|0:0,0:0:0:0:
42,66,187697,6,0,P|88:37|177:56,1,136.000002593994,6|0,0:0|0:0,0:0:0:0:
259,116,188147,2,0,L|265:195,1,68.0000012969971,8|0,0:0|0:0,0:0:0:0:
275,299,188447,1,2,0:0:0:0:
357,239,188597,1,0,0:0:0:0:
368,355,188747,1,8,0:0:0:0:
457,281,188897,6,0,P|465:248|458:200,1,68.0000012969971,6|0,0:0|0:0,0:0:0:0:
401,115,189197,1,8,0:0:0:0:
383,98,189272,1,8,0:0:0:0:
360,89,189347,1,8,0:0:0:0:
336,90,189422,1,8,0:0:0:0:
314,99,189497,1,6,0:0:0:0:
128,184,189797,6,0,L|105:84,1,90.0000034332277,0|0,0:0|0:0,0:0:0:0:
88,67,190097,6,0,L|63:157,1,80,0|0,0:0|0:0,0:0:0:0:
46,215,190547,5,2,0:0:0:0:
223,189,190697,2,0,B|262:178|262:178|359:182,1,132.00000402832,4|0,3:0|0:0,0:0:0:0:
437,182,190997,2,0,P|417:235|342:264,1,132.00000402832,4|0,3:0|0:0,0:0:0:0:
295,327,191297,6,0,B|344:315|344:315|454:332,1,132.00000402832,4|0,3:0|0:0,0:0:0:0:
485,270,191597,2,0,P|508:212|495:115,1,132.00000402832,4|0,3:0|0:0,0:0:0:0:
437,92,191897,6,0,B|367:106|337:93|337:93|350:89|363:72,1,132.00000402832,4|0,3:0|0:0,0:0:0:0:
299,15,192197,2,0,P|254:67|268:142,1,132.00000402832,4|0,3:0|0:0,0:0:0:0:
268,217,192497,6,0,B|207:220|207:220|150:203|150:203|79:208,1,191.999994140625,6|0,0:0|0:0,0:0:0:0:
133,342,192947,1,8,0:0:0:0:
16,257,193097,2,0,P|0:217|17:157,1,95.9999970703126,0|2,0:0|0:0,0:0:0:0:
114,67,193397,1,0,0:0:0:0:
79,208,193547,1,8,0:0:0:0:
220,125,193697,6,0,B|270:141|270:141|426:123,1,191.999994140625,2|0,0:0|0:0,0:0:0:0:
467,256,194147,2,0,L|360:244,1,95.9999970703126,8|0,0:0|0:0,0:0:0:0:
210,219,194447,1,2,0:0:0:0:
286,352,194597,1,0,0:0:0:0:
134,328,194747,1,8,0:0:0:0:
295,266,194897,6,0,B|307:122|307:122|281:64,1,191.999994140625,6|0,0:0|0:0,0:0:0:0:
155,19,195347,1,8,0:0:0:0:
155,163,195497,1,0,0:0:0:0:
287,79,195647,2,0,P|327:56|394:57,1,95.9999970703126,2|0,0:0|0:0,0:0:0:0:
499,127,195947,1,8,0:0:0:0:
359,158,196097,6,0,B|353:210|353:210|368:264|368:264|356:352,1,167.999994873047,6|0,0:0|0:0,0:0:0:0:
443,229,196547,1,8,0:0:0:0:
286,274,196697,6,0,P|197:253|142:160,1,191.999994140625,6|0,0:0|0:0,0:0:0:0:
266,148,197147,1,8,0:0:0:0:
443,229,197297,6,0,B|468:275|468:275|460:377|460:377|507:329,1,216.000000823975,6|0,0:0|0:0,0:0:0:0:
359,158,197747,1,8,0:0:0:0:
286,274,197897,1,0,3:0:0:0:
292,311,197972,1,0,3:0:0:0:
298,344,198047,6,0,L|236:345,3,47.9999985351563,8|0|0|0,0:0|3:0|3:0|3:0,0:0:0:0:
159,335,198347,1,0,3:0:0:0:
135,310,198422,1,0,3:0:0:0:
120,279,198497,6,0,L|131:166,1,95.9999970703126,6|0,0:0|0:0,0:0:0:0:
204,38,198797,1,2,0:0:0:0:
257,171,198947,1,8,0:0:0:0:
332,26,199097,1,2,0:0:0:0:
382,160,199247,1,8,0:0:0:0:
277,91,199397,1,8,0:0:0:0:
243,91,199472,1,8,0:0:0:0:
211,103,199547,1,8,0:0:0:0:
187,126,199622,1,8,0:0:0:0:
171,156,199697,6,0,B|160:215|160:215|181:275|181:275|164:349,1,191.999994140625,6|0,0:0|0:0,0:0:0:0:
259,206,200147,1,8,0:0:0:0:
86,280,200297,2,0,P|66:326|70:373,1,95.9999970703126,0|2,0:0|0:0,0:0:0:0:
171,156,200597,2,0,P|152:109|116:78,1,95.9999970703126,0|8,0:0|0:0,0:0:0:0:
255,284,200897,6,0,L|369:278,1,95.9999970703126,2|0,0:0|0:0,0:0:0:0:
488,190,201197,2,0,L|374:184,1,95.9999970703126,0|8,0:0|0:0,0:0:0:0:
248,173,201497,1,0,0:0:0:0:
330,55,201647,1,2,0:0:0:0:
392,185,201797,1,0,0:0:0:0:
244,80,201947,1,8,0:0:0:0:
337,248,202097,6,0,P|423:262|474:178,1,191.999994140625,6|0,0:0|0:0,0:0:0:0:
436,42,202547,1,8,0:0:0:0:
327,136,202697,2,0,L|203:131,1,95.9999970703126,0|2,0:0|0:0,0:0:0:0:
146,248,202997,2,0,L|270:243,1,95.9999970703126,0|8,0:0|0:0,0:0:0:0:
94,174,203297,6,0,P|56:253|126:337,1,191.999994140625,2|0,0:0|0:0,0:0:0:0:
272,353,203747,1,8,0:0:0:0:
146,248,203897,1,0,0:0:0:0:
231,132,204047,2,0,B|245:95|245:95|236:18,1,95.9999970703126,2|0,0:0|0:0,0:0:0:0:
100,81,204347,1,8,0:0:0:0:
224,214,204497,6,0,P|314:237|414:214,1,191.999994140625,6|0,0:0|0:0,0:0:0:0:
498,101,204947,1,8,0:0:0:0:
359,138,205097,2,0,B|349:199|349:199|366:261|366:261|347:346,1,191.999994140625,0|0,0:0|0:0,0:0:0:0:
212,367,205547,1,8,0:0:0:0:
98,243,205697,6,0,B|55:163|103:76|103:76|150:117,1,223.999993164063,6|0,0:0|0:0,0:0:0:0:
268,217,206147,1,8,0:0:0:0:
160,313,206297,6,0,P|74:334|5:248,1,191.999994140625,6|0,0:0|0:0,0:0:0:0:
5,122,206747,1,8,0:0:0:0:
113,28,206897,6,0,B|170:25|170:25|221:41|221:41|292:36,1,167.999994873047,6|0,0:0|0:0,0:0:0:0:
420,25,207347,1,8,0:0:0:0:
329,135,207497,1,0,0:0:0:0:
471,124,207647,1,8,0:0:0:0:
486,149,207722,1,8,0:0:0:0:
494,177,207797,1,8,0:0:0:0:
497,206,207872,1,8,0:0:0:0:
493,235,207947,2,0,L|496:293,3,41.9999987182618,2|0|8|0,0:0|0:0|0:0|0:0,0:0:0:0:
441,330,208247,5,2,0:0:0:0:
319,363,208397,1,8,0:0:0:0:
289,359,208472,1,8,0:0:0:0:
262,343,208547,1,8,0:0:0:0:
242,321,208622,1,8,0:0:0:0:
228,294,208697,1,8,0:0:0:0:
230,264,208772,1,8,0:0:0:0:
244,236,208847,2,0,L|241:181,5,44.0000013427735,8|8|8|8|8|8,3:0|3:0|3:0|3:0|3:0|3:0,0:0:0:0:
197,121,209297,6,0,B|140:101|66:127|66:127|70:97|95:74,1,191.999994140625,6|0,0:0|0:0,0:0:0:0:
232,39,209747,2,0,L|335:35,1,95.9999970703126,8|0,0:0|0:0,0:0:0:0:
413,152,210047,2,0,L|310:148,1,95.9999970703126,2|2,0:0|0:0,0:0:0:0:
355,287,210347,1,8,0:0:0:0:
478,212,210497,6,0,P|497:179|490:106,1,95.9999970703126,2|0,0:0|0:0,0:0:0:0:
378,39,210797,2,0,B|343:49|343:49|257:42,1,95.9999970703126,0|8,0:0|0:0,0:0:0:0:
139,24,211097,1,0,0:0:0:0:
39,128,211247,2,0,L|48:242,1,95.9999970703126,2|2,0:0|0:0,0:0:0:0:
60,368,211547,1,8,0:0:0:0:
186,265,211697,6,0,B|261:259|261:259|301:277|301:277|386:268,1,191.999994140625,6|0,0:0|0:0,0:0:0:0:
490,183,212147,2,0,P|497:133|488:82,1,95.9999970703126,8|0,0:0|0:0,0:0:0:0:
373,175,212447,2,0,P|366:225|375:276,1,95.9999970703126,2|2,0:0|0:0,0:0:0:0:
478,368,212747,1,8,0:0:0:0:
315,354,212897,6,0,L|212:359,1,95.9999970703126,2|0,0:0|0:0,0:0:0:0:
121,252,213197,2,0,L|224:257,1,95.9999970703126,0|8,0:0|0:0,0:0:0:0:
120,363,213497,1,0,0:0:0:0:
23,255,213647,2,0,P|35:204|77:163,1,95.9999970703126,2|2,0:0|0:0,0:0:0:0:
186,95,213947,1,8,0:0:0:0:
216,256,214097,6,0,B|277:269|277:269|323:243|323:243|404:243,1,191.999994140625,6|0,0:0|0:0,0:0:0:0:
474,118,214547,2,0,P|480:66|457:17,1,95.9999970703126,8|0,0:0|0:0,0:0:0:0:
389,151,214847,2,0,P|383:203|406:252,1,95.9999970703126,2|2,0:0|0:0,0:0:0:0:
478,362,215147,1,8,0:0:0:0:
317,334,215297,6,0,B|277:330|277:330|212:335,1,95.9999970703126,2|0,0:0|0:0,0:0:0:0:
171,199,215597,2,0,B|211:203|211:203|276:198,1,95.9999970703126,0|8,0:0|0:0,0:0:0:0:
210,66,215897,1,0,0:0:0:0:
91,147,216047,2,0,P|77:191|94:253,1,95.9999970703126,2|2,0:0|0:0,0:0:0:0:
151,368,216347,1,8,0:0:0:0:
171,199,216497,6,0,B|241:189|241:189|292:208|292:208|370:198,1,191.999994140625,6|0,0:0|0:0,0:0:0:0:
507,168,216947,1,8,3:0:0:0:
404,281,217097,1,8,3:0:0:0:
421,129,217247,1,8,3:0:0:0:
498,263,217397,1,8,3:0:0:0:
358,199,217547,1,8,3:0:0:0:
360,67,217697,6,0,L|369:20,2,44.0000013427735,4|0|8,3:0|0:0|0:0,0:0:0:0:
263,158,217997,2,0,L|272:205,2,44.0000013427735,4|0|8,3:0|0:0|0:0,0:0:0:0:
167,67,218297,2,0,L|176:20,2,44.0000013427735,4|0|8,3:0|0:0|0:0,0:0:0:0:
70,158,218597,2,0,L|79:205,2,44.0000013427735,4|0|8,3:0|0:0|0:0,0:0:0:0:
26,296,218897,6,0,P|108:304|186:217,1,191.999994140625,6|0,0:0|0:0,0:0:0:0:
232,97,219347,2,0,P|281:84|333:94,1,95.9999970703126,8|0,0:0|0:0,0:0:0:0:
275,226,219647,2,0,P|226:239|174:229,1,95.9999970703126,2|0,0:0|0:0,0:0:0:0:
70,158,219947,1,8,0:0:0:0:
140,303,220097,6,0,P|238:321|331:290,1,191.999994140625,2|0,0:0|0:0,0:0:0:0:
415,182,220547,1,8,0:0:0:0:
489,282,220697,1,0,3:0:0:0:
489,282,220772,1,0,3:0:0:0:
489,281,220847,2,0,L|481:391,1,95.9999970703126,2|0,0:0|0:0,0:0:0:0:
324,294,221147,1,8,0:0:0:0:
436,162,221297,6,0,B|368:157|368:157|317:179|317:179|230:172,1,191.999994140625,6|0,0:0|0:0,0:0:0:0:
89,102,221747,1,8,0:0:0:0:
246,79,221897,1,0,3:0:0:0:
246,79,221972,1,0,3:0:0:0:
246,79,222047,2,0,B|256:115|256:115|247:184,1,95.9999970703126,2|0,0:0|0:0,0:0:0:0:
111,280,222347,1,8,0:0:0:0:
280,313,222497,6,0,B|334:304|368:336|368:336|429:329|452:282,1,191.999994140625,2|0,0:0|0:0,0:0:0:0:
482,148,222947,1,8,0:0:0:0:
321,176,223097,2,0,B|253:175|215:120|215:120|138:144,1,191.999994140625,0|0,0:0|0:0,0:0:0:0:
182,280,223547,1,8,0:0:0:0:
50,183,223697,6,0,P|46:106|144:31,1,191.999994140625,6|0,0:0|0:0,0:0:0:0:
269,41,224147,2,0,B|315:47|315:47|383:40,1,95.9999970703126,8|0,0:0|0:0,0:0:0:0:
416,177,224447,2,0,B|370:171|370:171|302:178,1,95.9999970703126,2|0,0:0|0:0,0:0:0:0:
367,313,224747,1,8,0:0:0:0:
499,225,224897,6,0,P|508:151|396:81,1,191.999994140625,2|0,0:0|0:0,0:0:0:0:
286,121,225347,2,0,B|264:164|264:164|268:231,1,95.9999970703126,8|0,0:0|0:0,0:0:0:0:
149,296,225647,2,0,B|171:253|171:253|167:186,1,95.9999970703126,2|0,0:0|0:0,0:0:0:0:
24,220,225947,1,8,0:0:0:0:
86,370,226097,6,0,P|155:349|295:351,1,191.999994140625,6|0,0:0|0:0,0:0:0:0:
403,281,226547,2,0,L|413:168,1,95.9999970703126,8|0,0:0|0:0,0:0:0:0:
349,55,226847,1,8,0:0:0:0:
318,39,226922,1,8,0:0:0:0:
284,35,226997,1,8,0:0:0:0:
251,41,227072,1,8,0:0:0:0:
222,58,227147,1,8,0:0:0:0:
202,85,227222,1,8,0:0:0:0:
189,122,227297,6,0,B|177:185|177:185|188:213|188:213|167:308,1,167.999994873047,6|0,0:0|0:0,0:0:0:0:
109,237,227597,6,0,P|183:207|251:286,1,167.999994873047,4|0,3:0|0:0,0:0:0:0:
287,324,227897,6,0,B|332:289|319:236|319:236|334:205|334:205|317:145,1,167.999994873047,4|0,3:0|0:0,0:0:0:0:
320,94,228197,6,0,B|397:78|397:78|370:104,1,111.999996582031,4|0,3:0|0:0,0:0:0:0:
