osu file format v14

[General]
AudioFilename: audio.mp3
AudioLeadIn: 0
PreviewTime: 189722
Countdown: 0
SampleSet: Soft
StackLeniency: 0.4
Mode: 0
LetterboxInBreaks: 0
WidescreenStoryboard: 0

[Editor]
Bookmarks: 36497,65297,161297,170897,180497,228347
DistanceSpacing: 1.5
BeatDivisor: 4
GridSize: 4
TimelineZoom: 1.3

[Metadata]
Title:GATE~Sore wa Akatsuki no you ni~
TitleUnicode:GATE~それは暁のように~
Artist:KISIDA KYODAN & THE AKEBOSI ROCKETS
ArtistUnicode:岸田教団&THE明星ロケッツ
Creator:Akitoshi
Version:Hard
Source:GATE 自衛隊 彼の地にて、斯く戦えり
Tags:Jieitai Kanochi Nite Kaku Tatakaeri Opening Rory ゲート Full version SnowNiNo_ Corinn
BeatmapID:1027174
BeatmapSetID:480386

[Difficulty]
HPDrainRate:5
CircleSize:3.7
OverallDifficulty:6
ApproachRate:8
SliderMultiplier:1.3
SliderTickRate:1

[Events]
//Background and Video events
0,0,"rory.jpg",0,0
//Break Periods
2,113497,117347
2,171097,179747
//Storyboard Layer 0 (Background)
//Storyboard Layer 1 (Fail)
//Storyboard Layer 2 (Pass)
//Storyboard Layer 3 (Foreground)
//Storyboard Sound Samples

[TimingPoints]
5447,300,4,2,1,40,1,0
6497,-100,4,2,1,50,0,0
15197,-100,4,2,1,30,0,0
16547,-100,4,2,1,50,0,0
17297,-100,4,2,1,70,0,0
26897,-100,4,2,1,50,0,0
46097,-111.111111111111,4,2,1,50,0,0
55622,-100,4,2,1,5,0,0
55697,-90.9090909090909,4,2,1,70,0,1
74447,-100,4,2,1,60,0,0
74897,-90.9090909090909,4,2,1,70,0,1
84497,-95.2380952380952,4,2,1,70,0,0
94097,-100,4,2,1,50,0,0
118097,-111.111111111111,4,2,1,50,0,0
132497,-90.9090909090909,4,2,1,70,0,1
151697,-100,4,2,1,50,0,0
161297,-100,4,2,1,70,0,0
170897,-111.111111111111,4,2,1,50,0,0
180497,-100,4,2,1,50,0,0
189797,-111.111111111111,4,2,1,50,0,0
190547,-100,4,2,1,50,0,0
191822,-100,4,2,1,10,0,0
191897,-100,4,2,1,50,0,0
192122,-100,4,2,1,10,0,0
192197,-100,4,2,1,50,0,0
192422,-100,4,2,1,10,0,0
192497,-86.9565217391304,4,2,1,70,0,1
208847,-95.2380952380952,4,2,1,70,0,0
209297,-86.9565217391304,4,2,1,70,0,1
218897,-90.9090909090909,4,2,1,70,0,0
227522,-90.9090909090909,4,2,1,10,0,0
227597,-90.9090909090909,4,2,1,70,0,0
227822,-90.9090909090909,4,2,1,10,0,0
227897,-90.9090909090909,4,2,1,70,0,0
228122,-90.9090909090909,4,2,1,10,0,0
228197,-90.9090909090909,4,2,1,70,0,0
228347,-90.9090909090909,4,2,1,10,0,0

[Colours]
Combo1 : 255,128,255
Combo2 : 255,128,64
Combo3 : 255,128,128
Combo4 : 242,24,57

[HitObjects]
272,129,5447,5,4,0:0:0:0:
243,255,5747,1,4,0:0:0:0:
131,321,6047,2,0,L|153:359,2,32.5,8|8|8,0:0|0:0|0:0,0:0:0:0:
88,248,6347,1,2,0:0:0:0:
52,171,6497,6,0,B|95:155|95:155|189:160,1,130,2|0,0:0|0:0,0:0:0:0:
262,171,6947,2,0,P|274:135|268:79,1,65,4|0,0:0|0:0,0:0:0:0:
315,34,7247,1,2,3:0:0:0:
315,34,7322,1,2,0:0:0:0:
315,34,7397,2,0,L|395:36,1,65,12|0,0:0|0:0,0:0:0:0:
451,80,7697,6,0,B|460:128|460:128|453:235,1,130,4|0,0:0|0:0,0:0:0:0:
414,283,8147,2,0,P|362:291|331:285,1,65,8|0,0:0|0:0,0:0:0:0:
265,285,8447,2,0,L|262:226,5,32.5,4|8|8|8|8|8,3:0|0:0|0:0|0:0|0:0|0:0,0:0:0:0:
233,222,8897,6,0,B|192:209|192:209|90:215,1,130,4|0,0:0|0:0,0:0:0:0:
20,214,9347,2,0,P|15:180|31:127,1,65,8|0,0:0|3:0,0:0:0:0:
78,88,9647,2,0,L|71:35,5,32.5,8|0|0|0|0|0,0:0|3:0|3:0|3:0|3:0|3:0,0:0:0:0:
103,25,10097,6,0,P|165:42|237:26,1,130,4|0,0:0|0:0,0:0:0:0:
313,36,10547,1,8,0:0:0:0:
371,97,10697,2,0,L|369:181,1,65,8|2,0:0|0:0,0:0:0:0:
290,191,10997,2,0,L|292:107,1,65,8|0,0:0|0:0,0:0:0:0:
211,154,11297,6,0,L|208:306,1,130,4|0,0:0|0:0,0:0:0:0:
145,340,11747,2,0,P|108:343|65:335,1,65,8|0,0:0|0:0,0:0:0:0:
18,281,12047,2,0,P|15:244|23:201,1,65,8|8,3:0|3:0,0:0:0:0:
45,136,12347,1,8,0:0:0:0:
108,80,12497,6,0,B|159:76|159:76|190:88|190:88|243:85,1,130,4|0,0:0|0:0,0:0:0:0:
319,74,12947,2,0,L|316:-4,1,65,8|0,0:0|0:0,0:0:0:0:
400,11,13247,2,0,L|403:89,1,65,8|0,0:0|0:0,0:0:0:0:
406,160,13547,1,8,0:0:0:0:
376,239,13697,6,0,P|316:257|236:216,1,130,4|0,0:0|0:0,0:0:0:0:
193,176,14147,2,0,L|115:180,1,65,8|8,3:0|0:0,0:0:0:0:
109,261,14447,2,0,L|187:257,1,65,8|8,0:0|0:0,0:0:0:0:
255,235,14747,1,8,0:0:0:0:
243,331,14897,5,6,0:0:0:0:
243,331,15197,2,0,P|311:340|371:320,1,130,0|0,0:0|0:0,0:0:0:0:
419,253,15647,2,0,L|417:178,1,65,0|0,0:0|0:0,0:0:0:0:
357,128,15947,2,0,L|355:53,1,65,0|0,0:0|0:0,0:0:0:0:
279,25,16247,6,0,P|245:33|195:31,1,65,0|0,0:0|0:0,0:0:0:0:
130,43,16547,2,0,P|114:79|119:120,1,65,4|0,0:0|0:0,0:0:0:0:
119,188,16847,2,0,L|126:222,5,32.5,8|8|8|8|8|8,0:0|0:0|0:0|0:0|0:0|0:0,0:0:0:0:
140,260,17297,6,0,P|203:248|284:263,1,130,6|0,0:0|0:0,0:0:0:0:
350,276,17747,2,0,P|386:278|434:266,1,65,8|0,0:0|0:0,0:0:0:0:
470,210,18047,2,0,P|472:174|460:126,1,65,2|0,0:0|0:0,0:0:0:0:
433,68,18347,1,8,0:0:0:0:
360,111,18497,6,0,B|308:122|308:122|215:106,1,130,2|0,0:0|0:0,0:0:0:0:
149,90,18947,2,0,L|150:17,1,65,8|0,0:0|0:0,0:0:0:0:
65,25,19247,2,0,L|64:98,1,65,2|0,0:0|0:0,0:0:0:0:
65,175,19547,1,8,0:0:0:0:
105,248,19697,6,0,P|155:274|245:266,1,130,6|0,0:0|0:0,0:0:0:0:
299,228,20147,2,0,B|303:195|303:195|298:137,1,65,8|0,0:0|0:0,0:0:0:0:
321,81,20447,2,0,P|359:73|402:80,1,65,2|0,0:0|0:0,0:0:0:0:
462,107,20747,1,8,0:0:0:0:
502,181,20897,6,0,B|510:234|510:234|503:321,1,130,2|0,0:0|0:0,0:0:0:0:
444,369,21347,1,8,0:0:0:0:
364,340,21497,2,0,L|290:342,1,65,0|2,0:0|0:0,0:0:0:0:
214,346,21797,1,0,3:0:0:0:
150,289,21947,1,8,0:0:0:0:
170,207,22097,6,0,B|181:163|181:163|175:75,1,130,6|0,0:0|0:0,0:0:0:0:
259,76,22547,2,0,L|264:154,1,65,8|0,0:0|0:0,0:0:0:0:
348,137,22847,2,0,L|342:58,1,65,2|0,0:0|3:0,0:0:0:0:
402,12,23147,1,8,0:0:0:0:
461,71,23297,6,0,B|483:112|483:112|492:226,1,130,2|0,0:0|0:0,0:0:0:0:
471,278,23747,2,0,P|426:303|389:303,1,65,8|0,0:0|0:0,0:0:0:0:
335,270,24047,2,0,P|310:225|310:188,1,65,2|0,0:0|0:0,0:0:0:0:
348,137,24347,1,8,0:0:0:0:
313,60,24497,6,0,B|266:51|266:51|167:59,1,130,6|0,0:0|0:0,0:0:0:0:
99,65,24947,2,0,L|93:-6,1,65,8|0,0:0|0:0,0:0:0:0:
19,40,25247,2,0,L|13:111,1,65,2|0,0:0|0:0,0:0:0:0:
2,188,25547,1,8,0:0:0:0:
63,245,25697,6,0,B|72:292|72:292|59:376,2,130,2|2|2,0:0|0:0|0:0,0:0:0:0:
208,158,26597,2,0,L|251:157,3,32.5,8|8|8|8,0:0|0:0|0:0|0:0,0:0:0:0:
283,155,26897,6,0,P|306:211|295:300,1,130,6|0,0:0|0:0,0:0:0:0:
333,358,27347,2,0,L|414:353,1,65,8|0,0:0|0:0,0:0:0:0:
473,315,27647,2,0,P|478:285|470:233,1,65,2|0,0:0|0:0,0:0:0:0:
459,167,27947,1,8,0:0:0:0:
421,91,28097,6,0,B|374:69|374:69|286:75,1,130,2|0,0:0|0:0,0:0:0:0:
211,86,28547,1,8,0:0:0:0:
126,87,28697,2,0,P|122:52|128:9,1,65,0|2,0:0|0:0,0:0:0:0:
40,22,28997,2,0,P|44:57|38:100,1,65,0|8,0:0|0:0,0:0:0:0:
19,168,29297,6,0,B|9:228|9:228|18:304,1,130,2|0,0:0|0:0,0:0:0:0:
76,357,29747,2,0,P|109:360|154:350,1,65,8|0,0:0|0:0,0:0:0:0:
210,306,30047,2,0,P|243:303|288:313,1,65,2|0,0:0|0:0,0:0:0:0:
353,337,30347,1,8,0:0:0:0:
431,306,30497,6,0,B|443:261|443:261|430:163,1,130,2|0,0:0|0:0,0:0:0:0:
400,100,30947,2,0,P|368:94|326:96,1,65,8|0,0:0|0:0,0:0:0:0:
255,119,31247,2,0,P|233:143|214:181,1,65,2|0,0:0|0:0,0:0:0:0:
205,255,31547,1,8,0:0:0:0:
188,337,31697,6,0,B|133:347|133:347|39:332,1,130,6|0,0:0|0:0,0:0:0:0:
8,267,32147,2,0,L|14:190,1,65,8|0,0:0|0:0,0:0:0:0:
72,142,32447,2,0,L|78:65,1,65,2|0,0:0|0:0,0:0:0:0:
136,17,32747,1,8,0:0:0:0:
213,51,32897,6,0,P|278:66|348:48,1,130,2|0,0:0|0:0,0:0:0:0:
423,47,33347,2,0,B|427:84|427:84|423:134,1,65,8|0,0:0|0:0,0:0:0:0:
399,192,33647,2,0,B|395:229|395:229|399:279,1,65,2|0,0:0|0:0,0:0:0:0:
403,341,33947,1,8,0:0:0:0:
323,368,34097,6,0,P|261:357|209:288,1,130,2|0,0:0|0:0,0:0:0:0:
194,228,34547,1,8,0:0:0:0:
213,145,34697,2,0,B|264:134|264:134|364:138,1,130,0|0,0:0|0:0,0:0:0:0:
426,147,35147,1,8,0:0:0:0:
472,217,35297,2,0,L|467:262,3,32.5,2|0|2|2,0:0|0:0|0:0|0:0,0:0:0:0:
449,286,35597,6,0,P|402:308|319:296,2,130,2|2|2,3:0|3:0|3:0,0:0:0:0:
499,124,36497,6,0,B|490:31|490:31|444:66,1,130,6|0,0:0|0:0,0:0:0:0:
385,91,36947,2,0,P|345:95|297:83,1,65,8|0,0:0|0:0,0:0:0:0:
239,66,37247,2,0,P|199:62|151:74,1,65,2|0,0:0|0:0,0:0:0:0:
98,102,37547,1,8,0:0:0:0:
48,170,37697,6,0,B|40:215|40:215|47:255|47:255|39:313,1,130,2|0,0:0|0:0,0:0:0:0:
88,368,38147,1,8,0:0:0:0:
155,316,38297,2,0,P|185:310|236:315,1,65,0|2,0:0|0:0,0:0:0:0:
298,341,38597,2,0,P|328:347|379:342,1,65,0|8,0:0|0:0,0:0:0:0:
439,312,38897,6,0,B|454:268|454:268|439:168,1,130,2|0,0:0|0:0,0:0:0:0:
399,112,39347,2,0,L|314:116,1,65,8|0,0:0|0:0,0:0:0:0:
274,55,39647,2,0,L|189:59,1,65,2|0,0:0|0:0,0:0:0:0:
125,67,39947,1,8,0:0:0:0:
53,111,40097,6,0,P|16:172|40:243,1,130,2|0,0:0|0:0,0:0:0:0:
99,182,40547,2,0,L|174:180,1,65,8|0,0:0|0:0,0:0:0:0:
223,240,40847,2,0,L|298:238,1,65,2|0,0:0|0:0,0:0:0:0:
372,234,41147,1,8,0:0:0:0:
428,170,41297,6,0,P|456:224|437:290,1,130,6|0,0:0|0:0,0:0:0:0:
373,342,41747,2,0,P|338:348|295:339,1,65,8|0,0:0|0:0,0:0:0:0:
227,321,42047,2,0,P|192:315|149:324,1,65,2|0,0:0|0:0,0:0:0:0:
80,341,42347,1,8,0:0:0:0:
17,283,42497,6,0,B|5:235|5:235|19:132,1,130,2|0,0:0|0:0,0:0:0:0:
49,77,42947,2,0,P|84:69|134:77,1,65,8|0,0:0|0:0,0:0:0:0:
195,89,43247,2,0,P|230:97|280:89,1,65,2|0,0:0|0:0,0:0:0:0:
333,56,43547,1,8,0:0:0:0:
408,93,43697,6,0,B|421:137|421:137|415:236,1,130,6|0,0:0|0:0,0:0:0:0:
377,296,44147,2,0,P|343:303|288:288,1,65,8|0,0:0|0:0,0:0:0:0:
232,275,44447,2,0,P|198:268|143:283,1,65,2|0,0:0|0:0,0:0:0:0:
89,301,44747,1,8,0:0:0:0:
26,244,44897,6,0,B|25:206|25:206|39:165|39:165|38:113,1,130,6|0,0:0|0:0,0:0:0:0:
97,56,45347,1,8,0:0:0:0:
177,80,45497,2,0,L|256:77,1,65,2|8,0:0|0:0,0:0:0:0:
301,17,45797,2,0,L|380:20,1,65,2|8,0:0|0:0,0:0:0:0:
426,74,46097,6,0,P|450:114|425:238,1,175.499994644165,6|2,0:0|0:0,0:0:0:0:
291,302,46847,2,0,L|168:310,2,116.999996429443,8|8|8,3:0|3:0|3:0,0:0:0:0:
340,158,47747,1,8,3:0:0:0:
242,41,48047,2,0,B|197:35|197:35|115:48,1,116.999996429443,8|8,3:0|3:0,0:0:0:0:
51,57,48497,6,0,P|74:80|74:185,1,116.999996429443,0|0,0:0|0:0,0:0:0:0:
54,230,48947,1,8,3:0:0:0:
123,365,49247,2,0,L|247:360,1,116.999996429443,8|8,3:0|3:0,0:0:0:0:
291,302,49697,6,0,P|297:266|292:228,1,58.4999982147217,0|8,0:0|3:0,0:0:0:0:
266,173,49997,2,0,P|264:143|270:115,1,58.4999982147217,0|8,0:0|3:0,0:0:0:0:
328,65,50297,1,8,0:0:0:0:
328,65,50372,1,8,0:0:0:0:
328,65,50447,2,0,L|412:61,2,58.4999982147217,8|8|0,0:0|0:0|0:0,0:0:0:0:
240,29,50897,6,0,L|103:35,1,116.999996429443,4|8,0:0|0:0,0:0:0:0:
49,56,51347,2,0,P|41:90|48:127,1,58.4999982147217,2|0,0:0|0:0,0:0:0:0:
80,179,51647,2,0,P|107:242|76:301,1,116.999996429443,8|2,0:0|0:0,0:0:0:0:
31,238,52097,6,0,L|171:243,1,116.999996429443,2|2,0:0|0:0,0:0:0:0:
223,255,52547,2,0,L|232:317,1,58.4999982147217,2|0,0:0|0:0,0:0:0:0:
307,312,52847,2,0,L|315:254,1,58.4999982147217,8|0,0:0|0:0,0:0:0:0:
332,180,53147,1,8,0:0:0:0:
338,104,53297,6,0,P|303:53|247:37,1,116.999996429443,6|0,0:0|0:0,0:0:0:0:
177,51,53747,2,0,L|108:50,1,58.4999982147217,8|0,0:0|0:0,0:0:0:0:
116,126,54047,2,0,L|185:127,1,58.4999982147217,2|0,0:0|0:0,0:0:0:0:
251,128,54347,1,8,0:0:0:0:
301,185,54497,6,0,P|311:219|308:268,1,58.4999982147217,6|0,0:0|0:0,0:0:0:0:
311,317,54797,2,0,L|303:358,3,29.2499991073609,8|8|8|8,3:0|3:0|0:0|0:0,0:0:0:0:
278,372,55097,1,8,0:0:0:0:
149,291,55397,2,0,B|121:284|121:284|48:292,1,87.7499973220826,0|0,0:0|0:0,0:0:0:0:
19,309,55697,6,0,P|5:244|40:169,1,143.000004364014,6|0,0:0|0:0,0:0:0:0:
98,109,56147,1,8,0:0:0:0:
186,136,56297,2,0,L|264:132,1,71.5000021820069,0|2,0:0|0:0,0:0:0:0:
266,225,56597,2,0,L|188:221,1,71.5000021820069,0|8,0:0|0:0,0:0:0:0:
116,272,56897,6,0,P|120:310|152:351,1,71.5000021820069,2|0,0:0|0:0,0:0:0:0:
226,363,57197,2,0,P|264:359|305:327,1,71.5000021820069,0|8,0:0|0:0,0:0:0:0:
353,271,57497,1,0,0:0:0:0:
397,189,57647,2,0,L|475:187,2,71.5000021820069,2|0|8,0:0|0:0|0:0,0:0:0:0:
303,183,58097,6,0,B|293:133|293:133|301:95|301:95|287:39,1,143.000004364014,6|0,0:0|0:0,0:0:0:0:
198,15,58547,1,8,0:0:0:0:
118,62,58697,2,0,P|110:100|124:156,1,71.5000021820069,0|2,0:0|0:0,0:0:0:0:
145,219,58997,2,0,P|153:257|139:313,1,71.5000021820069,0|8,0:0|0:0,0:0:0:0:
81,353,59297,6,0,L|227:344,1,143.000004364014,2|0,0:0|0:0,0:0:0:0:
317,336,59747,1,8,0:0:0:0:
391,280,59897,1,0,0:0:0:0:
411,189,60047,2,0,L|508:190,2,71.5000021820069,2|0|8,0:0|0:0|0:0,0:0:0:0:
318,179,60497,6,0,B|309:136|309:136|325:89|325:89|314:34,1,143.000004364014,6|0,0:0|0:0,0:0:0:0:
222,33,60947,2,0,P|181:30|132:42,1,71.5000021820069,8|0,0:0|0:0,0:0:0:0:
70,82,61247,2,0,P|49:112|39:165,1,71.5000021820069,2|0,0:0|0:0,0:0:0:0:
36,238,61547,1,8,0:0:0:0:
140,213,61697,6,0,B|251:206|251:206|221:254,1,143.000004364014,6|0,0:0|0:0,0:0:0:0:
180,308,62147,1,8,0:0:0:0:
279,346,62297,2,0,P|332:307|355:221,1,143.000004364014,6|0,0:0|0:0,0:0:0:0:
333,145,62747,1,8,0:0:0:0:
227,125,62897,6,0,B|169:142|169:142|70:138,1,143.000004364014,6|0,0:0|0:0,0:0:0:0:
75,231,63347,2,0,L|152:234,1,71.5000021820069,8|0,0:0|0:0,0:0:0:0:
212,299,63647,2,0,L|208:376,2,71.5000021820069,2|0|8,0:0|0:0|0:0,0:0:0:0:
278,232,64097,6,0,P|312:227|363:233,1,71.5000021820069,6|0,0:0|0:0,0:0:0:0:
435,194,64397,2,0,P|440:160|434:109,1,71.5000021820069,2|8,0:0|0:0,0:0:0:0:
367,61,64697,1,2,0:0:0:0:
276,41,64847,2,0,L|233:44,5,35.7500010910034,8|8|8|8|8|8,0:0|0:0|0:0|0:0|0:0|0:0,0:0:0:0:
207,76,65297,6,0,B|198:122|198:122|208:165|208:165|195:241,1,143.000004364014,6|0,0:0|0:0,0:0:0:0:
178,306,65747,1,8,0:0:0:0:
256,355,65897,2,0,P|290:359|334:353,1,71.5000021820069,0|2,0:0|0:0,0:0:0:0:
396,293,66197,2,0,P|400:258|394:215,1,71.5000021820069,0|8,0:0|0:0,0:0:0:0:
401,128,66497,6,0,L|485:123,1,71.5000021820069,2|0,0:0|0:0,0:0:0:0:
438,36,66797,2,0,L|354:31,1,71.5000021820069,0|8,0:0|0:0,0:0:0:0:
281,70,67097,1,0,0:0:0:0:
237,152,67247,2,0,P|245:191|246:248,2,71.5000021820069,2|0|8,0:0|0:0|0:0,0:0:0:0:
154,107,67697,6,0,B|138:148|138:148|135:198|155:263,1,143.000004364014,6|0,0:0|0:0,0:0:0:0:
213,314,68147,1,8,0:0:0:0:
302,289,68297,2,0,L|395:286,1,71.5000021820069,0|2,0:0|0:0,0:0:0:0:
394,195,68597,2,0,L|301:192,1,71.5000021820069,0|8,0:0|0:0,0:0:0:0:
237,152,68897,6,0,P|234:118|245:72,1,71.5000021820069,2|0,0:0|0:0,0:0:0:0:
331,60,69197,1,0,0:0:0:0:
398,124,69347,2,0,P|401:158|390:204,1,71.5000021820069,8|0,0:0|0:0,0:0:0:0:
372,287,69647,2,0,L|383:368,2,71.5000021820069,2|0|8,0:0|0:0|0:0,0:0:0:0:
278,233,70097,6,0,B|224:232|224:232|191:248|191:248|117:246,1,143.000004364014,6|0,0:0|0:0,0:0:0:0:
45,241,70547,1,8,0:0:0:0:
22,152,70697,2,0,P|22:86|90:27,1,143.000004364014,0|0,0:0|0:0,0:0:0:0:
109,119,71147,1,8,0:0:0:0:
193,52,71297,6,0,B|232:42|263:61|263:61|297:84|356:62,1,143.000004364014,6|0,0:0|0:0,0:0:0:0:
416,33,71747,1,8,0:0:0:0:
476,121,71897,2,0,B|479:168|479:168|468:204|468:204|472:270,1,143.000004364014,6|0,0:0|0:0,0:0:0:0:
480,354,72347,1,8,0:0:0:0:
378,318,72497,6,0,B|326:304|326:304|230:315,1,143.000004364014,6|0,0:0|0:0,0:0:0:0:
146,331,72947,2,0,P|134:294|136:252,1,71.5000021820069,8|0,0:0|0:0,0:0:0:0:
202,197,73247,2,0,P|214:160|212:118,1,71.5000021820069,8|0,0:0|0:0,0:0:0:0:
155,54,73547,1,8,0:0:0:0:
241,20,73697,6,0,L|391:26,1,143.000004364014,6|0,0:0|0:0,0:0:0:0:
470,61,74147,2,0,P|478:101|473:150,1,71.5000021820069,8|0,0:0|0:0,0:0:0:0:
456,214,74447,2,0,L|460:257,5,32.5,8|8|8|8|8|8,0:0|0:0|0:0|0:0|0:0|0:0,0:0:0:0:
426,279,74897,6,0,P|387:296|285:262,1,143.000004364014,6|0,0:0|0:0,0:0:0:0:
224,208,75347,2,0,P|186:200|139:208,1,71.5000021820069,8|0,0:0|0:0,0:0:0:0:
62,185,75647,2,0,P|54:147|62:100,1,71.5000021820069,2|2,0:0|0:0,0:0:0:0:
109,38,75947,1,8,0:0:0:0:
196,69,76097,6,0,L|280:64,1,71.5000021820069,2|0,0:0|0:0,0:0:0:0:
333,130,76397,2,0,L|417:125,1,71.5000021820069,0|8,0:0|0:0,0:0:0:0:
470,191,76697,1,0,0:0:0:0:
449,281,76847,2,0,P|457:314|461:362,2,71.5000021820069,2|2|8,0:0|0:0|0:0,0:0:0:0:
370,231,77297,6,0,B|326:228|326:228|274:244|274:244|209:228,1,143.000004364014,6|0,0:0|0:0,0:0:0:0:
162,169,77747,2,0,L|166:90,1,71.5000021820069,8|0,0:0|0:0,0:0:0:0:
75,124,78047,2,0,L|79:203,1,71.5000021820069,2|2,0:0|0:0,0:0:0:0:
84,288,78347,1,8,0:0:0:0:
156,345,78497,6,0,P|189:353|241:347,1,71.5000021820069,2|0,0:0|0:0,0:0:0:0:
315,324,78797,2,0,P|348:316|400:322,1,71.5000021820069,0|8,0:0|0:0,0:0:0:0:
474,344,79097,1,0,0:0:0:0:
499,254,79247,2,0,P|502:215|475:161,2,71.5000021820069,2|2|8,0:0|0:0|0:0,0:0:0:0:
409,229,79697,6,0,B|362:215|362:215|261:224,1,143.000004364014,6|0,0:0|0:0,0:0:0:0:
174,224,80147,2,0,P|164:191|170:135,1,71.5000021820069,8|0,0:0|0:0,0:0:0:0:
260,153,80447,2,0,P|270:186|264:242,1,71.5000021820069,2|2,0:0|0:0,0:0:0:0:
226,306,80747,1,8,0:0:0:0:
141,344,80897,6,0,L|52:348,1,71.5000021820069,2|0,0:0|0:0,0:0:0:0:
18,268,81197,2,0,L|107:264,1,71.5000021820069,0|8,0:0|0:0,0:0:0:0:
174,224,81497,1,0,0:0:0:0:
125,144,81647,2,0,P|117:119|123:65,2,71.5000021820069,2|2|8,0:0|0:0|0:0,0:0:0:0:
207,102,82097,6,0,B|250:97|250:97|296:121|350:102,1,143.000004364014,6|0,0:0|3:0,0:0:0:0:
427,55,82547,2,0,P|439:95|429:151,1,71.5000021820069,8|8,3:0|3:0,0:0:0:0:
399,209,82847,2,0,P|361:227|304:227,1,71.5000021820069,8|8,3:0|3:0,0:0:0:0:
239,218,83147,1,8,3:0:0:0:
161,268,83297,6,0,L|166:350,1,71.5000021820069,4|8,3:0|0:0,0:0:0:0:
77,309,83597,2,0,L|82:227,1,71.5000021820069,4|8,3:0|0:0,0:0:0:0:
83,144,83897,2,0,L|1:148,1,71.5000021820069,4|8,3:0|0:0,0:0:0:0:
43,59,84197,2,0,L|125:63,1,71.5000021820069,4|8,3:0|0:0,0:0:0:0:
217,65,84497,6,0,B|224:113|224:113|213:149|213:149|226:222,1,136.499995834351,4|0,0:0|0:0,0:0:0:0:
245,285,84947,2,0,P|279:289|315:281,1,68.2499979171754,8|0,0:0|0:0,0:0:0:0:
393,246,85247,2,0,P|401:283|387:326,2,68.2499979171754,2|0|8,0:0|0:0|0:0,0:0:0:0:
349,168,85697,6,0,P|328:106|348:28,1,136.499995834351,2|0,0:0|0:0,0:0:0:0:
427,64,86147,2,0,P|433:100|425:152,1,68.2499979171754,8|0,0:0|0:0,0:0:0:0:
349,168,86447,2,0,P|313:173|261:165,1,68.2499979171754,2|0,0:0|0:0,0:0:0:0:
199,137,86747,1,8,0:0:0:0:
122,181,86897,6,0,B|101:230|101:230|110:338,1,136.499995834351,6|0,0:0|0:0,0:0:0:0:
176,370,87347,2,0,P|211:371|251:352,1,68.2499979171754,8|0,0:0|0:0,0:0:0:0:
307,298,87647,2,0,P|342:297|382:316,1,68.2499979171754,2|0,0:0|0:0,0:0:0:0:
440,365,87947,1,8,0:0:0:0:
499,298,88097,6,0,L|493:150,1,136.499995834351,2|0,0:0|0:0,0:0:0:0:
459,79,88547,2,0,P|426:68|392:70,1,68.2499979171754,8|0,0:0|0:0,0:0:0:0:
307,96,88847,2,0,P|274:107|240:105,1,68.2499979171754,2|0,0:0|0:0,0:0:0:0:
158,70,89147,1,8,0:0:0:0:
93,130,89297,6,0,L|8:124,2,68.2499979171754,6|0|0,0:0|0:0|0:0,0:0:0:0:
166,180,89747,2,0,P|176:215|170:259,1,68.2499979171754,8|0,0:0|0:0,0:0:0:0:
149,331,90047,2,0,P|188:334|228:316,1,68.2499979171754,2|0,0:0|0:0,0:0:0:0:
278,261,90347,1,8,0:0:0:0:
300,175,90497,6,0,L|291:26,1,136.499995834351,2|0,0:0|0:0,0:0:0:0:
375,68,90947,2,0,L|379:136,1,68.2499979171754,8|0,0:0|0:0,0:0:0:0:
404,221,91247,2,0,P|446:214|482:220,2,68.2499979171754,2|0|8,0:0|0:0|0:0,0:0:0:0:
327,265,91697,6,0,P|262:286|177:261,1,136.499995834351,6|0,0:0|0:0,0:0:0:0:
136,207,92147,2,0,L|143:118,1,68.2499979171754,8|0,0:0|0:0,0:0:0:0:
53,126,92447,2,0,L|46:215,1,68.2499979171754,2|0,0:0|0:0,0:0:0:0:
43,282,92747,1,8,0:0:0:0:
106,344,92897,6,0,B|157:354|157:354|260:344,1,136.499995834351,2|2,0:0|0:0,0:0:0:0:
411,296,93497,2,0,L|432:134,1,136.499995834351,2|8,0:0|0:0,0:0:0:0:
434,73,93947,1,8,0:0:0:0:
349,38,94097,6,0,P|293:60|211:41,1,130,6|8,0:0|0:0,0:0:0:0:
141,37,94547,2,0,L|145:118,1,65,2|0,0:0|0:0,0:0:0:0:
84,162,94847,2,0,L|88:243,1,65,8|0,0:0|0:0,0:0:0:0:
27,287,95147,1,0,0:0:0:0:
86,346,95297,6,0,P|128:360|217:334,1,130,2|8,0:0|0:0,0:0:0:0:
263,274,95747,1,0,0:0:0:0:
319,211,95897,2,0,L|408:215,1,65,0|8,0:0|0:0,0:0:0:0:
383,129,96197,2,0,L|294:133,1,65,0|8,0:0|0:0,0:0:0:0:
233,137,96497,6,0,P|251:78|317:47,1,130,2|8,0:0|0:0,0:0:0:0:
392,45,96947,2,0,P|423:55|461:93,1,65,2|0,0:0|0:0,0:0:0:0:
482,152,97247,2,0,L|474:293,1,130,8|0,0:0|0:0,0:0:0:0:
455,364,97697,6,0,P|419:322|335:312,1,130,2|8,0:0|0:0,0:0:0:0:
266,333,98147,1,2,0:0:0:0:
198,282,98297,1,8,0:0:0:0:
198,282,98372,1,8,0:0:0:0:
198,282,98447,2,0,L|204:195,2,65,8|8|8,0:0|0:0|0:0,0:0:0:0:
146,349,98897,6,0,P|90:353|24:300,1,130,6|8,0:0|0:0,0:0:0:0:
14,229,99347,2,0,L|12:152,1,65,2|0,0:0|0:0,0:0:0:0:
93,140,99647,2,0,L|95:217,1,65,8|0,0:0|0:0,0:0:0:0:
161,256,99947,1,2,0:0:0:0:
240,227,100097,6,0,B|289:224|289:224|328:235|328:235|389:233,1,130,2|8,0:0|0:0,0:0:0:0:
453,225,100547,2,0,P|459:190|448:142,1,65,2|0,0:0|0:0,0:0:0:0:
418,84,100847,2,0,P|390:61|343:46,1,65,8|0,0:0|0:0,0:0:0:0:
280,37,101147,1,8,0:0:0:0:
209,84,101297,6,0,B|162:92|123:70|123:70|65:88,1,130,6|0,0:0|0:0,0:0:0:0:
10,125,101747,1,8,0:0:0:0:
28,207,101897,2,0,L|21:281,1,65,0|2,0:0|0:0,0:0:0:0:
105,286,102197,2,0,L|112:212,1,65,0|8,0:0|0:0,0:0:0:0:
194,206,102497,6,0,L|187:280,1,65,2|8,0:0|0:0,0:0:0:0:
238,338,102797,1,0,0:0:0:0:
310,294,102947,2,0,P|343:293|382:300,1,65,8|0,0:0|0:0,0:0:0:0:
447,339,103247,1,8,0:0:0:0:
501,274,103397,1,2,0:0:0:0:
465,108,103697,6,0,B|417:105|417:105|380:115|380:115|320:111,1,130,6|0,0:0|0:0,0:0:0:0:
252,108,104147,2,0,L|257:22,1,65,8|0,0:0|0:0,0:0:0:0:
171,52,104447,2,0,L|166:138,1,65,2|0,0:0|0:0,0:0:0:0:
159,201,104747,1,8,0:0:0:0:
159,285,104897,6,0,P|197:312|284:305,1,130,2|0,0:0|0:0,0:0:0:0:
337,248,105347,1,8,0:0:0:0:
356,165,105497,2,0,L|449:159,1,65,0|2,0:0|0:0,0:0:0:0:
420,76,105797,2,0,L|327:70,1,65,0|8,0:0|0:0,0:0:0:0:
270,76,106097,6,0,P|241:122|241:206,1,130,2|0,0:0|0:0,0:0:0:0:
224,278,106547,2,0,L|138:287,1,65,8|0,0:0|0:0,0:0:0:0:
74,282,106847,2,0,P|66:251|68:206,1,65,2|0,0:0|0:0,0:0:0:0:
80,134,107147,1,8,0:0:0:0:
140,74,107297,6,0,L|285:76,1,130,2|0,0:0|0:0,0:0:0:0:
354,72,107747,2,0,P|359:38|359:2,1,65,8|0,0:0|0:0,0:0:0:0:
441,25,108047,2,0,P|436:59|436:95,1,65,2|0,0:0|0:0,0:0:0:0:
454,172,108347,1,8,0:0:0:0:
421,249,108497,6,0,B|377:264|377:264|275:256,1,130,6|0,0:0|0:0,0:0:0:0:
208,253,108947,2,0,L|205:328,1,65,8|0,0:0|0:0,0:0:0:0:
120,314,109247,2,0,L|123:239,1,65,2|0,0:0|0:0,0:0:0:0:
130,164,109547,1,8,0:0:0:0:
119,80,109697,6,0,P|62:114|54:196,1,130,2|0,0:0|0:0,0:0:0:0:
45,257,110147,2,0,P|43:289|34:329,1,65,8|0,0:0|0:0,0:0:0:0:
120,314,110447,2,0,P|122:282|131:242,1,65,2|0,0:0|0:0,0:0:0:0:
197,200,110747,1,8,0:0:0:0:
277,224,110897,6,0,B|328:233|328:233|428:221,1,130,2|0,0:0|0:0,0:0:0:0:
485,195,111347,2,0,P|490:162|477:117,1,65,8|0,0:0|0:0,0:0:0:0:
421,74,111647,2,0,L|430:4,2,65,2|0|8,0:0|0:0|0:0,0:0:0:0:
361,133,112097,6,0,P|297:137|241:99,1,130,6|2,0:0|0:0,0:0:0:0:
185,41,112547,1,8,0:0:0:0:
117,92,112697,2,0,L|110:171,1,65,2|8,0:0|0:0,0:0:0:0:
171,216,112997,2,0,L|164:295,1,65,2|8,0:0|0:0,0:0:0:0:
225,340,113297,5,6,0:0:0:0:
67,226,118097,6,0,L|206:214,1,116.999996429443,6|0,0:0|0:0,0:0:0:0:
265,208,118547,2,0,P|243:158|173:134,2,116.999996429443,8|8|8,0:0|0:0|0:0,0:0:0:0:
285,370,119447,2,0,L|421:356,1,116.999996429443,8|8,0:0|0:0,0:0:0:0:
450,201,120047,2,0,L|524:193,2,58.4999982147217,8|0|8,0:0|0:0|0:0,0:0:0:0:
383,151,120497,5,6,0:0:0:0:
383,151,121697,2,0,B|339:138|339:138|252:149,1,116.999996429443,6|0,0:0|0:0,0:0:0:0:
186,152,122147,2,0,P|181:122|187:82,1,58.4999982147217,8|0,0:0|0:3,0:0:0:0:
240,33,122447,2,0,L|281:30,5,29.2499991073609,8|8|8|8|8|8,0:0|0:3|0:3|0:3|0:3|0:3,0:0:0:0:
309,39,122897,6,0,B|329:79|329:79|326:168,1,116.999996429443,6|0,0:0|0:0,0:0:0:0:
301,229,123347,2,0,P|365:223|407:171,2,116.999996429443,2|2|2,0:0|0:0|0:0,0:0:0:0:
169,130,124247,6,0,L|43:138,1,116.999996429443,2|2,0:0|0:0,0:0:0:0:
12,296,124847,2,0,L|138:288,1,116.999996429443,2|2,0:0|0:0,0:0:0:0:
210,283,125297,6,0,B|242:309|248:343|248:343|287:318,1,116.999996429443,8|0,0:0|0:0,0:0:0:0:
348,265,125747,2,0,P|368:328|339:382,2,116.999996429443,2|2|2,0:0|0:0|0:0,0:0:0:0:
245,137,126647,6,0,L|251:16,1,116.999996429443,2|4,0:0|0:0,0:0:0:0:
103,92,127247,2,0,L|109:213,1,116.999996429443,2|8,0:0|3:0,0:0:0:0:
154,277,127697,6,0,P|196:283|269:251,1,116.999996429443,6|0,0:0|0:0,0:0:0:0:
322,198,128147,2,0,L|404:202,1,58.4999982147217,2|0,0:0|0:0,0:0:0:0:
380,118,128447,2,0,L|298:122,1,58.4999982147217,8|0,0:0|0:0,0:0:0:0:
239,129,128747,1,2,0:0:0:0:
157,139,128897,6,0,P|167:88|225:46,1,116.999996429443,2|8,0:0|0:0,0:0:0:0:
297,40,129347,2,0,L|355:37,1,58.4999982147217,2|0,0:0|0:0,0:0:0:0:
413,95,129647,2,0,L|471:92,2,58.4999982147217,8|0|8,0:0|0:0|0:0,0:0:0:0:
354,153,130097,6,0,P|337:198|357:282,1,116.999996429443,6|0,0:0|0:0,0:0:0:0:
377,341,130547,1,8,0:0:0:0:
298,365,130697,2,0,L|161:360,1,116.999996429443,2|0,0:0|0:0,0:0:0:0:
99,350,131147,1,8,0:0:0:0:
42,290,131297,6,0,B|33:248|33:248|46:163,1,116.999996429443,6|0,0:0|0:0,0:0:0:0:
89,106,131747,2,0,L|159:103,1,58.4999982147217,8|0,0:0|0:0,0:0:0:0:
205,45,132047,2,0,L|252:43,5,29.2499991073609,12|8|8|8|8|8,3:0|3:0|3:0|3:0|3:0|3:0,0:0:0:0:
280,45,132497,6,0,P|332:75|352:166,1,143.000004364014,6|0,0:0|0:0,0:0:0:0:
327,240,132947,1,8,0:0:0:0:
251,293,133097,2,0,L|255:377,2,71.5000021820069,0|2|0,0:0|0:0|0:0,0:0:0:0:
179,233,133547,1,8,0:0:0:0:
98,186,133697,6,0,L|9:189,1,71.5000021820069,2|0,0:0|0:0,0:0:0:0:
67,104,133997,2,0,L|156:107,1,71.5000021820069,0|8,0:0|0:0,0:0:0:0:
231,101,134297,2,0,P|236:65|228:13,1,71.5000021820069,0|2,0:0|0:0,0:0:0:0:
321,58,134597,2,0,P|317:93|322:128,1,71.5000021820069,0|8,0:0|0:0,0:0:0:0:
396,186,134897,6,0,P|338:168|240:200,1,143.000004364014,6|0,0:0|0:0,0:0:0:0:
179,233,135347,1,8,0:0:0:0:
242,300,135497,2,0,L|239:380,1,71.5000021820069,0|2,0:0|0:0,0:0:0:0:
332,371,135797,2,0,L|329:299,1,71.5000021820069,0|8,0:0|0:0,0:0:0:0:
327,205,136097,6,0,B|376:202|376:202|418:220|418:220|468:219,1,143.000004364014,2|0,0:0|0:0,0:0:0:0:
510,137,136547,2,0,L|505:54,1,71.5000021820069,8|0,0:0|0:0,0:0:0:0:
412,53,136847,2,0,L|407:136,2,71.5000021820069,2|0|8,0:0|0:0|0:0,0:0:0:0:
324,18,137297,6,0,P|270:20|210:100,1,143.000004364014,6|0,0:0|0:0,0:0:0:0:
174,167,137747,2,0,P|134:171|80:168,1,71.5000021820069,8|0,0:0|0:0,0:0:0:0:
70,257,138047,2,0,P|110:253|164:256,1,71.5000021820069,2|0,0:0|0:0,0:0:0:0:
233,268,138347,1,8,0:0:0:0:
335,298,138497,6,0,L|330:372,1,71.5000021820069,6|0,0:0|0:0,0:0:0:0:
417,335,138797,2,0,L|412:261,1,71.5000021820069,2|8,0:0|0:0,0:0:0:0:
402,156,139097,2,0,B|426:150|426:150|493:148,1,71.5000021820069,6|0,0:0|0:0,0:0:0:0:
503,60,139397,2,0,B|479:66|479:66|412:68,1,71.5000021820069,2|8,0:0|0:0,0:0:0:0:
324,64,139697,6,0,P|269:76|211:158,1,143.000004364014,6|0,0:0|0:0,0:0:0:0:
189,230,140147,2,0,P|150:236|103:226,1,71.5000021820069,8|8,0:0|3:0,0:0:0:0:
45,174,140447,2,0,L|44:126,5,35.7500010910034,8|8|8|8|8|8,0:0|3:0|3:0|3:0|0:0|0:0,0:0:0:0:
62,95,140897,6,0,B|100:68|100:68|203:60,1,143.000004364014,6|0,0:0|0:0,0:0:0:0:
275,108,141347,1,8,0:0:0:0:
299,197,141497,2,0,L|295:277,1,71.5000021820069,0|8,0:0|0:0,0:0:0:0:
334,352,141797,2,0,L|370:355,3,35.7500010910034,8|8|8|8,0:0|0:0|0:0|0:0,0:0:0:0:
416,354,142097,6,0,P|439:308|428:209,1,143.000004364014,6|0,0:0|0:0,0:0:0:0:
375,144,142547,1,8,0:0:0:0:
299,197,142697,2,0,B|264:202|264:202|210:196,1,71.5000021820069,0|2,0:0|0:0,0:0:0:0:
139,167,142997,2,0,B|104:162|104:162|50:168,1,71.5000021820069,0|8,0:0|0:0,0:0:0:0:
86,257,143297,6,0,B|121:262|121:262|175:256,1,71.5000021820069,2|0,0:0|0:0,0:0:0:0:
228,198,143597,2,0,B|263:193|263:193|317:199,1,71.5000021820069,0|8,0:0|0:0,0:0:0:0:
388,223,143897,1,0,0:0:0:0:
459,282,144047,2,0,L|453:366,2,71.5000021820069,2|0|8,0:0|0:0|0:0,0:0:0:0:
468,188,144497,6,0,B|472:138|472:138|456:101|456:101|464:38,1,143.000004364014,6|0,0:0|0:0,0:0:0:0:
375,15,144947,1,8,0:0:0:0:
305,76,145097,2,0,P|249:97|168:75,1,143.000004364014,0|0,0:0|0:0,0:0:0:0:
95,20,145547,1,8,0:0:0:0:
36,91,145697,6,0,B|17:140|17:140|31:245,1,143.000004364014,2|0,0:0|0:0,0:0:0:0:
55,318,146147,2,0,P|94:320|130:311,1,71.5000021820069,8|0,0:0|0:0,0:0:0:0:
210,273,146447,2,0,P|249:271|285:280,1,71.5000021820069,2|0,0:0|0:0,0:0:0:0:
358,327,146747,1,8,0:0:0:0:
457,287,146897,6,0,B|474:245|474:245|448:129,1,143.000004364014,6|0,0:0|0:0,0:0:0:0:
384,86,147347,1,8,0:0:0:0:
318,151,147497,2,0,P|273:157|195:85,1,143.000004364014,0|0,0:0|0:0,0:0:0:0:
285,64,147947,1,8,0:0:0:0:
190,13,148097,6,0,P|126:51|118:132,1,143.000004364014,6|0,0:0|0:0,0:0:0:0:
120,206,148547,1,8,0:0:0:0:
203,272,148697,2,0,B|257:274|257:274|295:258|295:258|368:261,1,143.000004364014,6|2,0:0|0:0,0:0:0:0:
313,340,149147,1,8,0:0:0:0:
418,320,149297,6,0,P|439:265|388:175,1,143.000004364014,6|0,0:0|0:0,0:0:0:0:
321,157,149747,2,0,L|324:67,1,71.5000021820069,8|2,0:0|0:0,0:0:0:0:
232,61,150047,2,0,L|229:151,1,71.5000021820069,8|2,0:0|0:0,0:0:0:0:
169,204,150347,1,8,0:0:0:0:
103,138,150497,6,0,P|77:187|117:282,1,143.000004364014,6|0,0:0|0:0,0:0:0:0:
186,303,150947,2,0,L|268:294,1,71.5000021820069,8|2,0:0|0:0,0:0:0:0:
323,229,151247,2,0,L|405:238,1,71.5000021820069,8|2,0:0|0:0,0:0:0:0:
486,253,151547,1,8,0:0:0:0:
497,156,151697,6,0,P|480:109|388:80,1,130,6|0,0:0|0:0,0:0:0:0:
326,72,152147,2,0,L|320:5,1,65,8|0,0:0|0:0,0:0:0:0:
240,34,152447,2,0,L|234:101,1,65,2|0,0:0|0:0,0:0:0:0:
217,182,152747,1,8,0:0:0:0:
157,241,152897,6,0,P|107:249|39:197,1,130,2|0,0:0|0:0,0:0:0:0:
21,124,153347,2,0,L|27:49,1,65,8|0,0:0|0:0,0:0:0:0:
99,16,153647,2,0,L|105:91,1,65,2|0,0:0|0:0,0:0:0:0:
118,164,153947,1,8,0:0:0:0:
200,112,154097,6,0,B|249:100|249:100|340:119,1,130,6|0,0:0|0:0,0:0:0:0:
407,143,154547,1,8,0:0:0:0:
487,169,154697,2,0,P|491:206|486:238,2,65,0|2|0,0:0|0:0|0:0,0:0:0:0:
469,86,155147,1,8,0:0:0:0:
407,143,155297,6,0,P|391:206|412:278,1,130,2|0,0:0|0:0,0:0:0:0:
439,345,155747,1,8,0:0:0:0:
357,368,155897,2,0,B|291:371|291:371|239:326,1,130,0|0,0:0|0:0,0:0:0:0:
180,271,156347,1,8,0:0:0:0:
220,182,156497,6,0,B|239:142|239:142|222:46,1,130,6|0,0:0|0:0,0:0:0:0:
144,29,156947,2,0,P|110:22|63:29,1,65,8|0,0:0|0:0,0:0:0:0:
11,74,157247,2,0,P|4:108|11:155,1,65,2|0,0:0|0:0,0:0:0:0:
69,195,157547,1,8,0:0:0:0:
150,218,157697,6,0,B|193:220|193:220|238:213|238:213|295:216,1,130,2|0,0:0|0:0,0:0:0:0:
364,218,158147,1,8,0:0:0:0:
441,184,158297,2,0,P|445:244|394:297,1,130,0|0,0:0|0:0,0:0:0:0:
316,306,158747,1,8,0:0:0:0:
279,215,158897,6,0,B|270:132|270:132|281:75,1,130,6|0,0:0|0:0,0:0:0:0:
198,59,159347,2,0,L|184:134,1,65,8|0,0:0|0:0,0:0:0:0:
118,173,159647,2,0,L|104:97,2,65,2|0|8,0:0|0:0|0:0,0:0:0:0:
165,260,160097,6,0,P|231:253|284:205,1,130,6|0,0:0|0:0,0:0:0:0:
331,147,160547,1,8,0:0:0:0:
381,79,160697,2,0,L|423:77,7,32.5,0|0|8|8|8|8|8|8,3:0|3:0|0:0|3:0|3:0|3:0|3:0|3:0,0:0:0:0:
454,88,161297,6,0,B|472:128|472:128|467:238,1,130,6|0,0:0|0:0,0:0:0:0:
436,292,161747,2,0,P|396:308|359:307,1,65,8|0,0:0|0:0,0:0:0:0:
296,276,162047,2,0,P|280:236|281:199,1,65,2|0,0:0|0:0,0:0:0:0:
285,130,162347,1,8,0:0:0:0:
225,70,162497,6,0,B|180:60|180:60|83:72,1,130,2|0,0:0|0:0,0:0:0:0:
23,113,162947,2,0,P|14:146|20:190,1,65,8|0,0:0|0:0,0:0:0:0:
48,254,163247,2,0,P|81:263|125:257,1,65,2|0,0:0|0:0,0:0:0:0:
187,224,163547,1,8,0:0:0:0:
246,163,163697,6,0,B|302:161|302:161|328:171|328:171|393:169,1,130,6|0,0:0|0:0,0:0:0:0:
458,167,164147,2,0,P|475:199|477:242,1,65,8|0,0:0|0:0,0:0:0:0:
455,309,164447,2,0,P|423:326|380:328,1,65,2|0,0:0|0:0,0:0:0:0:
310,327,164747,1,8,0:0:0:0:
246,270,164897,6,0,B|200:262|200:262|99:272,1,130,2|0,0:0|0:0,0:0:0:0:
35,292,165347,1,8,0:0:0:0:
6,212,165497,2,0,L|12:126,1,65,0|2,0:0|0:0,0:0:0:0:
45,69,165797,1,0,0:0:0:0:
120,31,165947,1,8,0:0:0:0:
197,65,166097,6,0,P|260:81|337:59,1,130,6|0,0:0|0:0,0:0:0:0:
402,39,166547,2,0,P|407:75|390:118,1,65,8|0,0:0|0:0,0:0:0:0:
365,180,166847,2,0,P|360:216|377:259,1,65,2|0,0:0|0:0,0:0:0:0:
445,209,167147,1,8,0:0:0:0:
432,292,167297,6,0,P|379:323|298:285,1,130,2|0,0:0|0:0,0:0:0:0:
265,237,167747,2,0,L|177:240,1,65,8|0,0:0|0:0,0:0:0:0:
139,299,168047,2,0,L|51:302,1,65,2|0,0:0|0:0,0:0:0:0:
13,241,168347,1,8,0:0:0:0:
0,157,168497,6,0,P|19:99|92:65,1,130,6|0,0:0|0:0,0:0:0:0:
160,54,168947,2,0,L|202:52,3,32.5,8|0|0|0,0:0|0:0|0:0|0:0,0:0:0:0:
222,82,169247,2,0,L|264:80,3,32.5,2|0|0|0,0:0|0:0|0:0|0:0,0:0:0:0:
284,110,169547,2,0,P|299:156|296:195,1,65,8|0,0:0|0:0,0:0:0:0:
308,256,169847,6,0,P|347:242|372:214,2,65,2|0|8,0:0|0:0|0:0,0:0:0:0:
223,262,170297,2,0,L|226:334,1,65,2|0,0:0|0:0,0:0:0:0:
141,329,170597,2,0,L|138:257,1,65,6|0,0:0|0:0,0:0:0:0:
135,176,170897,5,6,0:0:0:0:
103,133,180497,6,0,P|155:116|233:144,1,130,6|0,0:0|0:0,0:0:0:0:
286,195,180947,2,0,P|308:142|283:77,2,130,2|2|2,0:0|0:0|0:0,0:0:0:0:
213,239,181697,6,0,L|59:233,1,130,8|0,0:0|0:0,0:0:0:0:
12,187,182147,2,0,P|3:145|15:98,1,65,2|0,0:0|0:0,0:0:0:0:
46,49,182447,2,0,P|88:40|135:52,1,65,2|0,0:0|0:0,0:0:0:0:
189,72,182747,1,2,0:0:0:0:
271,91,182897,6,0,P|236:142|156:150,1,130,8|0,0:0|0:0,0:0:0:0:
189,72,183347,1,2,0:0:0:0:
242,5,183497,2,0,P|273:1|305:7,1,65,0|2,0:0|0:0,0:0:0:0:
385,37,183797,2,0,L|458:32,1,65,8|2,0:0|0:0,0:0:0:0:
460,116,184097,2,0,L|387:121,1,65,8|2,0:0|0:0,0:0:0:0:
330,175,184397,6,0,P|315:204|310:245,1,65,0|2,0:0|0:0,0:0:0:0:
318,320,184697,1,0,0:0:0:0:
244,360,184847,2,0,P|182:363|124:320,1,130,8|0,0:0|0:0,0:0:0:0:
106,243,185297,6,0,B|102:194|102:194|112:166|112:166|105:93,1,130,6|0,0:0|0:0,0:0:0:0:
142,37,185747,2,0,P|174:28|216:32,1,65,2|0,0:0|0:0,0:0:0:0:
274,77,186047,2,0,P|324:90|397:57,1,130,8|0,0:0|0:0,0:0:0:0:
477,47,186497,6,0,B|489:87|489:87|482:192,1,130,2|8,0:0|0:0,0:0:0:0:
478,259,186947,1,2,0:0:0:0:
409,308,187097,2,0,L|335:307,1,65,0|8,0:0|0:0,0:0:0:0:
284,247,187397,2,0,L|210:246,1,65,0|8,0:0|0:0,0:0:0:0:
159,186,187697,6,0,P|134:235|170:315,1,130,6|0,0:0|0:0,0:0:0:0:
214,364,188147,2,0,L|283:363,1,65,8|0,0:0|0:0,0:0:0:0:
344,307,188447,2,0,P|362:279|369:232,1,65,2|0,0:0|0:0,0:0:0:0:
357,164,188747,1,8,0:0:0:0:
281,125,188897,6,0,L|289:51,1,65,6|0,0:0|0:0,0:0:0:0:
365,27,189197,2,0,L|406:27,3,32.5,8|8|8|8,0:0|0:0|0:0|0:0,0:0:0:0:
427,56,189497,1,6,0:0:0:0:
427,56,190547,5,2,0:0:0:0:
427,56,190697,2,0,B|421:198,1,130,4|4,3:0|3:0,0:0:0:0:
295,298,191297,6,0,L|291:219,1,65,4|0,3:0|0:0,0:0:0:0:
211,190,191597,2,0,L|207:269,1,65,4|0,3:0|0:0,0:0:0:0:
132,293,191897,6,0,L|128:214,1,65,4|0,3:0|0:0,0:0:0:0:
52,190,192197,2,0,L|48:269,1,65,4|0,3:0|0:0,0:0:0:0:
72,351,192497,6,0,P|147:375|212:317,1,149.500002851486,6|0,0:0|0:0,0:0:0:0:
249,254,192947,1,8,0:0:0:0:
337,293,193097,2,0,L|426:288,1,74.7500014257431,0|2,0:0|0:0,0:0:0:0:
462,206,193397,2,0,L|373:201,1,74.7500014257431,0|8,0:0|0:0,0:0:0:0:
294,171,193697,6,0,B|285:120|285:120|299:80|299:80|289:20,1,149.500002851486,2|0,0:0|0:0,0:0:0:0:
196,52,194147,2,0,P|166:67|117:69,1,74.7500014257431,8|0,0:0|0:0,0:0:0:0:
31,46,194447,2,0,P|28:80|57:140,1,74.7500014257431,2|0,0:0|0:0,0:0:0:0:
111,184,194747,1,8,0:0:0:0:
202,216,194897,6,0,B|255:211|255:211|297:222|297:222|365:216,1,149.500002851486,6|0,0:0|0:0,0:0:0:0:
408,139,195347,2,0,L|406:57,1,74.7500014257431,8|0,0:0|0:0,0:0:0:0:
495,101,195647,2,0,L|493:183,1,74.7500014257431,2|0,0:0|0:0,0:0:0:0:
493,272,195947,1,8,0:0:0:0:
402,338,196097,6,0,B|346:343|346:343|311:333|311:333|247:338,1,149.500002851486,6|0,0:0|0:0,0:0:0:0:
157,341,196547,1,8,0:0:0:0:
70,269,196697,2,0,B|43:218|75:169|75:169|70:102,1,149.500002851486,6|0,0:0|0:0,0:0:0:0:
59,28,197147,1,8,0:0:0:0:
167,57,197297,6,0,B|246:78|246:44|325:61,1,149.500002851486,6|0,0:0|0:0,0:0:0:0:
405,95,197747,1,8,0:0:0:0:
459,189,197897,1,0,3:0:0:0:
459,189,197972,1,0,3:0:0:0:
459,189,198047,2,0,L|458:233,5,37.3750007128716,8|0|0|0|0|0,0:0|3:0|3:0|3:0|3:0|3:0,0:0:0:0:
431,266,198497,6,0,P|388:288|360:289,1,74.7500014257431,6|0,0:0|0:0,0:0:0:0:
278,237,198797,2,0,P|235:215|207:214,1,74.7500014257431,2|8,0:0|0:0,0:0:0:0:
133,275,199097,2,0,P|90:297|62:298,1,74.7500014257431,2|8,0:0|0:0,0:0:0:0:
7,218,199397,2,0,L|3:174,3,37.3750007128716,8|8|8|8,0:0|0:0|0:0|0:0,0:0:0:0:
20,135,199697,6,0,B|65:115|65:115|168:118,1,149.500002851486,6|0,0:0|0:0,0:0:0:0:
261,127,200147,1,8,0:0:0:0:
350,89,200297,2,0,L|343:6,1,74.7500014257431,0|2,0:0|0:0,0:0:0:0:
434,49,200597,2,0,L|441:132,1,74.7500014257431,0|8,0:0|0:0,0:0:0:0:
432,222,200897,6,0,B|466:226|466:226|520:218,1,74.7500014257431,2|0,0:0|0:0,0:0:0:0:
477,312,201197,2,0,B|443:308|443:308|389:316,1,74.7500014257431,0|8,0:0|0:0,0:0:0:0:
309,339,201497,1,0,0:0:0:0:
218,303,201647,2,0,L|127:309,2,74.7500014257431,2|0|8,0:0|0:0|0:0,0:0:0:0:
287,233,202097,6,0,P|310:191|273:88,1,149.500002851486,6|0,0:0|0:0,0:0:0:0:
199,51,202547,1,8,0:0:0:0:
105,77,202697,2,0,L|17:74,1,74.7500014257431,0|2,0:0|0:0,0:0:0:0:
49,170,202997,2,0,L|137:173,1,74.7500014257431,0|8,0:0|0:0,0:0:0:0:
221,181,203297,6,0,B|233:220|233:220|218:283|218:283|234:334,1,149.500002851486,2|0,0:0|0:0,0:0:0:0:
323,356,203747,2,0,P|361:351|399:325,1,74.7500014257431,8|0,0:0|0:0,0:0:0:0:
428,243,204047,2,0,P|423:205|397:167,1,74.7500014257431,2|0,0:0|0:0,0:0:0:0:
319,127,204347,1,8,0:0:0:0:
221,181,204497,6,0,B|173:190|173:190|58:180,1,149.500002851486,6|0,0:0|0:0,0:0:0:0:
3,112,204947,1,8,0:0:0:0:
66,38,205097,2,0,B|114:29|114:29|229:39,1,149.500002851486
311,50,205547,1,8,0:0:0:0:
388,131,205697,6,0,B|396:184|396:184|380:219|380:219|390:289,1,149.500002851486,6|0,0:0|0:0,0:0:0:0:
478,240,206147,1,8,0:0:0:0:
435,343,206297,2,0,P|364:354|306:277,1,149.500002851486,6|0,0:0|0:0,0:0:0:0:
286,209,206747,1,8,0:0:0:0:
231,110,206897,6,0,B|188:95|149:115|149:115|120:105|120:105|70:109,1,149.500002851486,6|0,0:0|0:0,0:0:0:0:
34,190,207347,2,0,P|27:230|39:277,1,74.7500014257431,8|0,0:0|0:0,0:0:0:0:
113,327,207647,1,8,0:0:0:0:
113,327,207797,1,8,0:0:0:0:
206,302,207947,2,0,P|246:295|293:307,1,74.7500014257431,2|8,0:0|0:0,0:0:0:0:
375,286,208247,6,0,L|376:222,3,37.3750007128716,2|0|8|8,0:0|0:0|0:0|0:0,0:0:0:0:
412,216,208547,2,0,P|426:184|423:133,1,74.7500014257431,8|8,0:0|0:0,0:0:0:0:
366,78,208847,2,0,L|315:75,5,34.1249989585877,8|8|8|8|8|8,3:0|3:0|3:0|3:0|3:0|3:0,0:0:0:0:
282,73,209297,6,0,P|243:79|186:182,1,149.500002851486,6|0,0:0|0:0,0:0:0:0:
150,255,209747,2,0,L|56:259,1,74.7500014257431,8|0,0:0|0:0,0:0:0:0:
89,354,210047,2,0,L|183:350,1,74.7500014257431,2|2,0:0|0:0,0:0:0:0:
260,346,210347,1,8,0:0:0:0:
351,314,210497,6,0,P|365:277|365:223,1,74.7500014257431,2|0,0:0|0:0,0:0:0:0:
344,147,210797,1,2,0:0:0:0:
249,130,210947,2,0,L|166:134,1,74.7500014257431,8|0,0:0|0:0,0:0:0:0:
76,137,211247,2,0,P|87:178|116:213,2,74.7500014257431,2|2|8,0:0|0:0|0:0,0:0:0:0:
93,40,211697,6,0,B|156:33|156:33|188:42|188:42|262:38,1,149.500002851486,6|0,0:0|0:0,0:0:0:0:
328,83,212147,2,0,P|342:124|339:183,1,74.7500014257431,8|0,0:0|0:0,0:0:0:0:
325,250,212447,2,0,P|284:264|225:261,1,74.7500014257431,2|2,0:0|0:0,0:0:0:0:
155,260,212747,1,8,0:0:0:0:
194,348,212897,6,0,P|233:365|281:363,1,74.7500014257431,2|0,0:0|0:0,0:0:0:0:
360,348,213197,1,0,0:0:0:0:
419,271,213347,2,0,L|415:190,1,74.7500014257431,8|0,0:0|0:0,0:0:0:0:
412,99,213647,2,0,P|445:104|488:132,2,74.7500014257431,2|2|8,0:0|0:0|0:0,0:0:0:0:
315,106,214097,6,0,B|257:109|257:109|223:98|223:98|132:102,1,149.500002851486,6|0,0:0|0:0,0:0:0:0:
78,140,214547,2,0,P|69:176|75:224,1,74.7500014257431,8|0,0:0|0:0,0:0:0:0:
113,301,214847,2,0,P|149:310|197:304,1,74.7500014257431,2|2,0:0|0:0,0:0:0:0:
268,255,215147,1,8,0:0:0:0:
336,323,215297,6,0,L|413:319,1,74.7500014257431,2|0,0:0|0:0,0:0:0:0:
493,267,215597,1,2,0:0:0:0:
414,209,215747,2,0,P|402:169|407:135,1,74.7500014257431,8|0,0:0|0:0,0:0:0:0:
429,42,216047,2,0,L|508:49,2,74.7500014257431,2|2|8,0:0|0:0|0:0,0:0:0:0:
333,59,216497,6,0,B|298:97|298:97|313:218,1,149.500002851486,6|0,0:0|0:0,0:0:0:0:
250,270,216947,2,0,P|209:273|153:237,1,74.7500014257431,8|8,3:0|3:0,0:0:0:0:
108,191,217247,2,0,P|105:150|141:94,1,74.7500014257431,8|8,3:0|3:0,0:0:0:0:
166,35,217547,1,8,3:0:0:0:
258,60,217697,6,0,L|359:58,1,74.7500014257431,4|8,3:0|0:0,0:0:0:0:
335,156,217997,2,0,L|234:158,1,74.7500014257431,4|8,3:0|0:0,0:0:0:0:
190,226,218297,2,0,P|182:268|191:313,1,74.7500014257431,4|8,3:0|0:0,0:0:0:0:
275,338,218597,2,0,P|283:296|274:251,1,74.7500014257431,4|8,3:0|0:0,0:0:0:0:
260,157,218897,6,0,B|257:108|257:108|272:66|272:66|265:-6,1,143.000004364014,6|0,0:0|0:0,0:0:0:0:
360,10,219347,2,0,P|397:10|439:27,1,71.5000021820069,8|0,0:0|0:0,0:0:0:0:
460,108,219647,2,0,P|460:145|443:187,1,71.5000021820069,2|0,0:0|0:0,0:0:0:0:
374,234,219947,1,8,0:0:0:0:
289,197,220097,6,0,B|235:193|235:193|203:207|203:207|133:203,1,143.000004364014,2|0,0:0|0:0,0:0:0:0:
55,206,220547,2,0,P|43:241|50:288,1,71.5000021820069,8|0,0:0|0:0,0:0:0:0:
93,354,220847,2,0,P|128:366|175:359,1,71.5000021820069,2|0,0:0|0:0,0:0:0:0:
250,334,221147,1,8,0:0:0:0:
302,258,221297,6,0,L|292:95,1,143.000004364014,6|0,0:0|0:0,0:0:0:0:
210,71,221747,2,0,L|205:160,1,71.5000021820069,8|0,0:0|0:0,0:0:0:0:
120,178,222047,2,0,L|115:88,1,71.5000021820069,2|0,0:0|0:0,0:0:0:0:
31,147,222347,1,8,0:0:0:0:
54,236,222497,6,0,P|97:263|191:229,1,143.000004364014,2|0,0:0|0:0,0:0:0:0:
243,170,222947,1,8,0:0:0:0:
316,226,223097,2,0,L|402:218,1,71.5000021820069,0|2,0:0|0:0,0:0:0:0:
477,196,223397,1,0,0:0:0:0:
498,105,223547,1,8,0:0:0:0:
444,28,223697,6,0,B|397:20|397:20|285:27,1,143.000004364014,6|0,0:0|0:0,0:0:0:0:
217,65,224147,2,0,P|210:102|221:146,1,71.5000021820069,8|0,0:0|0:0,0:0:0:0:
233,226,224447,2,0,P|240:263|229:307,1,71.5000021820069,2|0,0:0|0:0,0:0:0:0:
161,354,224747,1,8,0:0:0:0:
73,322,224897,6,0,B|68:276|68:276|85:229|85:229|81:167,1,143.000004364014,2|0,0:0|0:0,0:0:0:0:
71,89,225347,2,0,P|107:80|148:85,1,71.5000021820069,8|0,0:0|0:0,0:0:0:0:
230,108,225647,2,0,P|266:117|307:112,1,71.5000021820069,2|0,0:0|0:0,0:0:0:0:
382,71,225947,1,8,0:0:0:0:
437,145,226097,6,0,L|430:300,1,143.000004364014,6|0,0:0|0:0,0:0:0:0:
348,332,226547,2,0,L|344:253,1,71.5000021820069,8|0,0:0|0:0,0:0:0:0:
287,186,226847,2,0,L|247:189,5,35.7500010910034,8|8|8|8|8|8,0:0|0:0|0:0|0:0|0:0|0:0,0:0:0:0:
206,173,227297,6,0,P|199:137|208:87,1,71.5000021820069,6|0,0:0|0:0,0:0:0:0:
96,114,227597,2,0,P|103:150|94:200,1,71.5000021820069,4|0,3:0|0:0,0:0:0:0:
22,260,227897,2,0,L|20:333,1,71.5000021820069,4|0,3:0|0:0,0:0:0:0:
124,360,228197,2,0,L|126:288,1,71.5000021820069,4|0,3:0|0:0,0:0:0:0:
