osu file format v14

[General]
AudioFilename: audio.mp3
AudioLeadIn: 0
PreviewTime: 189722
Countdown: 0
SampleSet: Soft
StackLeniency: 0.4
Mode: 0
LetterboxInBreaks: 0
WidescreenStoryboard: 0

[Editor]
Bookmarks: 36497,65297,161297,170897,180497,228347
DistanceSpacing: 1
BeatDivisor: 4
GridSize: 4
TimelineZoom: 1

[Metadata]
Title:GATE~Sore wa Akatsuki no you ni~
TitleUnicode:GATE~それは暁のように~
Artist:KISIDA KYODAN & THE AKEBOSI ROCKETS
ArtistUnicode:岸田教団&THE明星ロケッツ
Creator:Akitoshi
Version:Normal
Source:GATE 自衛隊 彼の地にて、斯く戦えり
Tags:Jieitai Kanochi Nite Kaku Tatakaeri Opening Rory ゲート Full version SnowNiNo_ Corinn
BeatmapID:1026281
BeatmapSetID:480386

[Difficulty]
HPDrainRate:4
CircleSize:3.3
OverallDifficulty:4
ApproachRate:5
SliderMultiplier:0.949999999999999
SliderTickRate:1

[Events]
//Background and Video events
0,0,"rory.jpg",0,0
//Break Periods
2,46297,49697
2,84697,92897
2,113497,116897
2,171097,179297
//Storyboard Layer 0 (Background)
//Storyboard Layer 1 (Fail)
//Storyboard Layer 2 (Pass)
//Storyboard Layer 3 (Foreground)
//Storyboard Sound Samples

[TimingPoints]
5447,300,4,2,1,40,1,0
6497,-100,4,2,1,50,0,0
15197,-100,4,2,1,30,0,0
16547,-100,4,2,1,50,0,0
17297,-100,4,2,1,70,0,0
26897,-100,4,2,1,50,0,0
55622,-100,4,2,1,5,0,0
55697,-100,4,2,1,70,0,1
74447,-100,4,2,1,60,0,0
74897,-100,4,2,1,70,0,1
84497,-100,4,2,1,70,0,0
94097,-100,4,2,1,50,0,0
118097,-100,4,2,1,50,0,0
132497,-100,4,2,1,70,0,1
151697,-100,4,2,1,50,0,0
161297,-100,4,2,1,70,0,0
191822,-100,4,2,1,10,0,0
191897,-100,4,2,1,50,0,0
192122,-100,4,2,1,10,0,0
192197,-100,4,2,1,50,0,0
192422,-100,4,2,1,10,0,0
192497,-100,4,2,1,70,0,1
208847,-100,4,2,1,70,0,0
209297,-100,4,2,1,70,0,1
218897,-100,4,2,1,70,0,0
227522,-100,4,2,1,10,0,0
227597,-100,4,2,1,70,0,0
227822,-100,4,2,1,10,0,0
227897,-100,4,2,1,70,0,0
228122,-100,4,2,1,10,0,0
228197,-100,4,2,1,70,0,0

[Colours]
Combo1 : 255,128,255
Combo2 : 255,128,64
Combo3 : 255,128,128
Combo4 : 242,24,57

[HitObjects]
20,325,5447,6,0,L|28:225,1,94.9999999999999,4|4,0:0|0:0,0:0:0:0:
68,144,6047,2,0,L|64:82,2,47.5,8|8|2,0:0|0:0|0:0,0:0:0:0:
101,177,6497,6,0,B|143:198|191:169|191:169|245:180,1,142.5,2|4,0:0|0:0,0:0:0:0:
293,256,7247,2,0,L|290:310,1,47.5,2|12,3:0|0:0,0:0:0:0:
360,367,7697,2,0,P|433:368|481:309,1,142.5,4|8,0:0|0:0,0:0:0:0:
490,225,8447,2,0,L|482:122,1,94.9999999999999,4|8,3:0|0:0,0:0:0:0:
449,96,8897,6,0,B|406:83|406:83|295:95,1,142.5,4|8,0:0|0:0,0:0:0:0:
213,98,9647,2,0,L|209:42,2,47.5,8|0|0,0:0|3:0|3:0,0:0:0:0:
217,145,10097,2,0,P|203:209|142:260,1,142.5,4|8,0:0|0:0,0:0:0:0:
100,269,10697,1,8,0:0:0:0:
52,270,10847,2,0,L|41:210,1,47.5,2|8,0:0|0:0,0:0:0:0:
29,130,11297,6,0,P|47:70|116:23,1,142.5,4|8,0:0|0:0,0:0:0:0:
204,24,12047,2,0,L|270:20,2,47.5,8|8|8,3:0|3:0|0:0,0:0:0:0:
188,69,12497,2,0,B|176:137|176:137|186:215,1,142.5,4|8,0:0|0:0,0:0:0:0:
229,293,13247,2,0,P|277:300|332:287,1,94.9999999999999,8|8,0:0|0:0,0:0:0:0:
367,276,13697,6,0,B|384:227|384:227|377:131,1,142.5,4|8,0:0|3:0,0:0:0:0:
371,41,14447,2,0,L|440:34,2,47.5,8|8|8,0:0|0:0|0:0,0:0:0:0:
323,41,14897,1,6,0:0:0:0:
246,96,15197,6,0,L|249:202,1,94.9999999999999,0|0,0:0|0:0,0:0:0:0:
247,238,15647,2,0,P|204:269|160:278,1,94.9999999999999,0|0,0:0|0:0,0:0:0:0:
70,258,16247,1,0,0:0:0:0:
37,168,16547,1,4,0:0:0:0:
105,101,16847,2,0,B|146:92|146:92|212:96,1,94.9999999999999,8|8,0:0|0:0,0:0:0:0:
246,96,17297,6,0,P|300:88|352:58,1,94.9999999999999,6|0,0:0|0:0,0:0:0:0:
372,40,17747,1,8,0:0:0:0:
452,90,18047,2,0,L|451:192,1,94.9999999999999,2|8,0:0|0:0,0:0:0:0:
443,231,18497,2,0,P|418:267|354:296,1,94.9999999999999,2|0,0:0|0:0,0:0:0:0:
327,300,18947,1,8,0:0:0:0:
240,259,19247,2,0,B|200:254|200:254|126:261,1,94.9999999999999,2|8,0:0|0:0,0:0:0:0:
98,266,19697,6,0,P|74:238|66:171,1,94.9999999999999,6|0,0:0|0:0,0:0:0:0:
68,134,20147,1,8,0:0:0:0:
136,68,20447,2,0,L|242:63,1,94.9999999999999,2|8,0:0|0:0,0:0:0:0:
278,65,20897,2,0,B|309:102|309:102|316:162,1,94.9999999999999,2|0,0:0|0:0,0:0:0:0:
317,195,21347,1,8,0:0:0:0:
317,290,21647,2,0,P|281:319|222:318,1,94.9999999999999,2|8,0:0|0:0,0:0:0:0:
189,305,22097,6,0,P|153:276|94:277,1,94.9999999999999,6|0,0:0|0:0,0:0:0:0:
61,285,22547,1,8,0:0:0:0:
10,204,22847,2,0,B|10:158|10:158|43:104,1,94.9999999999999,2|8,0:0|0:0,0:0:0:0:
70,83,23297,2,0,P|117:76|168:96,1,94.9999999999999,2|0,0:0|0:0,0:0:0:0:
197,121,23747,1,8,0:0:0:0:
279,168,24047,2,0,L|386:163,1,94.9999999999999,2|8,0:0|0:0,0:0:0:0:
421,159,24497,6,0,P|432:112|419:60,1,94.9999999999999,6|0,0:0|0:0,0:0:0:0:
396,26,24947,1,8,0:0:0:0:
300,18,25247,2,0,L|193:23,1,94.9999999999999,2|8,0:0|0:0,0:0:0:0:
158,30,25697,2,0,B|138:70|138:70|137:135,1,94.9999999999999,2|2,0:0|0:0,0:0:0:0:
148,214,26297,2,0,B|188:234|188:234|253:235,1,94.9999999999999,2|8,0:0|0:0,0:0:0:0:
323,191,26897,6,0,P|333:241|311:296,1,94.9999999999999,6|0,0:0|0:0,0:0:0:0:
289,318,27347,1,8,0:0:0:0:
194,327,27647,2,0,L|137:330,2,47.5,2|0|8,0:0|0:0|0:0,0:0:0:0:
213,283,28097,2,0,L|215:172,1,94.9999999999999,2|0,0:0|0:0,0:0:0:0:
228,93,28697,2,0,P|279:70|319:71,1,94.9999999999999,0|0,0:0|0:0,0:0:0:0:
397,121,29297,6,0,L|399:232,1,94.9999999999999,2|0,0:0|0:0,0:0:0:0:
399,263,29747,1,8,0:0:0:0:
398,357,30047,2,0,L|455:359,2,47.5,2|0|8,0:0|0:0|0:0,0:0:0:0:
352,342,30497,2,0,B|308:341|308:341|235:348,1,94.9999999999999,2|0,0:0|0:0,0:0:0:0:
210,355,30947,1,8,0:0:0:0:
133,298,31247,2,0,L|68:300,2,47.5,2|0|8,0:0|0:0|0:0,0:0:0:0:
166,264,31697,6,0,P|185:216|185:164,1,94.9999999999999,6|0,0:0|0:0,0:0:0:0:
180,126,32147,1,8,0:0:0:0:
228,44,32447,2,0,B|274:37|274:37|321:44,1,94.9999999999999,2|8,0:0|0:0,0:0:0:0:
367,56,32897,2,0,P|395:97|403:154,1,94.9999999999999,2|0,0:0|0:0,0:0:0:0:
404,188,33347,1,8,0:0:0:0:
354,269,33647,2,0,L|246:273,1,94.9999999999999,2|8,0:0|0:0,0:0:0:0:
211,271,34097,6,0,P|181:222|185:138,1,142.5,2|8,0:0|0:0,0:0:0:0:
166,95,34697,2,0,B|118:94|118:94|63:107,1,94.9999999999999,0|0,0:0|0:0,0:0:0:0:
19,186,35297,2,0,L|26:247,1,47.5,2|2,0:0|0:0,0:0:0:0:
35,279,35597,2,0,P|77:304|135:300,1,94.9999999999999,2|2,3:0|3:0,0:0:0:0:
211,271,36197,1,2,3:0:0:0:
285,211,36497,6,0,B|335:202|335:202|386:210,1,94.9999999999999,6|0,0:0|0:0,0:0:0:0:
424,223,36947,1,8,0:0:0:0:
492,156,37247,2,0,P|495:105|476:58,1,94.9999999999999,2|8,0:0|0:0,0:0:0:0:
441,36,37697,2,0,L|343:38,1,94.9999999999999,2|0,0:0|0:0,0:0:0:0:
298,42,38147,1,8,0:0:0:0:
214,86,38447,2,0,B|206:131|206:131|214:183,1,94.9999999999999,2|8,0:0|0:0,0:0:0:0:
222,226,38897,6,0,P|194:264|132:285,1,94.9999999999999,2|0,0:0|0:0,0:0:0:0:
104,289,39347,1,8,0:0:0:0:
30,228,39647,2,0,L|33:127,1,94.9999999999999,2|8,0:0|0:0,0:0:0:0:
45,86,40097,2,0,P|80:69|140:68,1,94.9999999999999,2|0,0:0|0:0,0:0:0:0:
181,79,40547,1,8,0:0:0:0:
274,97,40847,2,0,L|282:35,2,47.5,2|0|8,0:0|0:0|0:0,0:0:0:0:
272,144,41297,6,0,P|306:184|354:201,1,94.9999999999999,6|0,0:0|0:0,0:0:0:0:
391,201,41747,1,8,0:0:0:0:
453,272,42047,2,0,L|513:268,2,47.5,2|0|8,0:0|0:0|0:0,0:0:0:0:
412,297,42497,2,0,P|380:334|327:354,1,94.9999999999999,2|0,0:0|0:0,0:0:0:0:
290,356,42947,1,8,0:0:0:0:
199,327,43247,2,0,L|132:329,2,47.5,2|0|8,0:0|0:0|0:0,0:0:0:0:
232,293,43697,6,0,P|250:256|249:186,1,94.9999999999999,6|0,0:0|0:0,0:0:0:0:
240,157,44147,1,8,0:0:0:0:
171,91,44447,2,0,L|175:40,2,47.5,2|0|8,0:0|0:0|0:0,0:0:0:0:
156,136,44897,2,0,B|111:138|111:138|44:135,1,94.9999999999999,6|0,0:0|0:0,0:0:0:0:
61,230,45497,2,0,B|106:228|106:228|173:231,1,94.9999999999999,2|2,0:0|0:0,0:0:0:0:
249,247,46097,5,6,0:0:0:0:
392,136,50897,6,0,B|341:126|341:126|246:135,1,142.5,4|2,0:0|0:0,0:0:0:0:
156,145,51647,2,0,P|144:189|153:253,1,94.9999999999999,8|2,0:0|0:0,0:0:0:0:
173,278,52097,2,0,B|220:289|220:289|280:284,1,94.9999999999999,2|2,0:0|0:0,0:0:0:0:
313,282,52547,1,2,0:0:0:0:
407,275,52847,2,0,L|413:329,2,47.5,8|0|8,0:0|0:0|0:0,0:0:0:0:
440,241,53297,6,0,L|429:127,1,94.9999999999999,6|0,0:0|0:0,0:0:0:0:
423,99,53747,1,8,0:0:0:0:
334,64,54047,2,0,L|337:6,2,47.5,2|0|8,0:0|0:0|0:0,0:0:0:0:
300,97,54497,2,0,B|254:121|209:91|209:91|163:106|163:106|112:101,1,190,6|8,0:0|0:0,0:0:0:0:
27,269,55697,6,0,B|76:280|76:280|181:272,1,142.5,6|8,0:0|0:0,0:0:0:0:
215,271,56297,2,0,P|233:315|233:377,1,94.9999999999999,0|0,0:0|0:0,0:0:0:0:
330,361,56897,2,0,P|332:313|350:270,1,94.9999999999999,2|0,0:0|0:0,0:0:0:0:
383,236,57347,1,8,0:0:0:0:
441,161,57647,2,0,L|501:168,2,47.5,2|0|8,0:0|0:0|0:0,0:0:0:0:
407,127,58097,6,0,B|314:118|314:118|256:92,1,142.5,6|8,0:0|0:0,0:0:0:0:
224,81,58697,2,0,P|179:75|125:87,1,94.9999999999999,0|0,0:0|0:0,0:0:0:0:
55,143,59297,2,0,L|61:237,1,94.9999999999999,2|0,0:0|0:0,0:0:0:0:
65,285,59747,1,8,0:0:0:0:
148,330,60047,2,0,L|150:377,2,47.5,2|0|8,0:0|0:0|0:0,0:0:0:0:
180,295,60497,6,0,B|226:276|226:276|333:281,1,142.5,6|8,0:0|0:0,0:0:0:0:
413,282,61247,2,0,P|426:235|422:177,1,94.9999999999999,2|8,0:0|0:0,0:0:0:0:
404,146,61697,2,0,B|358:135|358:135|259:138,1,142.5,6|8,0:0|0:0,0:0:0:0:
215,145,62297,2,0,B|210:248,1,94.9999999999999,6|0,0:0|0:0,0:0:0:0:
168,325,62897,6,0,P|105:306|67:228,1,142.5,6|8,0:0|0:0,0:0:0:0:
46,150,63647,2,0,L|0:157,2,47.5,2|0|8,0:0|0:0|0:0,0:0:0:0:
79,116,64097,2,0,L|187:101,1,94.9999999999999,6|2,0:0|0:0,0:0:0:0:
266,87,64697,1,2,0:0:0:0:
360,81,64997,2,0,L|365:148,1,47.5,8|8,0:0|0:0,0:0:0:0:
365,176,65297,6,0,P|343:233|272:271,1,142.5,6|8,0:0|0:0,0:0:0:0:
226,268,65897,2,0,B|219:305|219:305|224:368,1,94.9999999999999,0|0,0:0|0:0,0:0:0:0:
128,362,66497,2,0,B|132:305|132:305|125:267,1,94.9999999999999,2|0,0:0|0:0,0:0:0:0:
106,224,66947,1,8,0:0:0:0:
51,146,67247,2,0,L|0:147,2,47.5,2|0|8,0:0|0:0|0:0,0:0:0:0:
84,112,67697,6,0,B|182:110|182:110|227:86,1,142.5,6|8,0:0|0:0,0:0:0:0:
261,63,68297,2,0,P|308:56|361:69,1,94.9999999999999,0|0,0:0|0:0,0:0:0:0:
393,94,68747,1,8,0:0:0:0:
421,132,68897,2,0,L|416:236,1,94.9999999999999,2|0,0:0|0:0,0:0:0:0:
412,274,69347,1,8,0:0:0:0:
331,324,69647,2,0,L|328:377,2,47.5,2|0|8,0:0|0:0|0:0,0:0:0:0:
297,290,70097,6,0,B|245:273|245:273|149:280,1,142.5,6|8,0:0|0:0,0:0:0:0:
110,281,70697,2,0,P|92:241|120:142,1,142.5,0|8,0:0|0:0,0:0:0:0:
143,110,71297,2,0,L|296:100,1,142.5,6|8,0:0|0:0,0:0:0:0:
333,98,71897,2,0,B|363:133|363:133|370:192,1,94.9999999999999,6|0,0:0|0:0,0:0:0:0:
373,275,72497,6,0,P|332:315|244:328,1,142.5,6|8,0:0|0:0,0:0:0:0:
156,314,73247,2,0,L|151:374,2,47.5,8|0|8,0:0|0:0|0:0,0:0:0:0:
122,280,73697,2,0,B|126:229|126:229|108:124,1,142.5,6|8,0:0|0:0,0:0:0:0:
94,45,74447,2,0,L|29:54,2,47.5,8|8|8,0:0|0:0|0:0,0:0:0:0:
141,39,74897,6,0,B|236:26|236:26|287:33,1,142.5,6|8,0:0|0:0,0:0:0:0:
369,69,75647,2,0,P|388:112|386:167,1,94.9999999999999,2|8,0:0|0:0,0:0:0:0:
376,205,76097,2,0,B|328:215|328:215|261:209,1,94.9999999999999,2|0,0:0|0:0,0:0:0:0:
235,202,76547,1,8,0:0:0:0:
143,178,76847,2,0,L|140:116,2,47.5,2|2|8,0:0|0:0|0:0,0:0:0:0:
139,225,77297,6,0,P|75:247|3:212,1,142.5,6|8,0:0|0:0,0:0:0:0:
3,123,78047,2,0,B|10:66|10:66|37:40,1,94.9999999999999,2|8,0:0|0:0,0:0:0:0:
84,34,78497,2,0,P|130:47|197:35,1,94.9999999999999,2|0,0:0|0:0,0:0:0:0:
222,29,78947,1,8,0:0:0:0:
305,73,79247,2,0,L|372:69,2,47.5,2|2|8,0:0|0:0|0:0,0:0:0:0:
271,106,79697,6,0,P|243:166|259:249,1,142.5,6|8,0:0|0:0,0:0:0:0:
316,310,80447,2,0,B|363:318|363:318|411:309,1,94.9999999999999,2|8,0:0|0:0,0:0:0:0:
446,279,80897,2,0,P|467:236|462:179,1,94.9999999999999,2|0,0:0|0:0,0:0:0:0:
453,143,81347,1,8,0:0:0:0:
381,80,81647,2,0,L|386:24,2,47.5,2|2|8,0:0|0:0|0:0,0:0:0:0:
347,113,82097,6,0,P|293:133|193:108,1,142.5,6|8,0:0|3:0,0:0:0:0:
130,68,82847,2,0,P|115:117|132:173,1,94.9999999999999,8|8,3:0|3:0,0:0:0:0:
148,199,83297,2,0,L|141:307,1,94.9999999999999,4|4,3:0|3:0,0:0:0:0:
234,314,83897,2,0,L|241:206,1,94.9999999999999,4|4,3:0|3:0,0:0:0:0:
278,132,84497,5,4,0:0:0:0:
100,116,94097,6,0,B|148:108|148:108|252:116,1,142.5,6|2,0:0|0:0,0:0:0:0:
335,128,94847,2,0,P|351:177|344:230,1,94.9999999999999,8|0,0:0|0:0,0:0:0:0:
325,262,95297,2,0,B|276:272|276:272|210:268,1,94.9999999999999,2|8,0:0|0:0,0:0:0:0:
149,220,95897,2,0,P|135:266|148:315,1,94.9999999999999,0|0,0:0|0:0,0:0:0:0:
176,347,96347,1,8,0:0:0:0:
220,364,96497,6,0,L|331:359,1,94.9999999999999,2|8,0:0|0:0,0:0:0:0:
362,357,96947,1,2,0:0:0:0:
442,306,97247,2,0,P|453:256|435:203,1,94.9999999999999,8|0,0:0|0:0,0:0:0:0:
409,179,97697,2,0,L|296:173,1,94.9999999999999,2|8,0:0|0:0,0:0:0:0:
266,172,98147,1,2,0:0:0:0:
171,172,98447,2,0,L|159:229,2,47.5,8|8|8,0:0|0:0|0:0,0:0:0:0:
188,127,98897,6,0,P|169:80|131:53,1,94.9999999999999,6|8,0:0|0:0,0:0:0:0:
86,49,99347,1,2,0:0:0:0:
14,112,99647,2,0,B|5:160|5:160|14:217,1,94.9999999999999,8|2,0:0|0:0,0:0:0:0:
29,250,100097,2,0,P|72:275|132:266,1,94.9999999999999,2|8,0:0|0:0,0:0:0:0:
161,258,100547,1,2,0:0:0:0:
241,207,100847,2,0,L|238:147,2,47.5,8|0|8,0:0|0:0|0:0,0:0:0:0:
274,240,101297,6,0,P|303:251|399:202,1,142.5,6|8,0:0|0:0,0:0:0:0:
428,116,102047,2,0,L|490:121,2,47.5,2|0|8,0:0|0:0|0:0,0:0:0:0:
394,82,102497,2,0,B|342:77|342:77|244:79,1,142.5,2|8,0:0|0:0,0:0:0:0:
157,92,103247,2,0,L|154:142,1,47.5,8|2,0:0|0:0,0:0:0:0:
147,234,103697,6,0,P|82:202|59:133,1,142.5,6|8,0:0|0:0,0:0:0:0:
61,44,104447,2,0,L|5:42,2,47.5,2|0|8,0:0|0:0|0:0,0:0:0:0:
106,57,104897,2,0,P|146:74|200:72,1,94.9999999999999,2|0,0:0|0:0,0:0:0:0:
289,49,105497,2,0,B|301:88|301:88|297:149,1,94.9999999999999,0|0,0:0|0:0,0:0:0:0:
289,189,105947,1,8,0:0:0:0:
281,235,106097,6,0,P|313:274|406:283,1,142.5,2|8,0:0|0:0,0:0:0:0:
479,233,106847,2,0,L|473:136,1,94.9999999999999,2|8,0:0|0:0,0:0:0:0:
439,104,107297,2,0,B|402:93|402:93|335:92,1,94.9999999999999,2|0,0:0|0:0,0:0:0:0:
298,96,107747,1,8,0:0:0:0:
203,93,108047,2,0,L|207:30,2,47.5,2|0|8,0:0|0:0|0:0,0:0:0:0:
192,139,108497,6,0,P|131:162|57:145,1,142.5,6|8,0:0|0:0,0:0:0:0:
8,226,109247,2,0,B|1:267|1:267|11:328,1,94.9999999999999,2|8,0:0|0:0,0:0:0:0:
32,361,109697,2,0,P|78:371|137:356,1,94.9999999999999,2|0,0:0|0:0,0:0:0:0:
167,341,110147,1,8,0:0:0:0:
235,275,110447,2,0,L|230:210,2,47.5,2|0|8,0:0|0:0|0:0,0:0:0:0:
268,308,110897,6,0,P|328:328|404:296,1,142.5,2|8,0:0|0:0,0:0:0:0:
445,217,111647,2,0,L|501:218,2,47.5,2|0|8,0:0|0:0|0:0,0:0:0:0:
411,183,112097,2,0,P|400:140|405:84,1,94.9999999999999,6|2,0:0|0:0,0:0:0:0:
308,89,112697,2,0,P|311:136|300:182,1,94.9999999999999,2|2,0:0|0:0,0:0:0:0:
223,237,113297,5,6,0:0:0:0:
397,291,118097,6,0,B|346:289|346:289|305:305|305:305|254:301,1,142.5,6|8,0:0|0:0,0:0:0:0:
162,296,118847,2,0,P|141:255|148:190,1,94.9999999999999,8|8,0:0|0:0,0:0:0:0:
172,116,119447,2,0,P|213:95|278:102,1,94.9999999999999,8|8,0:0|0:0,0:0:0:0:
340,148,120047,2,0,L|403:144,2,47.5,8|0|8,0:0|0:0|0:0,0:0:0:0:
306,181,120497,1,6,0:0:0:0:
306,181,121697,6,0,P|241:186|176:144,1,142.5,6|8,0:0|0:0,0:0:0:0:
112,76,122447,2,0,L|116:15,2,47.5,8|8|8,0:0|0:3|0:3,0:0:0:0:
78,109,122897,6,0,B|59:157|59:157|62:248,1,142.5,6|2,0:0|0:0,0:0:0:0:
98,335,123647,2,0,P|145:346|205:333,1,94.9999999999999,2|2,0:0|0:0,0:0:0:0:
232,316,124097,2,0,B|282:301|282:301|377:306,1,142.5,0|2,0:0|0:0,0:0:0:0:
462,273,124847,2,0,P|473:227|459:167,1,94.9999999999999,2|2,0:0|0:0,0:0:0:0:
437,141,125297,6,0,B|386:137|386:137|344:151|344:151|283:145,1,142.5,8|2,0:0|0:0,0:0:0:0:
202,137,126047,2,0,P|181:182|189:237,1,94.9999999999999,2|2,0:0|0:0,0:0:0:0:
193,273,126497,2,0,P|143:319|65:319,1,142.5,0|4,0:0|0:0,0:0:0:0:
15,244,127247,2,0,L|23:132,1,94.9999999999999,2|8,0:0|3:0,0:0:0:0:
31,102,127697,6,0,P|75:70|162:64,1,142.5,6|2,0:0|0:0,0:0:0:0:
254,76,128447,2,0,L|261:8,2,47.5,8|0|2,0:0|0:0|0:0,0:0:0:0:
249,123,128897,2,0,B|294:174|294:174|384:182,1,142.5,2|2,0:0|0:0,0:0:0:0:
463,182,129647,2,0,L|468:129,2,47.5,8|0|8,0:0|0:0|0:0,0:0:0:0:
459,229,130097,6,0,P|404:277|325:274,1,142.5,6|8,0:0|0:0,0:0:0:0:
292,263,130697,2,0,B|244:258|244:258|178:264,1,94.9999999999999,2|0,0:0|0:0,0:0:0:0:
150,270,131147,1,8,0:0:0:0:
103,279,131297,2,0,P|83:233|114:137,1,142.5,6|8,0:0|0:0,0:0:0:0:
175,83,132047,2,0,L|169:21,2,47.5,12|8|8,3:0|3:0|3:0,0:0:0:0:
208,116,132497,6,0,P|272:136|351:109,1,142.5,6|8,0:0|0:0,0:0:0:0:
386,98,133097,2,0,B|419:138|419:138|417:244,1,142.5,0|8,0:0|0:0,0:0:0:0:
409,275,133697,2,0,P|365:298|318:304,1,94.9999999999999,2|0,0:0|0:0,0:0:0:0:
230,272,134297,2,0,B|179:262|179:262|130:269,1,94.9999999999999,0|0,0:0|0:0,0:0:0:0:
50,310,134897,6,0,P|42:251|99:181,1,142.5,6|8,0:0|0:0,0:0:0:0:
130,165,135497,2,0,L|134:69,1,94.9999999999999,0|0,0:0|0:0,0:0:0:0:
220,31,136097,2,0,B|264:25|264:25|315:33,1,94.9999999999999,2|0,0:0|0:0,0:0:0:0:
359,46,136547,1,8,0:0:0:0:
435,102,136847,2,0,L|491:97,2,47.5,2|0|8,0:0|0:0|0:0,0:0:0:0:
401,135,137297,6,0,P|370:188|375:273,1,142.5,6|8,0:0|0:0,0:0:0:0:
404,356,138047,2,0,P|358:360|303:330,1,94.9999999999999,2|8,0:0|0:0,0:0:0:0:
279,308,138497,2,0,B|232:302|232:302|178:308,1,94.9999999999999,6|2,0:0|0:0,0:0:0:0:
89,313,139097,2,0,B|83:266|83:266|89:212,1,94.9999999999999,6|2,0:0|0:0,0:0:0:0:
137,136,139697,6,0,B|186:133|186:133|230:148|230:148|294:144,1,142.5,6|8,0:0|0:0,0:0:0:0:
371,135,140447,2,0,L|366:77,2,47.5,8|8|8,0:0|3:0|0:0,0:0:0:0:
373,182,140897,2,0,P|344:222|291:248,1,94.9999999999999,6|0,0:0|0:0,0:0:0:0:
210,255,141497,1,0,0:0:0:0:
120,222,141797,2,0,L|116:166,1,47.5,8|8,0:0|0:0,0:0:0:0:
105,128,142097,6,0,P|109:86|200:27,1,142.5,6|8,0:0|0:0,0:0:0:0:
228,41,142697,2,0,B|275:50|275:50|332:40,1,94.9999999999999
415,29,143297,2,0,P|433:66|431:131,1,94.9999999999999,2|0,0:0|0:0,0:0:0:0:
392,205,143897,2,0,P|355:223|290:221,1,94.9999999999999,0|0,0:0|0:0,0:0:0:0:
249,144,144497,6,0,P|210:198|229:286,1,142.5,6|8,0:0|0:0,0:0:0:0:
241,311,145097,2,0,B|281:321|281:321|350:318,1,94.9999999999999,0|0,0:0|0:0,0:0:0:0:
427,299,145697,2,0,P|462:269|474:207,1,94.9999999999999,2|0,0:0|0:0,0:0:0:0:
472,175,146147,1,8,0:0:0:0:
425,91,146447,2,0,L|430:33,2,47.5,2|0|8,0:0|0:0|0:0,0:0:0:0:
391,124,146897,6,0,P|344:133|245:80,1,142.5,6|8,0:0|0:0,0:0:0:0:
221,68,147497,2,0,L|120:75,1,94.9999999999999,0|0,0:0|0:0,0:0:0:0:
47,127,148097,2,0,P|26:177|53:268,1,142.5,6|8,0:0|0:0,0:0:0:0:
88,282,148697,2,0,L|185:278,1,94.9999999999999,6|2,0:0|0:0,0:0:0:0:
277,269,149297,6,0,B|292:218|292:218|283:128,1,142.5,6|8,0:0|0:0,0:0:0:0:
343,55,150047,2,0,L|337:0,2,47.5,8|2|8,0:0|0:0|0:0,0:0:0:0:
376,88,150497,2,0,L|390:230,1,142.5,6|8,0:0|0:0,0:0:0:0:
396,324,151247,2,0,L|461:314,2,47.5,8|2|8,0:0|0:0|0:0,0:0:0:0:
362,357,151697,6,0,P|288:352|233:298,1,142.5,6|8,0:0|0:0,0:0:0:0:
170,241,152447,2,0,L|108:250,2,47.5,2|0|8,0:0|0:0|0:0,0:0:0:0:
203,207,152897,2,0,P|222:141|184:73,1,142.5,2|8,0:0|0:0,0:0:0:0:
96,60,153647,2,0,L|101:6,2,47.5,2|0|8,0:0|0:0|0:0,0:0:0:0:
61,93,154097,6,0,B|51:188|51:188|92:231,1,142.5,6|8,0:0|0:0,0:0:0:0:
123,248,154697,2,0,P|184:261|259:238,1,142.5,0|8,0:0|0:0,0:0:0:0:
287,199,155297,2,0,L|282:91,1,94.9999999999999,2|0,0:0|0:0,0:0:0:0:
377,105,155897,2,0,L|385:262,1,142.5,0|8,0:0|0:0,0:0:0:0:
384,294,156497,6,0,B|322:334|322:334|246:339,1,142.5,6|8,0:0|0:0,0:0:0:0:
160,332,157247,2,0,P|132:294|124:239,1,94.9999999999999,2|8,0:0|0:0,0:0:0:0:
122,199,157697,2,0,B|75:196|75:196|17:201,1,94.9999999999999,2|0,0:0|0:0,0:0:0:0:
27,105,158297,2,0,B|74:108|74:108|132:103,1,94.9999999999999,0|0,0:0|0:0,0:0:0:0:
212,77,158897,6,0,P|257:77|338:148,1,142.5,6|8,0:0|0:0,0:0:0:0:
391,207,159647,2,0,L|456:204,2,47.5,2|0|8,0:0|0:0|0:0,0:0:0:0:
357,240,160097,2,0,B|350:289|350:289|355:349,1,94.9999999999999,6|0,0:0|0:0,0:0:0:0:
258,334,160697,2,0,B|261:288|261:288|254:239,1,94.9999999999999,0|8,3:0|3:0,0:0:0:0:
243,193,161147,1,8,3:0:0:0:
213,155,161297,6,0,P|138:158|88:211,1,142.5,6|8,0:0|0:0,0:0:0:0:
54,290,162047,2,0,L|6:286,2,47.5,2|0|8,0:0|0:0|0:0,0:0:0:0:
87,323,162497,2,0,B|131:326|131:326|178:343|178:343|244:339,1,142.5,2|8,0:0|0:0,0:0:0:0:
313,300,163247,2,0,L|383:304,2,47.5,2|0|8,0:0|0:0|0:0,0:0:0:0:
279,266,163697,6,0,P|264:194|291:129,1,142.5,6|8,0:0|0:0,0:0:0:0:
358,66,164447,2,0,L|425:69,2,47.5,2|0|8,0:0|0:0|0:0,0:0:0:0:
316,43,164897,2,0,B|268:41|268:41|221:28|221:28|165:40,1,142.5,2|8,0:0|0:0,0:0:0:0:
103,98,165647,2,0,P|86:139|91:197,1,94.9999999999999,2|8,0:0|0:0,0:0:0:0:
105,232,166097,6,0,B|157:255|157:255|253:242,1,142.5,6|8,0:0|0:0,0:0:0:0:
332,216,166847,2,0,L|326:163,2,47.5,2|0|8,0:0|0:0|0:0,0:0:0:0:
338,263,167297,2,0,P|300:324|228:342,1,142.5,2|8,0:0|0:0,0:0:0:0:
149,301,168047,2,0,L|93:303,2,47.5,2|0|8,0:0|0:0|0:0,0:0:0:0:
184,270,168497,6,0,P|205:225|196:164,1,94.9999999999999,6|2,0:0|0:0,0:0:0:0:
186,136,168947,1,8,0:0:0:0:
131,58,169247,2,0,P|83:52|37:65,1,94.9999999999999,2|8,0:0|0:0,0:0:0:0:
11,155,169847,2,0,L|15:252,1,94.9999999999999,2|8,0:0|0:0,0:0:0:0:
20,297,170297,1,2,0:0:0:0:
109,327,170597,1,6,0:0:0:0:
184,270,170897,5,6,0:0:0:0:
51,76,180497,6,0,B|102:59|102:59|208:64,1,142.5,6|2,0:0|0:0,0:0:0:0:
285,72,181247,1,2,0:0:0:0:
349,141,181547,1,2,0:0:0:0:
369,233,181847,2,0,L|365:331,1,94.9999999999999,2|2,0:0|0:0,0:0:0:0:
270,339,182447,2,0,L|274:241,1,94.9999999999999,2|2,0:0|0:0,0:0:0:0:
251,202,182897,6,0,P|187:176|105:194,1,142.5,8|2,0:0|0:0,0:0:0:0:
35,238,183647,2,0,P|21:194|41:130,1,94.9999999999999,2|2,0:0|0:0,0:0:0:0:
96,78,184247,2,0,P|140:64|204:84,1,94.9999999999999,2|2,0:0|0:0,0:0:0:0:
278,100,184847,2,0,B|325:108|325:108|375:101,1,94.9999999999999,8|0,0:0|0:0,0:0:0:0:
418,92,185297,6,0,B|444:138|444:138|436:247,1,142.5,6|2,0:0|0:0,0:0:0:0:
415,319,186047,2,0,P|366:328|303:311,1,94.9999999999999,8|0,0:0|0:0,0:0:0:0:
277,302,186497,2,0,B|228:291|228:291|168:298,1,94.9999999999999,2|8,0:0|0:0,0:0:0:0:
137,307,186947,1,2,0:0:0:0:
68,240,187247,2,0,L|18:242,2,47.5,8|0|8,0:0|0:0|0:0,0:0:0:0:
101,206,187697,6,0,B|121:164|104:113|104:113|158:88,1,142.5,6|8,0:0|0:0,0:0:0:0:
238,68,188447,2,0,L|243:20,2,47.5,2|0|8,0:0|0:0|0:0,0:0:0:0:
271,101,188897,2,0,P|327:143|403:144,1,142.5,6|8,0:0|0:0,0:0:0:0:
443,133,189497,1,6,0:0:0:0:
443,133,190547,6,0,B|451:175|451:175|437:226|437:226|452:291,1,142.5,2|4,0:0|3:0,0:0:0:0:
384,342,191297,1,4,3:0:0:0:
290,356,191597,1,4,3:0:0:0:
209,304,191897,1,4,3:0:0:0:
169,217,192197,1,4,3:0:0:0:
197,126,192497,6,0,B|252:120|252:120|289:135|289:135|353:128,1,142.5,6|8,0:0|0:0,0:0:0:0:
382,122,193097,2,0,P|392:77|375:28,1,94.9999999999999,0|0,0:0|0:0,0:0:0:0:
282,30,193697,2,0,B|188:38|188:38|132:58,1,142.5,2|8,0:0|0:0,0:0:0:0:
62,106,194447,2,0,L|8:104,2,47.5,2|0|8,0:0|0:0|0:0,0:0:0:0:
95,139,194897,6,0,P|137:175|168:272,1,142.5,6|8,0:0|0:0,0:0:0:0:
188,347,195647,2,0,B|237:353|237:353|288:343,1,94.9999999999999,2|8,0:0|0:0,0:0:0:0:
322,318,196097,2,0,B|348:243|299:243|335:159,1,142.5,6|8,0:0|0:0,0:0:0:0:
341,132,196697,2,0,P|303:72|224:54,1,142.5,6|8,0:0|0:0,0:0:0:0:
190,63,197297,6,0,B|157:107|157:107|159:200,1,142.5,6|8,0:0|0:0,0:0:0:0:
157,289,198047,2,0,L|105:293,2,47.5,8|0|0,0:0|3:0|3:0,0:0:0:0:
190,322,198497,2,0,L|303:314,1,94.9999999999999,6|2,0:0|0:0,0:0:0:0:
379,305,199097,2,0,P|410:269|421:209,1,94.9999999999999,2|8,0:0|0:0,0:0:0:0:
423,176,199547,1,8,0:0:0:0:
415,129,199697,6,0,B|374:104|374:104|268:109,1,142.5,6|8,0:0|0:0,0:0:0:0:
232,112,200297,2,0,P|221:62|227:18,1,94.9999999999999,0|0,0:0|0:0,0:0:0:0:
131,19,200897,2,0,P|136:65|125:111,1,94.9999999999999,2|0,0:0|0:0,0:0:0:0:
102,153,201347,1,8,0:0:0:0:
51,233,201647,2,0,L|3:234,2,47.5,2|0|8,0:0|0:0|0:0,0:0:0:0:
84,266,202097,6,0,B|178:262|178:262|230:273,1,142.5,6|8,0:0|0:0,0:0:0:0:
269,290,202697,2,0,P|316:297|379:279,1,94.9999999999999,0|0,0:0|0:0,0:0:0:0:
446,242,203297,2,0,L|440:138,1,94.9999999999999,2|0,0:0|0:0,0:0:0:0:
435,99,203747,1,8,0:0:0:0:
346,63,204047,2,0,L|350:-2,2,47.5,2|0|8,0:0|0:0|0:0,0:0:0:0:
312,96,204497,6,0,P|246:117|159:106,1,142.5,6|8,0:0|0:0,0:0:0:0:
126,110,205097,2,0,B|93:153|93:153|105:250,1,142.5,0|8,0:0|0:0,0:0:0:0:
120,285,205697,2,0,P|191:322|259:313,1,142.5,6|8,0:0|0:0,0:0:0:0:
295,298,206297,2,0,B|343:291|343:291|399:300,1,94.9999999999999,6|0,0:0|0:0,0:0:0:0:
482,313,206897,6,0,B|496:259|496:259|484:160,1,142.5,6|8,0:0|0:0,0:0:0:0:
425,99,207647,2,0,P|374:90|324:99,1,94.9999999999999,8|2,0:0|0:0,0:0:0:0:
251,146,208247,2,0,P|200:155|150:146,1,94.9999999999999,2|8,0:0|0:0,0:0:0:0:
67,119,208847,2,0,L|70:65,2,47.5,8|8|8,3:0|3:0|3:0,0:0:0:0:
33,152,209297,6,0,B|29:247|29:247|43:302,1,142.5,6|8,0:0|0:0,0:0:0:0:
111,356,210047,2,0,P|161:364|218:350,1,94.9999999999999,2|8,0:0|0:0,0:0:0:0:
246,335,210497,2,0,P|296:327|353:341,1,94.9999999999999,2|0,0:0|0:0,0:0:0:0:
384,349,210947,1,8,0:0:0:0:
464,298,211247,2,0,L|511:296,2,47.5,2|2|8,0:0|0:0|0:0,0:0:0:0:
430,264,211697,6,0,P|405:217|405:125,1,142.5,6|8,0:0|0:0,0:0:0:0:
373,38,212447,2,0,B|334:32|334:32|262:40,1,94.9999999999999,2|8,0:0|0:0,0:0:0:0:
231,46,212897,2,0,P|211:85|217:152,1,94.9999999999999,2|0,0:0|0:0,0:0:0:0:
217,182,213347,1,8,0:0:0:0:
254,269,213647,2,0,L|315:268,2,47.5,2|2|8,0:0|0:0|0:0,0:0:0:0:
220,302,214097,6,0,B|125:305|125:305|70:283,1,142.5,6|8,0:0|0:0,0:0:0:0:
23,211,214847,2,0,P|13:165|31:102,1,94.9999999999999,2|8,0:0|0:0,0:0:0:0:
51,81,215297,2,0,B|97:71|97:71|147:79,1,94.9999999999999,2|0,0:0|0:0,0:0:0:0:
190,91,215747,1,8,0:0:0:0:
284,104,216047,2,0,L|287:45,2,47.5,2|2|8,0:0|0:0|0:0,0:0:0:0:
283,151,216497,6,0,B|280:196|280:196|286:246|286:246|281:302,1,142.5,6|8,0:0|3:0,0:0:0:0:
211,356,217247,2,0,P|163:358|105:334,1,94.9999999999999,8|8,3:0|3:0,0:0:0:0:
86,308,217697,2,0,L|93:210,1,94.9999999999999,4|4,3:0|3:0,0:0:0:0:
176,167,218297,2,0,L|183:69,1,94.9999999999999,4|4,3:0|3:0,0:0:0:0:
264,23,218897,6,0,B|311:33|311:33|355:24|410:30,1,142.5,6|8,0:0|0:0,0:0:0:0:
488,76,219647,2,0,P|500:122|494:180,1,94.9999999999999,2|8,0:0|0:0,0:0:0:0:
481,213,220097,2,0,B|437:226|437:226|374:219,1,94.9999999999999,2|0,0:0|0:0,0:0:0:0:
341,212,220547,1,8,0:0:0:0:
248,189,220847,2,0,L|241:301,1,94.9999999999999,2|8,0:0|0:0,0:0:0:0:
208,317,221297,6,0,P|153:329|66:285,1,142.5,6|8,0:0|0:0,0:0:0:0:
38,209,222047,2,0,L|43:114,1,94.9999999999999,2|8,0:0|0:0,0:0:0:0:
77,80,222497,2,0,B|126:61|126:61|215:67,1,142.5,2|8,0:0|0:0,0:0:0:0:
282,134,223247,2,0,L|333:130,2,47.5,2|0|8,0:0|0:0|0:0,0:0:0:0:
248,167,223697,6,0,P|233:237|255:312,1,142.5,6|8,0:0|0:0,0:0:0:0:
324,364,224447,2,0,L|427:360,1,94.9999999999999,2|8,0:0|0:0,0:0:0:0:
452,326,224897,2,0,P|465:278|454:213,1,94.9999999999999,2|0,0:0|0:0,0:0:0:0:
452,186,225347,1,8,0:0:0:0:
396,109,225647,2,0,B|346:101|346:101|286:110,1,94.9999999999999,2|8,0:0|0:0,0:0:0:0:
257,124,226097,6,0,P|203:133|110:106,1,142.5,6|8,0:0|0:0,0:0:0:0:
26,131,226847,2,0,L|28:235,1,94.9999999999999,8|8,0:0|0:0,0:0:0:0:
29,273,227297,1,6,0:0:0:0:
96,340,227597,1,4,3:0:0:0:
191,340,227897,1,4,3:0:0:0:
258,272,228197,1,4,3:0:0:0:
