osu file format v14

[General]
AudioFilename: audio.mp3
AudioLeadIn: 0
PreviewTime: 189722
Countdown: 0
SampleSet: Soft
StackLeniency: 0.4
Mode: 0
LetterboxInBreaks: 0
WidescreenStoryboard: 0

[Editor]
Bookmarks: 36497,65297,161297,170897,180497,228347
DistanceSpacing: 1
BeatDivisor: 4
GridSize: 4
TimelineZoom: 1

[Metadata]
Title:GATE~Sore wa Akatsuki no you ni~
TitleUnicode:GATE~それは暁のように~
Artist:KISIDA KYODAN & THE AKEBOSI ROCKETS
ArtistUnicode:岸田教団&THE明星ロケッツ
Creator:Akitoshi
Version:Easy
Source:GATE 自衛隊 彼の地にて、斯く戦えり
Tags:Jieitai Kanochi Nite Kaku Tatakaeri Opening Rory ゲート Full version SnowNiNo_ Corinn
BeatmapID:1025552
BeatmapSetID:480386

[Difficulty]
HPDrainRate:2
CircleSize:3
OverallDifficulty:2
ApproachRate:3
SliderMultiplier:0.799999999999999
SliderTickRate:1

[Events]
//Background and Video events
0,0,"rory.jpg",0,0
//Break Periods
2,46297,49457
2,84697,92657
2,113497,116657
2,171097,179057
//Storyboard Layer 0 (Background)
//Storyboard Layer 1 (Fail)
//Storyboard Layer 2 (Pass)
//Storyboard Layer 3 (Foreground)
//Storyboard Sound Samples

[TimingPoints]
5447,300,4,2,1,40,1,0
6497,-100,4,2,1,50,0,0
15197,-100,4,2,1,30,0,0
16547,-100,4,2,1,50,0,0
17297,-100,4,2,1,70,0,0
26897,-100,4,2,1,50,0,0
55622,-100,4,2,1,5,0,0
55697,-100,4,2,1,70,0,1
74447,-100,4,2,1,60,0,0
74897,-100,4,2,1,70,0,1
84497,-100,4,2,1,70,0,0
94097,-100,4,2,1,50,0,0
118097,-100,4,2,1,50,0,0
132497,-100,4,2,1,70,0,1
151697,-100,4,2,1,50,0,0
161297,-100,4,2,1,70,0,0
191822,-100,4,2,1,10,0,0
191897,-100,4,2,1,50,0,0
192122,-100,4,2,1,10,0,0
192197,-100,4,2,1,50,0,0
192422,-100,4,2,1,10,0,0
192497,-100,4,2,1,70,0,1
208847,-100,4,2,1,70,0,0
209297,-100,4,2,1,70,0,1
218897,-100,4,2,1,70,0,0
227522,-100,4,2,1,10,0,0
227597,-100,4,2,1,70,0,0
227822,-100,4,2,1,10,0,0
227897,-100,4,2,1,70,0,0
228122,-100,4,2,1,10,0,0
228197,-100,4,2,1,70,0,0

[Colours]
Combo1 : 255,128,255
Combo2 : 255,128,64
Combo3 : 255,128,128
Combo4 : 242,24,57

[HitObjects]
55,146,5447,6,0,L|143:139,1,79.9999999999999,4|4,0:0|0:0,0:0:0:0:
214,132,6047,1,8,0:0:0:0:
333,126,6497,6,0,P|357:181|338:246,1,120,2|4,0:0|0:0,0:0:0:0:
311,310,7247,1,2,3:0:0:0:
197,349,7697,2,0,B|139:355|139:355|76:337,1,120,4|8,0:0|0:0,0:0:0:0:
18,286,8447,1,4,3:0:0:0:
87,188,8897,6,0,P|148:166|213:187,1,120,4|8,0:0|0:0,0:0:0:0:
254,236,9647,2,0,P|278:182|261:127,2,120,8|4|8,0:0|0:0|0:0,0:0:0:0:
177,255,10847,1,2,0:0:0:0:
164,135,11297,6,0,P|181:71|235:33,1,120,4|8,0:0|0:0,0:0:0:0:
299,55,12047,2,0,B|379:55|379:55|426:51,2,120,8|4|8,3:0|0:0|0:0,0:0:0:0:
261,127,13247,1,8,0:0:0:0:
215,237,13697,6,0,B|166:263|166:263|93:260,1,120,4|8,0:0|3:0,0:0:0:0:
23,243,14447,2,0,P|9:177|38:120,1,120,8|6,0:0|0:0,0:0:0:0:
82,70,15197,6,0,B|125:66|125:66|158:79|158:79|205:74,1,120,0|0,0:0|0:0,0:0:0:0:
243,228,16247,2,0,L|162:224,2,79.9999999999999,0|4|8,0:0|0:0|0:0,0:0:0:0:
351,279,17297,6,0,P|408:288|476:260,1,120,6|8,0:0|0:0,0:0:0:0:
499,195,18047,1,2,0:0:0:0:
418,106,18497,2,0,B|339:95|339:95|290:102,1,120,2|8,0:0|0:0,0:0:0:0:
221,120,19247,1,2,0:0:0:0:
118,180,19697,6,0,P|116:237|154:297,1,120,6|8,0:0|0:0,0:0:0:0:
213,334,20447,1,2,0:0:0:0:
333,334,20897,2,0,L|339:249,1,79.9999999999999,2|0,0:0|0:0,0:0:0:0:
395,197,21497,2,0,L|401:112,1,79.9999999999999,0|0,0:0|3:0,0:0:0:0:
344,60,22097,6,0,B|298:44|298:44|214:48,1,120,6|8,0:0|0:0,0:0:0:0:
147,60,22847,1,2,0:0:0:0:
57,140,23297,2,0,P|41:196|67:270,1,120,2|8,0:0|0:0,0:0:0:0:
97,323,24047,1,2,0:0:0:0:
212,289,24497,6,0,B|253:283|253:283|330:293,1,120,6|8,0:0|0:0,0:0:0:0:
409,307,25247,1,2,0:0:0:0:
484,214,25697,2,0,P|488:173|472:124,1,79.9999999999999,2|2,0:0|0:0,0:0:0:0:
431,71,26297,2,0,P|397:47|347:36,1,79.9999999999999,2|8,0:0|0:0,0:0:0:0:
284,61,26897,6,0,B|245:71|245:71|152:61,1,120,6|8,0:0|0:0,0:0:0:0:
85,54,27647,1,2,0:0:0:0:
16,154,28097,2,0,L|24:235,1,79.9999999999999,2|0,0:0|0:0,0:0:0:0:
32,313,28697,2,0,P|72:323|117:319,1,79.9999999999999,0|0,0:0|0:0,0:0:0:0:
184,289,29297,6,0,B|229:276|229:276|318:286,1,120,2|8,0:0|0:0,0:0:0:0:
381,294,30047,1,2,0:0:0:0:
477,223,30497,2,0,B|483:170|483:170|474:101,1,120,2|8,0:0|0:0,0:0:0:0:
458,25,31247,1,2,0:0:0:0:
344,62,31697,6,0,P|292:84|223:78,1,120,6|8,0:0|0:0,0:0:0:0:
156,48,32447,1,2,0:0:0:0:
58,117,32897,2,0,L|64:242,1,120,2|8,0:0|0:0,0:0:0:0:
70,316,33647,1,2,0:0:0:0:
182,356,34097,6,0,P|234:363|306:321,1,120,2|8,0:0|0:0,0:0:0:0:
326,262,34847,2,0,L|319:179,1,79.9999999999999,2|8,0:0|0:0,0:0:0:0:
306,63,35597,2,0,P|348:66|394:89,2,79.9999999999999,2|2|2,3:0|3:0|3:0,0:0:0:0:
241,106,36497,6,0,P|177:118|121:100,1,120,6|8,0:0|0:0,0:0:0:0:
58,57,37247,1,2,0:0:0:0:
9,166,37697,2,0,L|17:263,1,79.9999999999999,2|0,0:0|0:0,0:0:0:0:
35,323,38297,2,0,P|68:339|115:345,1,79.9999999999999,0|0,0:0|0:0,0:0:0:0:
186,317,38897,6,0,B|231:306|231:306|312:313,1,120,2|8,0:0|0:0,0:0:0:0:
383,324,39647,1,2,0:0:0:0:
471,242,40097,2,0,P|485:188|461:113,1,120,2|8,0:0|0:0,0:0:0:0:
414,69,40847,1,2,0:0:0:0:
300,107,41297,6,0,B|254:116|254:116|173:103,1,120,6|8,0:0|0:0,0:0:0:0:
103,88,42047,1,2,0:0:0:0:
20,174,42497,2,0,L|28:304,1,120,2|8,0:0|0:0,0:0:0:0:
83,350,43247,1,2,0:0:0:0:
188,292,43697,6,0,P|239:269|312:280,1,120,6|8,0:0|0:0,0:0:0:0:
370,315,44447,1,2,0:0:0:0:
485,282,44897,2,0,L|479:193,1,79.9999999999999,6|0,0:0|0:0,0:0:0:0:
415,154,45497,2,0,L|409:65,1,79.9999999999999,2|2,0:0|0:0,0:0:0:0:
341,32,46097,5,6,0:0:0:0:
382,95,50897,6,0,L|245:116,1,120,4|2,0:0|0:0,0:0:0:0:
209,172,51647,2,0,P|184:117|209:55,2,120,8|2|2,0:0|0:0|0:0,0:0:0:0:
271,222,52847,1,8,0:0:0:0:
389,212,53297,6,0,B|396:143|396:143|377:81,1,120,6|8,0:0|0:0,0:0:0:0:
343,23,54047,1,2,0:0:0:0:
264,113,54497,2,0,B|207:119|165:92|165:92|103:102,1,160,6|8,0:0|0:0,0:0:0:0:
69,256,55697,6,0,P|77:308|139:350,2,120,6|8|0,0:0|0:0|0:0,0:0:0:0:
109,186,56897,2,0,B|155:179|155:179|228:191,1,120,2|8,0:0|0:0,0:0:0:0:
305,207,57647,1,2,0:0:0:0:
424,212,58097,6,0,B|428:168|428:168|424:85,2,120,6|8|0,0:0|0:0|0:0,0:0:0:0:
407,290,59297,2,0,B|366:296|329:285|329:285|288:292,1,120,2|8,0:0|0:0,0:0:0:0:
215,324,60047,1,2,0:0:0:0:
95,336,60497,6,0,P|55:304|45:229,1,120,6|8,0:0|0:0,0:0:0:0:
53,159,61247,1,2,0:0:0:0:
89,44,61697,2,0,B|166:33|166:33|260:38,1,160,6|6,0:0|0:0,0:0:0:0:
384,121,62897,6,0,P|357:183|297:198,1,120,6|8,0:0|0:0,0:0:0:0:
230,208,63647,1,2,0:0:0:0:
120,228,64097,2,0,L|125:310,1,79.9999999999999,6|2,0:0|0:0,0:0:0:0:
175,370,64697,2,0,P|215:384|267:373,1,79.9999999999999,2|8,0:0|0:0,0:0:0:0:
321,340,65297,6,0,L|448:353,2,120,6|8|0,0:0|0:0|0:0,0:0:0:0:
252,298,66497,2,0,P|230:240|253:172,1,120,2|8,0:0|0:0,0:0:0:0:
299,128,67247,1,2,0:0:0:0:
390,50,67697,6,0,B|431:46|431:46|468:61|468:61|518:57,2,120,6|8|0,0:0|0:0|0:0,0:0:0:0:
310,62,68897,2,0,P|250:75|186:56,1,120,2|8,0:0|0:0,0:0:0:0:
120,29,69647,1,2,0:0:0:0:
27,105,70097,6,0,B|5:145|5:145|8:200|28:227,1,120,6|8,0:0|0:0,0:0:0:0:
72,279,70847,1,2,0:0:0:0:
191,288,71297,2,0,P|250:276|302:183,1,160,6|6,0:0|0:0,0:0:0:0:
311,37,72497,6,0,B|354:29|354:29|432:40,1,120,6|8,0:0|0:0,0:0:0:0:
507,55,73247,1,8,0:0:0:0:
510,174,73697,2,0,P|512:229|488:288,1,120,6|8,0:0|0:0,0:0:0:0:
429,343,74447,1,8,0:0:0:0:
316,302,74897,6,0,B|274:295|274:295|194:302,1,120,6|8,0:0|0:0,0:0:0:0:
134,251,75647,2,0,P|116:302|154:370,2,120,2|2|8,0:0|0:0|0:0,0:0:0:0:
182,187,76847,1,2,0:0:0:0:
278,115,77297,6,0,B|356:108|356:108|409:116,1,120,6|8,0:0|0:0,0:0:0:0:
442,180,78047,2,0,P|472:140|455:59,2,120,2|2|8,0:0|0:0|0:0,0:0:0:0:
369,214,79247,1,2,0:0:0:0:
249,199,79697,6,0,B|170:194|170:194|113:203,1,120,6|8,0:0|0:0,0:0:0:0:
86,267,80447,2,0,P|51:212|68:151,2,120,2|2|8,0:0|0:0|0:0,0:0:0:0:
159,299,81647,1,2,0:0:0:0:
255,228,82097,6,0,P|307:211|413:300,1,200,6|8,0:0|3:0,0:0:0:0:
497,207,83297,2,0,L|490:124,1,79.9999999999999,4|4,3:0|3:0,0:0:0:0:
471,49,83897,2,0,P|431:31|383:31,1,79.9999999999999,4|4,3:0|3:0,0:0:0:0:
317,49,84497,5,4,0:0:0:0:
40,44,94097,6,0,P|97:29|161:49,1,120,6|2,0:0|0:0,0:0:0:0:
219,92,94847,1,8,0:0:0:0:
279,195,95297,2,0,L|278:281,1,79.9999999999999,2|8,0:0|0:0,0:0:0:0:
281,354,95897,2,0,P|322:362|362:353,1,79.9999999999999,0|0,0:0|0:0,0:0:0:0:
426,311,96497,6,0,B|429:267|429:267|424:231|424:231|428:179,1,120,2|2,0:0|0:0,0:0:0:0:
434,111,97247,1,8,0:0:0:0:
340,39,97697,2,0,P|292:28|216:37,1,120,2|2,0:0|0:0,0:0:0:0:
150,71,98447,1,8,0:0:0:0:
59,150,98897,6,0,B|50:192|50:192|62:272,1,120,6|2,0:0|0:0,0:0:0:0:
124,317,99647,2,0,P|68:348|4:324,2,120,8|2|2,0:0|0:0|0:0,0:0:0:0:
167,249,100847,1,8,0:0:0:0:
208,136,101297,6,0,B|260:124|260:124|369:132,1,160,6|0,0:0|0:0,0:0:0:0:
445,142,102197,1,0,0:0:0:0:
491,206,102497,2,0,P|474:299|372:334,1,200,2|8,0:0|0:0,0:0:0:0:
269,299,103697,6,0,B|223:289|223:289|137:299,1,120,6|8,0:0|0:0,0:0:0:0:
72,316,104447,1,2,0:0:0:0:
15,210,104897,2,0,P|8:168|24:117,1,79.9999999999999,2|0,0:0|0:0,0:0:0:0:
55,62,105497,2,0,P|93:44|147:46,1,79.9999999999999,0|0,0:0|0:0,0:0:0:0:
208,61,106097,6,0,B|255:74|255:74|341:63,1,120,2|8,0:0|0:0,0:0:0:0:
403,46,106847,1,2,0:0:0:0:
470,145,107297,2,0,P|480:209|464:271,1,120,2|8,0:0|0:0,0:0:0:0:
419,325,108047,1,2,0:0:0:0:
304,287,108497,6,0,B|261:276|261:276|172:286,1,120,6|8,0:0|0:0,0:0:0:0:
109,261,109247,2,0,P|109:308|165:363,2,120,2|2|8,0:0|0:0|0:0,0:0:0:0:
136,185,110447,1,2,0:0:0:0:
218,97,110897,6,0,L|339:99,1,120,2|8,0:0|0:0,0:0:0:0:
417,105,111647,1,2,0:0:0:0:
498,192,112097,2,0,P|509:232|501:277,1,79.9999999999999,6|2,0:0|0:0,0:0:0:0:
466,340,112697,2,0,P|426:351|381:343,1,79.9999999999999,2|2,0:0|0:0,0:0:0:0:
316,309,113297,5,6,0:0:0:0:
451,157,118097,6,0,P|373:139|307:181,1,160,6|0,0:0|0:0,0:0:0:0:
274,251,118997,1,0,0:0:0:0:
263,330,119297,2,0,P|216:306|198:230,1,120,0|8,0:0|0:0,0:0:0:0:
178,167,120047,2,0,B|119:157|119:157|53:169,1,120,8|6,0:0|0:0,0:0:0:0:
332,335,121697,6,0,P|379:288|390:226,1,120,6|8,0:0|0:0,0:0:0:0:
383,157,122447,1,8,0:0:0:0:
289,81,122897,6,0,L|151:90,1,120,6|2,0:0|0:0,0:0:0:0:
90,106,123647,2,0,P|77:142|80:197,1,79.9999999999999,2|2,0:0|0:0,0:0:0:0:
116,253,124247,2,0,P|152:266|207:263,1,79.9999999999999,2|2,0:0|0:0,0:0:0:0:
269,239,124847,1,2,0:0:0:0:
369,173,125297,6,0,P|388:239|371:301,1,120,8|2,0:0|0:0,0:0:0:0:
316,339,126047,2,0,L|219:345,1,79.9999999999999,2|2,0:0|0:0,0:0:0:0:
179,287,126647,2,0,L|82:293,1,79.9999999999999,2|4,0:0|0:0,0:0:0:0:
42,235,127247,1,2,0:0:0:0:
65,117,127697,6,0,P|112:73|179:65,1,120,6|2,0:0|0:0,0:0:0:0:
244,73,128447,1,8,0:0:0:0:
354,120,128897,2,0,L|363:253,1,120,2|2,0:0|0:0,0:0:0:0:
365,319,129647,1,8,0:0:0:0:
251,356,130097,6,0,P|196:348|155:288,2,120,6|8|0,0:0|0:0|0:0,0:0:0:0:
234,277,131297,2,0,P|183:223|128:226,1,120,6|8,0:0|0:0,0:0:0:0:
69,258,132047,1,12,3:0:0:0:
28,144,132497,6,0,P|32:83|85:41,2,120,6|8|0,0:0|0:0|0:0,0:0:0:0:
104,119,133697,2,0,L|191:120,1,79.9999999999999,2|0,0:0|0:0,0:0:0:0:
240,176,134297,2,0,L|327:177,1,79.9999999999999,0|0,0:0|0:0,0:0:0:0:
376,233,134897,6,0,P|399:185|368:113,2,120,6|8|0,0:0|0:0|0:0,0:0:0:0:
309,277,136097,2,0,B|262:286|262:286|178:276,1,120,2|8,0:0|0:0,0:0:0:0:
111,263,136847,1,2,0:0:0:0:
31,174,137297,6,0,P|20:113|55:52,1,120,6|8,0:0|0:0,0:0:0:0:
111,18,138047,1,2,0:0:0:0:
203,94,138497,2,0,L|297:86,1,79.9999999999999,6|2,0:0|0:0,0:0:0:0:
339,143,139097,2,0,L|433:135,1,79.9999999999999,6|2,0:0|0:0,0:0:0:0:
475,192,139697,6,0,P|490:249|463:320,1,120,6|8,0:0|0:0,0:0:0:0:
404,347,140447,2,0,B|324:354|324:354|269:343,1,120,8|6,0:0|0:0,0:0:0:0:
220,298,141197,2,0,P|179:291|124:301,1,79.9999999999999,0|0,0:0|0:0,0:0:0:0:
69,331,141797,1,8,0:0:0:0:
13,272,142097,6,0,P|8:216|51:164,2,120,6|8|0,0:0|0:0|0:0,0:0:0:0:
84,236,143297,2,0,L|172:232,1,79.9999999999999,2|0,0:0|0:0,0:0:0:0:
221,175,143897,2,0,L|308:170,1,79.9999999999999,0|0,0:0|0:0,0:0:0:0:
357,114,144497,6,0,P|381:168|351:233,2,120,6|8|0,0:0|0:0|0:0,0:0:0:0:
283,82,145697,2,0,B|203:92|203:92|150:81,1,120,2|8,0:0|0:0,0:0:0:0:
88,59,146447,1,2,0:0:0:0:
30,164,146897,6,0,P|17:240|67:304,1,160,6|0,0:0|0:0,0:0:0:0:
139,329,147797,1,0,0:0:0:0:
214,302,148097,2,0,B|269:297|269:297|314:316|314:316|379:311,1,160,6|6,0:0|0:0,0:0:0:0:
441,275,148997,1,2,0:0:0:0:
474,202,149297,6,0,P|475:142|433:92,1,120,6|8,0:0|0:0,0:0:0:0:
368,60,150047,1,8,0:0:0:0:
284,145,150497,2,0,L|150:138,1,120,6|8,0:0|0:0,0:0:0:0:
84,131,151247,1,8,0:0:0:0:
27,236,151697,6,0,P|28:280|163:351,1,200,6|2,0:0|0:0,0:0:0:0:
264,333,152897,2,0,B|324:320|324:320|391:331|391:331|474:312,1,200,2|2,0:0|0:0,0:0:0:0:
488,198,154097,6,0,P|495:137|388:50,1,200,6|2,0:0|0:0,0:0:0:0:
280,49,155297,2,0,L|186:50,1,79.9999999999999,2|0,0:0|0:0,0:0:0:0:
120,58,155897,2,0,B|107:95|107:95|112:151,1,79.9999999999999,0|0,0:0|0:0,0:0:0:0:
135,211,156497,6,0,P|187:252|307:209,1,200,6|2,0:0|0:0,0:0:0:0:
366,111,157697,2,0,P|408:153|415:260,1,160,2|0,0:0|0:0,0:0:0:0:
395,326,158597,1,0,0:0:0:0:
323,361,158897,6,0,L|193:362,1,120,6|8,0:0|0:0,0:0:0:0:
123,359,159647,1,2,0:0:0:0:
36,275,160097,2,0,P|30:237|39:191,1,79.9999999999999,6|0,0:0|0:0,0:0:0:0:
67,122,160697,2,0,P|102:106|148:103,1,79.9999999999999,0|8,3:0|3:0,0:0:0:0:
220,122,161297,6,0,P|299:123|368:22,1,200,6|2,0:0|0:0,0:0:0:0:
452,118,162497,2,0,B|457:188|457:188|443:233|443:233|452:322,1,200,2|2,0:0|0:0,0:0:0:0:
336,349,163697,6,0,B|235:371|248:320|137:342,1,200,6|2,0:0|0:0,0:0:0:0:
42,269,164897,2,0,B|25:212|25:212|46:69,1,200,2|2,0:0|0:0,0:0:0:0:
161,42,166097,6,0,B|175:89|146:141|146:141|165:184|231:207,1,200,6|2,0:0|0:0,0:0:0:0:
338,195,167297,2,0,P|413:198|457:307,1,200,2|2,0:0|0:0,0:0:0:0:
256,192,168497,12,6,170897,0:0:0:0:
93,143,180497,6,0,B|135:129|135:129|224:136,1,120,6|2,0:0|0:0,0:0:0:0:
288,150,181247,2,0,P|313:179|324:228,1,79.9999999999999,2|2,0:0|0:0,0:0:0:0:
312,297,181847,2,0,P|283:322|234:333,1,79.9999999999999,2|2,0:0|0:0,0:0:0:0:
163,339,182447,1,2,0:0:0:0:
53,289,182897,6,0,B|21:247|21:247|21:162,1,120,8|2,0:0|0:0,0:0:0:0:
29,100,183647,2,0,P|61:73|111:66,1,79.9999999999999,2|2,0:0|0:0,0:0:0:0:
177,66,184247,2,0,B|215:71|215:71|256:66,1,79.9999999999999,2|2,0:0|0:0,0:0:0:0:
334,48,184847,1,8,0:0:0:0:
433,115,185297,6,0,B|452:161|452:161|447:245,1,120,6|2,0:0|0:0,0:0:0:0:
434,309,186047,1,8,0:0:0:0:
321,349,186497,2,0,P|275:355|231:332,1,79.9999999999999,2|8,0:0|0:0,0:0:0:0:
196,279,187097,2,0,P|190:233|213:189,1,79.9999999999999,0|0,0:0|0:0,0:0:0:0:
253,141,187697,6,0,P|208:122|135:158,1,120,6|8,0:0|0:0,0:0:0:0:
97,210,188447,1,2,0:0:0:0:
13,123,188897,2,0,B|32:45|32:45|57:22|123:31,1,160,6|6,0:0|0:0,0:0:0:0:
380,103,190547,6,0,L|378:229,1,120,2|4,0:0|3:0,0:0:0:0:
364,301,191297,2,0,P|314:319|279:315,1,79.9999999999999,4|4,3:0|3:0,0:0:0:0:
212,290,191897,2,0,P|194:240|198:205,1,79.9999999999999,4|4,3:0|3:0,0:0:0:0:
209,134,192497,6,0,P|149:148|114:208,2,120,6|8|0,0:0|0:0|0:0,0:0:0:0:
287,148,193697,2,0,B|331:157|331:157|416:143,1,120,2|8,0:0|0:0,0:0:0:0:
482,124,194447,1,2,0:0:0:0:
502,242,194897,6,0,P|486:300|426:339,1,120,6|8,0:0|0:0,0:0:0:0:
360,341,195647,1,2,0:0:0:0:
249,293,196097,2,0,B|188:281|188:281|83:294,1,160,6|6,0:0|0:0,0:0:0:0:
23,147,197297,6,0,P|26:93|68:35,1,120,6|8,0:0|0:0,0:0:0:0:
141,35,198047,2,0,B|188:45|188:45|264:36,1,120,8|6,0:0|0:0,0:0:0:0:
339,26,198797,1,2,0:0:0:0:
417,41,199097,2,0,P|435:76|434:118,1,79.9999999999999,2|8,0:0|0:0,0:0:0:0:
399,187,199697,6,0,B|394:229|394:229|403:266|403:266|392:321,2,120,6|8|0,0:0|0:0|0:0,0:0:0:0:
351,122,200897,1,2,0:0:0:0:
273,100,201197,2,0,P|225:111|183:169,1,120,0|2,0:0|0:0,0:0:0:0:
123,269,202097,6,0,P|82:229|64:155,2,120,6|8|0,0:0|0:0|0:0,0:0:0:0:
202,278,203297,2,0,L|325:275,1,120,2|8,0:0|0:0,0:0:0:0:
401,269,204047,1,2,0:0:0:0:
492,191,204497,6,0,B|499:144|499:144|481:32,1,160,6|0,0:0|0:0,0:0:0:0:
321,20,205697,2,0,P|266:28|203:118,1,160,6|6,0:0|0:0,0:0:0:0:
178,264,206897,6,0,B|121:271|121:271|66:238,1,120,6|8,0:0|0:0,0:0:0:0:
17,176,207647,2,0,P|11:133|24:86,1,79.9999999999999,8|2,0:0|0:0,0:0:0:0:
76,42,208247,2,0,P|119:36|166:49,1,79.9999999999999,2|8,0:0|0:0,0:0:0:0:
219,90,208847,1,8,3:0:0:0:
267,199,209297,6,0,L|388:191,1,120,6|8,0:0|0:0,0:0:0:0:
443,134,210047,2,0,P|467:194|437:254,2,120,2|2|8,0:0|0:0|0:0,0:0:0:0:
366,111,211247,1,2,0:0:0:0:
246,119,211697,6,0,B|197:128|197:128|108:128,1,120,6|8,0:0|0:0,0:0:0:0:
52,158,212447,2,0,P|50:103|99:52,2,120,2|2|8,0:0|0:0|0:0,0:0:0:0:
78,233,213647,1,2,0:0:0:0:
185,286,214097,6,0,B|228:287|228:287|263:278|263:278|309:279,1,120,6|8,0:0|0:0,0:0:0:0:
382,260,214847,2,0,P|368:328|315:359,2,120,2|2|8,0:0|0:0|0:0,0:0:0:0:
355,184,216047,1,2,0:0:0:0:
265,103,216497,6,0,L|143:111,1,120,6|8,0:0|3:0,0:0:0:0:
65,116,217247,1,8,3:0:0:0:
18,226,217697,2,0,P|23:266|56:308,1,79.9999999999999,4|4,3:0|3:0,0:0:0:0:
115,335,218297,2,0,P|155:330|197:297,1,79.9999999999999,4|4,3:0|3:0,0:0:0:0:
240,248,218897,6,0,B|285:236|285:236|376:242,1,120,6|8,0:0|0:0,0:0:0:0:
437,251,219647,1,2,0:0:0:0:
495,146,220097,2,0,P|493:90|442:36,1,120,2|8,0:0|0:0,0:0:0:0:
375,25,220847,1,2,0:0:0:0:
270,84,221297,6,0,B|211:96|211:96|150:71,1,120,6|8,0:0|0:0,0:0:0:0:
82,39,222047,1,2,0:0:0:0:
23,143,222497,2,0,L|25:225,1,79.9999999999999,2|0,0:0|0:0,0:0:0:0:
100,250,223097,2,0,L|102:332,1,79.9999999999999,0|0,0:0|0:0,0:0:0:0:
172,367,223697,6,0,P|235:370|290:342,1,120,6|8,0:0|0:0,0:0:0:0:
334,282,224447,1,2,0:0:0:0:
290,170,224897,2,0,B|248:167|248:167|216:174|216:174|167:172,1,120,2|8,0:0|0:0,0:0:0:0:
90,171,225647,1,2,0:0:0:0:
61,54,226097,6,0,P|100:32|186:36,1,120,6|8,0:0|0:0,0:0:0:0:
248,60,226847,1,8,0:0:0:0:
344,131,227297,2,0,L|349:219,1,79.9999999999999,6|4,0:0|3:0,0:0:0:0:
405,267,227897,2,0,L|410:355,1,79.9999999999999,4|4,3:0|3:0,0:0:0:0:
