osu file format v14

[General]
AudioFilename: audio.mp3
AudioLeadIn: 0
PreviewTime: 189722
Countdown: 0
SampleSet: Soft
StackLeniency: 0.4
Mode: 0
LetterboxInBreaks: 0
WidescreenStoryboard: 0

[Editor]
Bookmarks: 36497,65297,161297,228347
DistanceSpacing: 3
BeatDivisor: 4
GridSize: 4
TimelineZoom: 1.6

[Metadata]
Title:GATE~Sore wa Akatsuki no you ni~
TitleUnicode:GATE~それは暁のように~
Artist:KISIDA KYODAN & THE AKEBOSI ROCKETS
ArtistUnicode:岸田教団&THE明星ロケッツ
Creator:Akitoshi
Version:Darkness
Source:GATE 自衛隊 彼の地にて、斯く戦えり
Tags:Jieitai Kanochi Nite Kaku Tatakaeri Opening Rory ゲート Full version SnowNiNo_ Corinn
BeatmapID:1025551
BeatmapSetID:480386

[Difficulty]
HPDrainRate:6
CircleSize:4.1
OverallDifficulty:9
ApproachRate:9.3
SliderMultiplier:1.7
SliderTickRate:1

[Events]
//Background and Video events
0,0,"rory.jpg",0,0
//Break Periods
//Storyboard Layer 0 (Background)
//Storyboard Layer 1 (Fail)
//Storyboard Layer 2 (Pass)
//Storyboard Layer 3 (Foreground)
//Storyboard Sound Samples

[TimingPoints]
5447,300,4,2,1,40,1,0
5447,-142.857142857143,4,2,1,40,0,0
6047,-117.647058823529,4,2,1,40,0,0
6497,-100,4,2,1,50,0,0
14897,-142.857142857143,4,2,1,50,0,0
15197,-142.857142857143,4,2,1,30,0,0
16547,-117.647058823529,4,2,1,50,0,0
16847,-100,4,2,1,50,0,0
17297,-90.9090909090909,4,2,1,70,0,0
26897,-111.111111111111,4,2,1,50,0,0
46097,-133.333333333333,4,2,1,50,0,0
50897,-117.647058823529,4,2,1,50,0,0
55397,-133.333333333333,4,2,1,50,0,0
55622,-133.333333333333,4,2,1,5,0,0
55697,-79.9999999999999,4,2,1,70,0,1
61697,-100,4,2,1,70,0,1
62297,-80,4,2,1,70,0,1
62897,-66.6666666666667,4,2,1,70,0,1
63647,-80,4,2,1,70,0,1
71297,-66.6666666666667,4,2,1,70,0,1
71897,-80,4,2,1,70,0,1
72497,-100,4,2,1,70,0,1
74447,-90.9090909090909,4,2,1,60,0,0
74897,-83.3333333333333,4,2,1,70,0,1
83297,-100,4,2,1,70,0,1
84497,-83.3333333333333,4,2,1,70,0,0
94097,-111.111111111111,4,2,1,50,0,0
113297,-133.333333333333,4,2,1,50,0,0
118097,-125,4,2,1,50,0,0
122897,-111.111111111111,4,2,1,50,0,0
131897,-100,4,2,1,50,0,0
132047,-133.333333333333,4,2,1,50,0,0
132497,-83.3333333333333,4,2,1,70,0,1
138497,-100,4,2,1,70,0,1
139097,-80,4,2,1,70,0,1
139697,-66.6666666666667,4,2,1,70,0,1
140447,-83.3333333333333,4,2,1,70,0,1
148097,-66.6666666666667,4,2,1,70,0,1
148697,-80,4,2,1,70,0,1
149297,-100,4,2,1,70,0,1
151697,-83.3333333333333,4,2,1,50,0,0
161297,-83.3333333333333,4,2,1,70,0,0
170897,-125,4,2,1,50,0,0
180497,-111.111111111111,4,2,1,50,0,0
185297,-117.647058823529,4,2,1,50,0,0
189797,-133.333333333333,4,2,1,50,0,0
190097,-200,4,2,1,50,0,0
190547,-90.9090909090909,4,2,1,50,0,0
191822,-90.9090909090909,4,2,1,10,0,0
191897,-90.9090909090909,4,2,1,50,0,0
192122,-90.9090909090909,4,2,1,10,0,0
192197,-90.9090909090909,4,2,1,50,0,0
192422,-90.9090909090909,4,2,1,10,0,0
192497,-76.9230769230769,4,2,1,70,0,1
196097,-90.9090909090909,4,2,1,70,0,1
196697,-71.4285714285714,4,2,1,70,0,1
197297,-58.8235294117647,4,2,1,70,0,1
198047,-76.9230769230769,4,2,1,70,0,1
205697,-58.8235294117647,4,2,1,70,0,1
206297,-71.4285714285714,4,2,1,70,0,1
206897,-90.9090909090909,4,2,1,70,0,1
208847,-90.9090909090909,4,2,1,70,0,0
209297,-76.9230769230769,4,2,1,70,0,1
217697,-83.3333333333333,4,2,1,70,0,1
218897,-76.9230769230769,4,2,1,70,0,0
227297,-66.6666666666667,4,2,1,70,0,0
227522,-66.6666666666667,4,2,1,10,0,0
227597,-66.6666666666667,4,2,1,70,0,0
227822,-66.6666666666667,4,2,1,10,0,0
227897,-66.6666666666667,4,2,1,70,0,0
228122,-66.6666666666667,4,2,1,10,0,0
228197,-66.6666666666667,4,2,1,70,0,0
228347,-66.6666666666667,4,2,1,10,0,0

[Colours]
Combo1 : 255,128,255
Combo2 : 255,128,64
Combo3 : 255,128,128
Combo4 : 242,24,57

[HitObjects]
44,139,5447,5,4,0:0:0:0:
107,239,5747,1,4,0:0:0:0:
248,269,6047,1,8,0:0:0:0:
248,269,6122,1,8,0:0:0:0:
248,269,6197,1,8,0:0:0:0:
195,173,6347,1,2,0:0:0:0:
337,195,6497,6,0,B|394:202|394:202|442:185|442:185|505:191,1,170,2|0,0:0|0:0,0:0:0:0:
391,111,6947,2,0,L|292:99,1,85,4|0,0:0|0:0,0:0:0:0:
154,76,7247,1,2,3:0:0:0:
154,76,7322,1,2,0:0:0:0:
154,76,7397,2,0,B|145:111|145:111|154:184,1,85,12|0,0:0|0:0,0:0:0:0:
167,337,7697,6,0,B|107:342|107:342|61:327|61:327|0:331,1,170,4|0,0:0|0:0,0:0:0:0:
159,248,8147,2,0,P|199:252|243:290,1,85,8|0,0:0|0:0,0:0:0:0:
355,356,8447,1,4,3:0:0:0:
384,354,8522,1,8,0:0:0:0:
411,342,8597,1,8,0:0:0:0:
429,318,8672,1,8,0:0:0:0:
443,292,8747,1,8,0:0:0:0:
446,262,8822,1,8,0:0:0:0:
438,233,8897,6,0,B|432:185|432:185|446:128|446:128|440:63,1,170,4|0,0:0|0:0,0:0:0:0:
301,21,9347,1,8,0:0:0:0:
224,143,9497,1,0,3:0:0:0:
224,143,9572,1,0,0:0:0:0:
224,143,9647,1,8,0:0:0:0:
191,153,9722,1,0,3:0:0:0:
157,152,9797,1,0,3:0:0:0:
125,140,9872,1,0,3:0:0:0:
104,113,9947,1,0,3:0:0:0:
93,80,10022,1,0,3:0:0:0:
85,46,10097,6,0,B|63:90|63:90|74:226,1,170,4|0,0:0|0:0,0:0:0:0:
171,369,10547,1,8,0:0:0:0:
239,194,10697,1,8,0:0:0:0:
120,290,10847,1,2,0:0:0:0:
306,271,10997,2,0,P|332:238|339:182,1,85,8|0,0:0|0:0,0:0:0:0:
200,73,11297,6,0,B|157:58|116:81|116:81|74:104|14:79,1,170,4|0,0:0|0:0,0:0:0:0:
166,162,11747,2,0,P|201:169|265:141,1,85,8|0,0:0|0:0,0:0:0:0:
387,92,12047,1,8,3:0:0:0:
387,92,12122,1,0,0:0:0:0:
387,92,12197,1,8,3:0:0:0:
258,8,12347,1,8,0:0:0:0:
330,180,12497,6,0,B|336:233|336:233|325:284|325:284|336:356,1,170,4|0,0:0|0:0,0:0:0:0:
427,368,12872,1,0,3:0:0:0:
427,368,12947,2,0,P|480:373|516:361,1,85,8|0,0:0|0:0,0:0:0:0:
502,211,13247,2,0,P|449:206|413:218,1,85,8|0,0:0|0:0,0:0:0:0:
250,233,13547,1,8,0:0:0:0:
94,163,13697,6,0,B|82:125|82:125|106:38|106:38|120:86,1,170,4|0,0:0|0:0,0:0:0:0:
174,237,14147,1,8,3:0:0:0:
229,67,14297,1,8,0:0:0:0:
334,302,14447,1,8,0:0:0:0:
402,92,14597,1,8,0:0:0:0:
199,153,14747,1,8,0:0:0:0:
433,215,14897,5,6,0:0:0:0:
433,215,15197,2,0,L|430:291,2,59.4999981842042
348,270,15647,2,0,L|345:329,1,59.4999981842042
265,266,15947,2,0,L|268:207,1,59.4999981842042
180,257,16247,2,0,L|177:316,1,59.4999981842042
100,219,16547,6,0,B|93:185|93:185|103:149,1,72.2500013780594,4|0,0:0|0:0,0:0:0:0:
221,40,16847,1,8,0:0:0:0:
246,68,16922,1,8,0:0:0:0:
281,82,16997,1,8,0:0:0:0:
318,89,17072,1,8,0:0:0:0:
355,81,17147,1,8,0:0:0:0:
389,63,17222,1,8,0:0:0:0:
415,30,17297,6,0,B|428:96|428:96|411:142|411:142|428:238,1,187.000005706787,6|0,0:0|0:0,0:0:0:0:
309,336,17747,2,0,B|326:304|326:304|313:224,1,93.5000028533936,8|0,0:0|0:0,0:0:0:0:
281,82,18047,1,2,0:0:0:0:
219,238,18197,1,0,0:0:0:0:
358,143,18347,1,8,0:0:0:0:
189,139,18497,6,0,B|139:128|99:153|99:153|49:178|1:149,1,187.000005706787,2|0,0:0|0:0,0:0:0:0:
160,245,18947,1,8,0:0:0:0:
54,71,19097,1,0,0:0:0:0:
261,180,19247,2,0,P|271:128|249:81,1,93.5000028533936,2|0,0:0|0:0,0:0:0:0:
160,245,19547,1,8,0:0:0:0:
367,190,19697,6,0,B|425:178|425:178|503:203|503:203|455:217,1,187.000005706787,6|0,0:0|0:0,0:0:0:0:
380,52,20147,2,0,L|488:31,1,93.5000028533936,8|0,0:0|0:0,0:0:0:0:
277,142,20447,2,0,L|169:121,1,93.5000028533936,2|0,0:0|0:0,0:0:0:0:
217,290,20747,1,8,0:0:0:0:
80,135,20897,6,0,P|105:56|207:22,1,187.000005706787,2|0,0:0|0:0,0:0:0:0:
185,124,21347,1,8,0:0:0:0:
86,259,21497,2,0,P|39:255|0:231,1,93.5000028533936,0|2,0:0|0:0,0:0:0:0:
80,135,21797,1,0,3:0:0:0:
193,258,21947,1,8,0:0:0:0:
299,82,22097,6,0,B|361:77|361:77|417:88|417:88|503:83,1,187.000005706787,6|0,0:0|0:0,0:0:0:0:
302,179,22547,2,0,P|254:169|215:130,1,93.5000028533936,8|0,0:0|0:0,0:0:0:0:
87,38,22847,1,2,0:0:0:0:
140,197,22997,1,0,3:0:0:0:
299,82,23147,1,8,0:0:0:0:
77,142,23297,6,0,B|41:190|70:243|70:243|61:281|61:281|72:332,1,187.000005706787,2|0,0:0|0:0,0:0:0:0:
252,365,23747,2,0,B|261:335|261:335|250:264,1,93.5000028533936,8|0,0:0|0:0,0:0:0:0:
363,123,24047,2,0,B|354:153|354:153|365:224,1,93.5000028533936,2|0,0:0|0:0,0:0:0:0:
512,262,24347,1,8,0:0:0:0:
411,61,24497,6,0,B|363:31|317:60|317:60|276:111|207:75,1,187.000005706787,6|0,0:0|0:0,0:0:0:0:
70,82,24947,2,0,P|57:131|68:182,1,93.5000028533936,8|0,0:0|0:0,0:0:0:0:
169,303,25247,1,2,0:0:0:0:
165,134,25397,1,0,0:0:0:0:
65,269,25547,1,8,0:0:0:0:
286,194,25697,6,0,L|412:191,1,93.5000028533936,2|0,0:0|0:0,0:0:0:0:
169,303,25997,2,0,L|295:306,1,93.5000028533936,2|0,0:0|0:0,0:0:0:0:
63,172,26297,2,0,L|189:175,1,93.5000028533936,2|0,0:0|0:0,0:0:0:0:
332,106,26597,1,8,0:0:0:0:
368,96,26672,1,8,0:0:0:0:
403,84,26747,1,8,0:0:0:0:
438,73,26822,1,8,0:0:0:0:
474,63,26897,6,0,B|486:98|486:98|482:236,1,152.999995330811,6|0,0:0|0:0,0:0:0:0:
391,318,27347,1,8,0:0:0:0:
284,231,27497,1,0,0:0:0:0:
284,231,27572,1,0,0:0:0:0:
284,231,27647,2,0,P|241:224|186:234,1,76.4999976654053,2|0,0:0|0:0,0:0:0:0:
239,361,27947,1,8,0:0:0:0:
93,277,28097,6,0,P|85:212|122:134,1,152.999995330811,2|0,0:0|0:0,0:0:0:0:
243,69,28547,1,8,0:0:0:0:
364,133,28697,2,0,L|451:128,1,76.4999976654053,0|2,0:0|0:0,0:0:0:0:
439,267,28997,2,0,L|352:272,1,76.4999976654053,0|8,0:0|0:0,0:0:0:0:
193,217,29297,6,0,B|180:163|180:163|208:104|179:48,1,152.999995330811,2|0,0:0|0:0,0:0:0:0:
20,98,29747,1,8,0:0:0:0:
55,238,29897,1,0,0:0:0:0:
55,238,29972,1,0,0:0:0:0:
55,238,30047,2,0,P|62:267|89:305,1,76.4999976654053,2|0,0:0|0:0,0:0:0:0:
234,308,30347,1,8,0:0:0:0:
310,149,30497,6,0,B|324:110|324:110|305:32|305:32|292:75,1,152.999995330811,2|0,0:0|0:0,0:0:0:0:
291,222,30947,2,0,P|336:220|373:191,1,76.4999976654053,8|0,0:0|0:0,0:0:0:0:
477,126,31247,1,2,0:0:0:0:
439,258,31397,1,0,0:0:0:0:
393,96,31547,1,8,0:0:0:0:
328,300,31697,6,0,B|266:304|266:304|232:294|232:294|165:298,1,152.999995330811,6|0,0:0|0:0,0:0:0:0:
39,310,32147,1,8,0:0:0:0:
120,199,32297,1,0,0:0:0:0:
120,199,32372,1,0,0:0:0:0:
120,199,32447,2,0,P|129:159|116:110,1,76.4999976654053,2|0,0:0|0:0,0:0:0:0:
38,15,32747,1,8,0:0:0:0:
173,41,32897,6,0,B|221:50|221:50|333:36,1,152.999995330811,2|0,0:0|0:0,0:0:0:0:
460,15,33347,1,8,0:0:0:0:
420,145,33497,1,0,0:0:0:0:
420,145,33572,1,0,0:0:0:0:
420,145,33647,2,0,P|412:184|428:236,1,76.4999976654053,2|0,0:0|0:0,0:0:0:0:
481,342,33947,1,8,0:0:0:0:
321,288,34097,6,0,B|259:284|259:284|220:298|220:298|140:290,1,152.999995330811,2|0,0:0|0:0,0:0:0:0:
31,228,34547,1,8,0:0:0:0:
159,145,34697,1,0,0:0:0:0:
159,145,34772,1,0,0:0:0:0:
159,145,34847,2,0,P|165:102|153:58,1,76.4999976654053,2|0,0:0|0:0,0:0:0:0:
27,109,35147,1,8,0:0:0:0:
128,233,35297,1,2,0:0:0:0:
158,235,35372,1,0,0:0:0:0:
188,229,35447,1,2,0:0:0:0:
214,213,35522,1,2,0:0:0:0:
235,190,35597,6,0,L|245:114,1,76.4999976654053,2|0,3:0|0:0,0:0:0:0:
377,305,35897,2,0,L|367:230,1,76.4999976654053,2|0,3:0|0:0,0:0:0:0:
220,368,36197,2,0,L|230:292,1,76.4999976654053,2|0,3:0|0:0,0:0:0:0:
116,97,36497,6,0,P|62:109|22:203,1,152.999995330811,6|0,0:0|0:0,0:0:0:0:
97,304,36947,1,8,0:0:0:0:
196,223,37097,1,0,0:0:0:0:
196,223,37172,1,0,0:0:0:0:
196,223,37247,2,0,B|229:218|229:218|286:225,1,76.4999976654053,2|0,0:0|0:0,0:0:0:0:
407,249,37547,1,8,0:0:0:0:
307,123,37697,6,0,P|312:51|405:22,1,152.999995330811,2|0,0:0|0:0,0:0:0:0:
501,77,38147,1,8,0:0:0:0:
414,256,38297,1,0,0:0:0:0:
414,256,38372,1,0,0:0:0:0:
414,256,38447,2,0,B|422:345,1,76.4999976654053,2|0,0:0|0:0,0:0:0:0:
402,164,38747,1,8,0:0:0:0:
278,278,38897,6,0,B|220:283|220:283|177:272|177:272|110:278,1,152.999995330811,2|0,0:0|0:0,0:0:0:0:
16,193,39347,1,8,0:0:0:0:
99,46,39497,1,0,0:0:0:0:
99,46,39572,1,0,0:0:0:0:
99,46,39647,2,0,L|180:39,1,76.4999976654053,2|0,0:0|0:0,0:0:0:0:
144,173,39947,1,8,0:0:0:0:
268,84,40097,6,0,P|277:53|269:-1,1,76.4999976654053,2|0,0:0|0:0,0:0:0:0:
144,173,40397,1,0,0:0:0:0:
272,189,40547,2,0,P|312:192|361:175,1,76.4999976654053,8|0,0:0|0:0,0:0:0:0:
457,100,40847,1,2,0:0:0:0:
416,231,40997,1,0,0:0:0:0:
377,98,41147,1,8,0:0:0:0:
508,247,41297,6,0,P|474:304|388:321,1,152.999995330811,6|0,0:0|0:0,0:0:0:0:
224,270,41747,1,8,0:0:0:0:
270,111,41897,1,0,0:0:0:0:
270,111,41972,1,0,0:0:0:0:
270,111,42047,2,0,L|265:25,1,76.4999976654053,2|0,0:0|0:0,0:0:0:0:
138,88,42347,1,8,0:0:0:0:
270,203,42497,6,0,P|333:178|359:91,1,152.999995330811,2|0,0:0|0:0,0:0:0:0:
409,240,42947,1,8,0:0:0:0:
270,111,43097,1,0,0:0:0:0:
270,111,43172,1,0,0:0:0:0:
270,111,43247,2,0,L|164:113,1,76.4999976654053,2|0,0:0|0:0,0:0:0:0:
224,270,43547,1,8,0:0:0:0:
95,139,43697,6,0,P|98:74|160:15,1,152.999995330811,6|0,0:0|0:0,0:0:0:0:
334,66,44147,2,0,P|375:69|430:51,1,76.4999976654053,8|0,0:0|0:0,0:0:0:0:
251,28,44447,1,2,0:0:0:0:
405,172,44597,1,0,0:0:0:0:
194,112,44747,1,8,0:0:0:0:
354,275,44897,6,0,L|348:370,1,76.4999976654053,6|0,0:0|0:0,0:0:0:0:
189,188,45197,2,0,L|195:93,1,76.4999976654053,0|8,0:0|0:0,0:0:0:0:
177,302,45497,5,2,0:0:0:0:
359,162,45647,1,8,0:0:0:0:
349,351,45797,5,2,0:0:0:0:
189,188,45947,1,8,0:0:0:0:
354,275,46097,6,0,P|408:265|465:197,1,127.500004863739,6|0,0:0|0:0,0:0:0:0:
463,86,46547,2,0,L|455:20,1,63.7500024318696,2|0,0:0|0:0,0:0:0:0:
362,109,46847,2,0,L|354:43,1,63.7500024318696,8|0,3:0|0:0,0:0:0:0:
258,130,47147,2,0,L|250:64,1,63.7500024318696,8|0,3:0|0:0,0:0:0:0:
126,37,47447,6,0,P|101:61|88:106,1,63.7500024318696,8|0,3:0|0:0,0:0:0:0:
72,214,47747,2,0,L|3:218,1,63.7500024318696,8|0,3:0|0:0,0:0:0:0:
102,303,48047,2,0,L|33:307,1,63.7500024318696,8|0,3:0|0:0,0:0:0:0:
172,212,48347,1,8,3:0:0:0:
236,329,48497,6,0,P|267:332|319:324,1,63.7500024318696,0|8,0:0|3:0,0:0:0:0:
412,269,48797,1,0,0:0:0:0:
351,156,48947,2,0,L|357:82,1,63.7500024318696,8|0,3:0|0:0,0:0:0:0:
261,180,49247,2,0,L|266:105,1,63.7500024318696,8|0,3:0|0:0,0:0:0:0:
336,251,49547,1,8,3:0:0:0:
435,84,49697,6,0,P|426:55|386:18,1,63.7500024318696,0|8,0:0|3:0,0:0:0:0:
277,29,49997,1,0,0:0:0:0:
351,156,50147,1,8,3:0:0:0:
173,62,50297,1,8,0:0:0:0:
173,62,50372,1,8,0:0:0:0:
173,62,50447,1,8,0:0:0:0:
252,263,50597,1,8,0:0:0:0:
342,65,50747,1,0,0:0:0:0:
233,283,50897,6,0,B|125:267|125:267|173:236,1,144.500002756119,4|8,0:0|0:0,0:0:0:0:
346,226,51347,2,0,P|355:192|341:134,1,72.2500013780594,2|0,0:0|0:0,0:0:0:0:
173,62,51647,2,0,P|164:96|178:154,1,72.2500013780594,8|0,0:0|0:0,0:0:0:0:
252,263,51947,1,2,0:0:0:0:
329,63,52097,6,0,P|368:62|449:148,1,144.500002756119,2|8,0:0|0:0,0:0:0:0:
348,224,52547,2,0,P|342:189|350:154,1,72.2500013780594,2|0,0:0|0:0,0:0:0:0:
435,263,52847,1,8,0:0:0:0:
288,282,52997,1,0,0:0:0:0:
444,127,53147,1,8,0:0:0:0:
208,221,53297,6,0,B|127:246|148:192|50:210,1,144.500002756119,6|0,0:0|0:0,0:0:0:0:
254,136,53747,1,8,0:0:0:0:
181,324,53897,1,0,0:0:0:0:
137,111,54047,1,2,0:0:0:0:
295,258,54197,1,2,0:0:0:0:
250,45,54347,1,8,0:0:0:0:
469,116,54497,6,0,P|475:158|464:214,1,72.2500013780594,6|0,0:0|0:0,0:0:0:0:
320,345,54797,1,8,3:0:0:0:
285,364,54872,1,8,3:0:0:0:
246,371,54947,1,8,0:0:0:0:
207,360,55022,1,8,0:0:0:0:
174,337,55097,1,8,0:0:0:0:
145,213,55397,6,0,B|95:204|95:204|48:212,1,95.6250036478044
25,218,55697,6,0,P|29:152|153:108,1,212.5,6|0,0:0|0:0,0:0:0:0:
296,247,56147,1,8,0:0:0:0:
468,142,56297,2,0,B|474:106|474:106|468:31,1,106.25,0|2,0:0|0:0,0:0:0:0:
297,141,56597,2,0,B|291:177|291:177|297:252,1,106.25,0|8,0:0|0:0,0:0:0:0:
361,55,56897,5,2,0:0:0:0:
413,249,57047,1,0,0:0:0:0:
212,128,57197,1,0,0:0:0:0:
264,322,57347,1,8,0:0:0:0:
390,150,57497,1,0,0:0:0:0:
237,224,57647,2,0,P|174:230|127:214,1,106.25,2|0,0:0|0:0,0:0:0:0:
297,141,57947,1,8,0:0:0:0:
132,312,58097,6,0,B|122:250|122:250|146:182|146:182|136:101,1,212.5,6|0,0:0|0:0,0:0:0:0:
295,14,58547,1,8,0:0:0:0:
386,194,58697,2,0,P|437:202|494:188,1,106.25,0|2,0:0|0:0,0:0:0:0:
315,291,58997,2,0,P|264:283|207:297,1,106.25,0|8,0:0|0:0,0:0:0:0:
489,190,59297,6,0,B|501:35|501:35|421:66,1,212.5,2|0,0:0|0:0,0:0:0:0:
191,133,59747,1,8,0:0:0:0:
295,14,59897,1,0,0:0:0:0:
390,223,60047,2,0,L|276:215,1,106.25,2|0,0:0|0:0,0:0:0:0:
153,347,60347,1,8,0:0:0:0:
426,308,60497,6,0,P|475:258|409:132,1,212.5,6|0,0:0|0:0,0:0:0:0:
225,140,60947,1,8,0:0:0:0:
390,223,61097,1,0,0:0:0:0:
396,21,61247,1,2,0:0:0:0:
304,212,61397,1,0,0:0:0:0:
182,39,61547,1,8,0:0:0:0:
263,289,61697,6,0,P|326:298|390:204,1,170,6|0,0:0|0:0,0:0:0:0:
196,61,62147,1,8,0:0:0:0:
202,341,62297,6,0,P|300:377|408:339,1,212.5,6|0,0:0|0:0,0:0:0:0:
209,84,62747,1,8,0:0:0:0:
461,46,62897,6,0,B|484:117|484:117|450:170|450:170|485:234|441:297,1,255.000009727478,6|0,0:0|0:0,0:0:0:0:
204,343,63347,1,8,0:0:0:0:
356,227,63497,1,0,0:0:0:0:
136,121,63647,2,0,B|82:115|82:115|16:123,1,106.25,2|0,0:0|0:0,0:0:0:0:
86,303,63947,1,8,0:0:0:0:
229,88,64097,6,0,P|200:46|136:21,1,106.25,6|0,0:0|0:0,0:0:0:0:
162,226,64397,1,2,0:0:0:0:
338,42,64547,1,8,0:0:0:0:
136,121,64697,1,0,0:0:0:0:
325,268,64847,1,8,0:0:0:0:
369,283,64922,1,8,0:0:0:0:
416,277,64997,1,8,0:0:0:0:
455,250,65072,1,8,0:0:0:0:
477,208,65147,1,8,0:0:0:0:
477,160,65222,1,8,0:0:0:0:
446,124,65297,6,0,B|384:120|384:120|297:141|297:141|206:136,1,212.5,6|0,0:0|0:0,0:0:0:0:
0,99,65747,1,8,0:0:0:0:
231,32,65897,2,0,B|241:85|241:85|235:148,1,106.25,0|2,0:0|0:0,0:0:0:0:
163,268,66197,1,2,0:0:0:0:
101,53,66347,1,8,0:0:0:0:
237,171,66497,6,0,L|346:164,1,106.25,2|0,0:0|0:0,0:0:0:0:
231,32,66797,1,2,0:0:0:0:
82,212,66947,1,8,0:0:0:0:
23,7,67097,1,0,0:0:0:0:
140,130,67247,1,2,0:0:0:0:
262,12,67397,2,0,L|374:6,1,106.25,2|8,0:0|0:0,0:0:0:0:
228,230,67697,6,0,B|187:223|187:223|103:240|103:240|53:230|53:230|98:201,1,212.5,6|0,0:0|0:0,0:0:0:0:
231,32,68147,1,8,0:0:0:0:
408,213,68297,2,0,P|411:267|392:323,1,106.25,2|2,0:0|0:0,0:0:0:0:
228,230,68597,1,2,0:0:0:0:
391,65,68747,1,8,0:0:0:0:
154,150,68897,6,0,L|16:134,1,106.25,2|0,0:0|0:0,0:0:0:0:
255,43,69197,1,2,0:0:0:0:
153,270,69347,1,8,0:0:0:0:
116,57,69497,1,0,0:0:0:0:
325,128,69647,2,0,P|329:181|311:233,1,106.25,2|0,0:0|0:0,0:0:0:0:
102,369,69947,1,8,0:0:0:0:
220,160,70097,6,0,B|268:131|268:131|350:113|430:169,1,212.5,6|0,0:0|0:0,0:0:0:0:
311,356,70547,1,8,0:0:0:0:
502,203,70697,2,0,P|510:157|483:93,1,106.25,0|2,0:0|0:0,0:0:0:0:
282,38,70997,1,2,0:0:0:0:
332,271,71147,1,8,0:0:0:0:
87,197,71297,6,0,B|81:136|81:136|101:84|101:84|75:7|75:7|45:61,1,255.000009727478,6|0,0:0|0:0,0:0:0:0:
22,335,71747,1,8,0:0:0:0:
166,151,71897,6,0,B|188:86|188:86|165:19|165:19|199:42|265:35,1,212.5,6|0,0:0|0:0,0:0:0:0:
447,17,72347,1,8,0:0:0:0:
303,188,72497,6,0,P|263:255|164:292,1,170,6|0,0:0|0:0,0:0:0:0:
142,73,72947,5,8,0:0:0:0:
311,169,73097,1,0,0:0:0:0:
52,221,73247,5,8,0:0:0:0:
223,127,73397,1,0,0:0:0:0:
7,6,73547,5,8,0:0:0:0:
181,291,73697,2,0,B|255:327|315:274|315:274|286:248,1,170,6|0,0:0|0:0,0:0:0:0:
90,143,74147,6,0,L|5:134,1,85,8|0,0:0|0:0,0:0:0:0:
289,55,74447,1,8,0:0:0:0:
326,36,74522,1,8,0:0:0:0:
368,34,74597,1,8,0:0:0:0:
408,45,74672,1,8,0:0:0:0:
442,68,74747,1,8,0:0:0:0:
464,103,74822,1,8,0:0:0:0:
472,144,74897,6,0,B|483:202|483:202|462:269|462:269|479:355,1,203.999993774414,6|0,0:0|0:0,0:0:0:0:
343,122,75347,2,0,L|321:236,1,101.999996887207,8|0,0:0|0:0,0:0:0:0:
162,24,75647,2,0,L|184:138,1,101.999996887207,2|2,0:0|0:0,0:0:0:0:
229,374,75947,1,8,0:0:0:0:
35,207,76097,6,0,L|54:106,1,101.999996887207,2|0,0:0|0:0,0:0:0:0:
230,290,76397,2,0,L|210:189,1,101.999996887207,0|8,0:0|0:0,0:0:0:0:
399,18,76697,1,0,0:0:0:0:
454,266,76847,2,0,L|435:367,1,101.999996887207,2|2,0:0|0:0,0:0:0:0:
485,114,77147,1,8,0:0:0:0:
209,95,77297,6,0,B|144:101|144:101|109:92|109:92|39:99|39:99|81:69,1,203.999993774414,6|0,0:0|0:0,0:0:0:0:
313,137,77747,2,0,L|438:147,1,101.999996887207,8|0,0:0|0:0,0:0:0:0:
267,353,78047,2,0,L|392:343,1,101.999996887207,2|2,0:0|0:0,0:0:0:0:
114,363,78347,1,8,0:0:0:0:
20,125,78497,6,0,L|11:23,1,101.999996887207,2|0,0:0|0:0,0:0:0:0:
200,196,78797,2,0,L|209:94,1,101.999996887207,0|8,0:0|0:0,0:0:0:0:
384,64,79097,1,0,0:0:0:0:
486,272,79247,2,0,L|495:374,1,101.999996887207,2|2,0:0|0:0,0:0:0:0:
367,152,79547,1,8,0:0:0:0:
121,274,79697,6,0,P|62:211|80:80,1,203.999993774414,6|0,0:0|0:0,0:0:0:0:
317,48,80147,2,0,L|441:56,1,101.999996887207,8|0,0:0|0:0,0:0:0:0:
186,159,80447,2,0,L|310:151,1,101.999996887207,2|2,0:0|0:0,0:0:0:0:
490,306,80747,1,8,0:0:0:0:
238,348,80897,6,0,L|114:340,1,101.999996887207,2|0,0:0|0:0,0:0:0:0:
367,230,81197,2,0,L|243:238,1,101.999996887207,0|8,0:0|0:0,0:0:0:0:
35,126,81497,1,0,0:0:0:0:
277,36,81647,1,2,0:0:0:0:
118,235,81797,1,2,0:0:0:0:
360,145,81947,1,8,0:0:0:0:
78,21,82097,6,0,B|28:60|28:60|43:221,1,203.999993774414,6|0,0:0|3:0,0:0:0:0:
267,360,82547,5,8,3:0:0:0:
144,113,82697,1,8,3:0:0:0:
298,340,82847,5,8,3:0:0:0:
243,70,82997,1,8,3:0:0:0:
335,329,83147,5,8,3:0:0:0:
352,54,83297,6,0,L|407:44,1,42.5,4|0,3:0|0:0,0:0:0:0:
275,156,83447,1,8,0:0:0:0:
275,156,83522,1,8,0:0:0:0:
275,156,83597,2,0,L|330:146,1,42.5,4|0,3:0|0:0,0:0:0:0:
200,260,83747,1,8,0:0:0:0:
200,260,83822,1,8,0:0:0:0:
200,260,83897,6,0,L|145:250,1,42.5,4|0,3:0|0:0,0:0:0:0:
121,360,84047,1,8,0:0:0:0:
121,360,84122,1,8,0:0:0:0:
121,360,84197,2,0,L|66:350,1,42.5,4|0,3:0|0:0,0:0:0:0:
4,224,84347,2,0,L|45:232,1,42.5,8|0,0:0|0:0,0:0:0:0:
200,260,84497,6,0,B|239:168|187:98|187:98|155:138,1,203.999993774414,4|0,0:0|0:0,0:0:0:0:
304,285,84947,2,0,L|416:273,1,101.999996887207,8|0,0:0|0:0,0:0:0:0:
494,102,85247,1,2,0:0:0:0:
511,284,85397,1,0,0:0:0:0:
329,152,85547,1,8,0:0:0:0:
214,345,85697,6,0,B|142:353|142:353|91:332|91:332|9:339,1,203.999993774414,2|0,0:0|0:0,0:0:0:0:
136,148,86147,2,0,L|245:136,1,101.999996887207,8|0,0:0|0:0,0:0:0:0:
420,111,86447,1,2,0:0:0:0:
288,238,86597,1,0,0:0:0:0:
325,16,86747,1,8,0:0:0:0:
392,229,86897,6,0,P|378:294|241:334,1,203.999993774414,6|0,0:0|0:0,0:0:0:0:
121,163,87347,1,8,0:0:0:0:
288,238,87497,1,0,0:0:0:0:
88,280,87647,1,2,0:0:0:0:
260,341,87797,1,0,0:0:0:0:
232,118,87947,1,8,0:0:0:0:
358,303,88097,6,0,B|384:338|384:338|481:333|493:198,1,203.999993774414,2|0,0:0|0:0,0:0:0:0:
356,22,88547,1,8,0:0:0:0:
388,186,88697,1,0,0:0:0:0:
184,181,88847,2,0,B|143:173|143:173|64:178,1,101.999996887207,2|0,0:0|0:0,0:0:0:0:
136,353,89147,1,8,0:0:0:0:
302,202,89297,6,0,P|297:149|268:94,1,101.999996887207,6|0,0:0|0:0,0:0:0:0:
93,98,89597,1,0,0:0:0:0:
212,275,89747,2,0,P|253:308|305:319,1,101.999996887207,8|0,0:0|0:0,0:0:0:0:
465,237,90047,1,2,0:0:0:0:
409,364,90197,1,0,0:0:0:0:
386,143,90347,1,8,0:0:0:0:
212,275,90497,6,0,B|139:296|66:261|66:261|100:242|118:201,1,203.999993774414,2|0,0:0|0:0,0:0:0:0:
157,41,90947,1,8,0:0:0:0:
8,157,91097,1,0,0:0:0:0:
196,150,91247,1,2,0:0:0:0:
41,44,91397,1,0,0:0:0:0:
105,224,91547,1,8,0:0:0:0:
284,90,91697,6,0,B|340:86|340:86|405:122|405:122|484:90,1,203.999993774414,6|0,0:0|0:0,0:0:0:0:
302,239,92147,1,8,0:0:0:0:
169,112,92297,1,0,0:0:0:0:
145,314,92447,1,2,0:0:0:0:
236,174,92597,1,0,0:0:0:0:
34,273,92747,1,8,0:0:0:0:
99,58,92897,6,0,P|181:24|248:69,1,152.999995330811,2|0,0:0|0:0,0:0:0:0:
307,123,93197,2,0,B|363:148|428:111|428:111|417:68,1,152.999995330811,2|0,0:0|0:0,0:0:0:0:
491,155,93497,2,0,P|456:181|399:201,1,101.999996887207,2|0,0:0|0:0,0:0:0:0:
195,187,93797,1,8,0:0:0:0:
195,187,93872,1,8,0:0:0:0:
195,187,93947,1,8,0:0:0:0:
44,45,94097,6,0,B|19:89|19:89|29:202,1,152.999995330811,6|8,0:0|0:0,0:0:0:0:
114,299,94547,1,2,0:0:0:0:
199,191,94697,1,0,0:0:0:0:
242,361,94847,2,0,P|280:367|327:353,1,76.4999976654053,8|0,0:0|0:0,0:0:0:0:
412,259,95147,1,0,0:0:0:0:
294,160,95297,6,0,B|288:117|288:117|306:64|306:64|299:11,1,152.999995330811,2|8,0:0|0:0,0:0:0:0:
370,128,95747,1,0,0:0:0:0:
218,55,95897,1,0,0:0:0:0:
248,235,96047,2,0,P|287:248|325:242,1,76.4999976654053,8|0,0:0|0:0,0:0:0:0:
483,153,96347,1,8,0:0:0:0:
369,51,96497,6,0,B|295:40|295:75|210:53,1,152.999995330811,2|8,0:0|0:0,0:0:0:0:
86,12,96947,1,2,0:0:0:0:
2,121,97097,1,0,0:0:0:0:
123,237,97247,2,0,L|119:323,1,76.4999976654053,8|0,0:0|0:0,0:0:0:0:
128,160,97547,1,0,0:0:0:0:
253,247,97697,6,0,P|305:255|378:176,1,152.999995330811,2|8,0:0|0:0,0:0:0:0:
411,58,98147,1,2,0:0:0:0:
484,174,98297,1,8,0:0:0:0:
479,200,98372,1,8,0:0:0:0:
475,226,98447,1,8,0:0:0:0:
291,166,98597,1,8,0:0:0:0:
373,338,98747,1,8,0:0:0:0:
177,270,98897,6,0,B|131:260|131:260|13:274,1,152.999995330811,6|8,0:0|0:0,0:0:0:0:
12,134,99347,2,0,L|103:123,1,76.4999976654053,2|0,0:0|0:0,0:0:0:0:
269,99,99647,1,8,0:0:0:0:
164,188,99797,1,0,0:0:0:0:
202,39,99947,1,2,0:0:0:0:
259,205,100097,6,0,B|266:255|266:255|251:302|251:302|263:372,1,152.999995330811,2|8,0:0|0:0,0:0:0:0:
361,260,100547,2,0,L|350:173,1,76.4999976654053,2|0,0:0|0:0,0:0:0:0:
331,16,100847,1,8,0:0:0:0:
429,112,100997,1,0,0:0:0:0:
276,95,101147,1,8,0:0:0:0:
185,263,101297,6,0,B|131:264|131:264|81:254|81:254|7:255,1,152.999995330811,6|0,0:0|0:0,0:0:0:0:
122,111,101747,1,8,0:0:0:0:
257,210,101897,2,0,P|271:244|270:291,1,76.4999976654053,0|2,0:0|0:0,0:0:0:0:
148,346,102197,1,0,0:0:0:0:
103,183,102347,1,8,0:0:0:0:
272,283,102497,5,2,0:0:0:0:
309,95,102647,1,8,0:0:0:0:
181,180,102797,1,0,0:0:0:0:
357,254,102947,1,8,0:0:0:0:
249,362,103097,1,0,0:0:0:0:
226,98,103247,6,0,P|241:124|244:140,1,25.4999992218018,8|0,0:0|0:0,0:0:0:0:
272,283,103397,1,2,0:0:0:0:
272,283,103697,6,0,B|212:279|212:279|172:290|172:290|98:284,1,152.999995330811,6|0,0:0|0:0,0:0:0:0:
11,158,104147,1,8,0:0:0:0:
152,67,104297,1,0,0:0:0:0:
152,67,104372,1,0,0:0:0:0:
152,67,104447,2,0,L|230:72,1,76.4999976654053,2|0,0:0|0:0,0:0:0:0:
395,88,104747,1,8,0:0:0:0:
344,232,104897,6,0,B|336:267|336:267|342:316,1,76.4999976654053,2|0,0:0|0:0,0:0:0:0:
471,201,105197,2,0,B|479:166|479:166|473:117,1,76.4999976654053,0|8,0:0|0:0,0:0:0:0:
334,29,105497,1,0,0:0:0:0:
400,160,105647,1,2,0:0:0:0:
447,21,105797,1,0,0:0:0:0:
315,126,105947,1,8,0:0:0:0:
149,45,106097,6,0,B|100:28|34:44|34:44|48:64|77:78,1,152.999995330811,2|0,0:0|0:0,0:0:0:0:
221,121,106547,1,8,0:0:0:0:
108,246,106697,1,0,0:0:0:0:
108,246,106772,1,0,0:0:0:0:
108,246,106847,2,0,B|101:286|101:286|108:329,1,76.4999976654053,2|0,0:0|0:0,0:0:0:0:
270,278,107147,1,8,0:0:0:0:
145,164,107297,6,0,P|110:156|62:166,1,76.4999976654053,2|0,0:0|0:0,0:0:0:0:
106,321,107597,1,0,0:0:0:0:
225,201,107747,1,8,0:0:0:0:
152,49,107897,1,0,0:0:0:0:
152,49,107972,1,0,0:0:0:0:
152,49,108047,2,0,L|63:51,1,76.4999976654053,2|0,0:0|0:0,0:0:0:0:
259,49,108347,1,8,0:0:0:0:
411,151,108497,6,0,B|418:207|418:207|405:244|405:244|419:323,1,152.999995330811,6|0,0:0|0:0,0:0:0:0:
488,132,108947,1,8,0:0:0:0:
324,216,109097,1,0,0:0:0:0:
324,216,109172,1,0,0:0:0:0:
324,216,109247,2,0,P|286:224|241:216,1,76.4999976654053,2|0,0:0|0:0,0:0:0:0:
115,116,109547,1,8,0:0:0:0:
17,271,109697,6,0,B|2:219|2:219|15:106,1,152.999995330811,2|0,0:0|0:0,0:0:0:0:
147,17,110147,1,8,0:0:0:0:
261,140,110297,1,0,0:0:0:0:
261,140,110372,1,0,0:0:0:0:
261,140,110447,2,0,P|304:143|350:126,1,76.4999976654053,2|0,0:0|0:0,0:0:0:0:
289,10,110747,1,8,0:0:0:0:
170,178,110897,6,0,B|160:229|160:229|174:276|174:276|162:352,1,152.999995330811,2|0,0:0|0:0,0:0:0:0:
97,155,111347,1,8,0:0:0:0:
254,249,111497,1,0,0:0:0:0:
214,46,111647,1,2,0:0:0:0:
160,229,111797,1,0,0:0:0:0:
85,36,111947,1,8,0:0:0:0:
301,131,112097,6,0,L|408:126,1,76.4999976654053,6|0,0:0|0:0,0:0:0:0:
140,137,112397,1,2,0:0:0:0:
348,23,112547,1,8,0:0:0:0:
216,201,112697,5,2,0:0:0:0:
447,146,112847,1,8,0:0:0:0:
275,286,112997,5,2,0:0:0:0:
512,292,113147,1,8,0:0:0:0:
301,131,113297,6,0,B|241:116|241:116|161:139|161:139|220:164,1,191.250007295609,6|0,0:0|0:0,0:0:0:0:
203,157,114047,6,0,B|134:172|134:172|108:168|75:137,1,127.500004863739
71,260,114497,2,0,P|100:206|74:133,1,127.500004863739
85,145,115247,6,0,P|140:156|215:117,1,127.500004863739
312,48,115697,6,0,B|326:107|326:107|306:172|306:172|325:233,1,191.250007295609
356,342,116297,1,0,0:0:0:0:
430,254,116447,2,0,P|432:223|417:177,1,63.7500024318696
324,231,116747,1,0,0:0:0:0:
458,332,116897,6,0,P|491:310|500:211,1,127.500004863739
462,122,117347,2,0,B|459:93|459:93|463:54,1,63.7500024318696
324,167,117647,2,0,B|327:196|327:196|323:235,1,63.7500024318696,2|2,3:0|0:0,0:0:0:0:
203,364,117947,1,8,0:0:0:0:
48,252,118097,6,0,B|32:198|32:198|43:103,1,136,6|0,0:0|0:0,0:0:0:0:
182,24,118547,1,8,0:0:0:0:
124,191,118847,1,8,0:0:0:0:
268,89,119147,1,8,0:0:0:0:
228,261,119447,1,8,0:0:0:0:
372,159,119747,1,8,0:0:0:0:
198,126,120047,2,0,L|119:115,2,68,8|0|8,0:0|0:0|0:0,0:0:0:0:
372,159,120497,6,0,P|400:104|376:29,1,136,6|0,0:0|0:0,0:0:0:0:
308,92,120947,1,0,0:0:0:0:
319,213,121097,2,0,P|343:230|393:232,1,68
487,295,121397,2,0,L|483:383,1,68
266,363,121697,6,0,L|262:275,1,68,6|0,0:0|0:0,0:0:0:0:
253,145,121997,1,0,0:0:0:0:
147,303,122147,1,8,0:0:0:0:
101,118,122297,1,0,0:3:0:0:
101,118,122372,1,0,0:3:0:0:
101,118,122447,1,8,0:0:0:0:
103,84,122522,1,8,0:3:0:0:
123,57,122597,1,8,0:3:0:0:
152,40,122672,1,8,0:3:0:0:
185,35,122747,1,8,0:3:0:0:
218,42,122822,1,8,0:3:0:0:
251,60,122897,6,0,B|305:65|305:65|352:54|352:54|419:59,1,152.999995330811,6|0,0:0|0:0,0:0:0:0:
491,183,123347,1,2,0:0:0:0:
342,358,123647,1,2,0:0:0:0:
235,154,123947,1,2,0:0:0:0:
86,329,124247,5,2,0:0:0:0:
301,249,124547,1,2,0:0:0:0:
93,150,124847,1,2,0:0:0:0:
308,70,125147,1,2,0:0:0:0:
192,222,125297,6,0,B|184:273|184:273|194:321|194:321|181:383,1,152.999995330811,8|0,0:0|0:0,0:0:0:0:
103,241,125747,1,2,0:0:0:0:
284,381,126047,1,2,0:0:0:0:
254,153,126347,1,2,0:0:0:0:
435,293,126647,5,2,0:0:0:0:
364,74,126947,2,0,B|323:56|323:56|246:62,1,114.749996498108,4|8,0:0|0:3,0:0:0:0:
253,61,127247,1,2,0:0:0:0:
333,276,127547,1,8,3:0:0:0:
428,156,127697,6,0,P|464:102|452:18,1,152.999995330811,6|0,0:0|0:0,0:0:0:0:
259,21,128147,2,0,L|250:129,1,76.4999976654053,2|0,0:0|0:0,0:0:0:0:
239,303,128447,1,8,0:0:0:0:
327,168,128597,1,0,0:0:0:0:
171,209,128747,1,2,0:0:0:0:
370,260,128897,6,0,P|419:215|414:118,1,152.999995330811,2|8,0:0|0:0,0:0:0:0:
319,7,129347,1,2,0:0:0:0:
327,168,129497,1,0,0:0:0:0:
172,55,129647,2,0,L|71:60,1,76.4999976654053,8|0,0:0|0:0,0:0:0:0:
144,245,129947,1,8,0:0:0:0:
291,89,130097,6,0,P|341:82|414:177,1,152.999995330811,6|0,0:0|0:0,0:0:0:0:
441,321,130547,1,8,0:0:0:0:
265,305,130697,2,0,L|165:313,1,76.4999976654053,2|0,0:0|0:0,0:0:0:0:
13,330,130997,1,0,0:0:0:0:
91,155,131147,1,8,0:0:0:0:
265,305,131297,6,0,P|337:299|390:221,1,152.999995330811,6|0,0:0|0:0,0:0:0:0:
352,27,131747,1,8,0:0:0:0:
165,84,131897,6,0,L|169:130,1,42.5
173,239,132047,1,12,3:0:0:0:
174,248,132122,1,8,3:0:0:0:
175,257,132197,1,8,3:0:0:0:
176,266,132272,1,8,3:0:0:0:
177,275,132347,1,8,3:0:0:0:
178,284,132422,1,8,3:0:0:0:
180,294,132497,6,0,P|246:342|367:276,1,203.999993774414,6|0,0:0|0:0,0:0:0:0:
434,125,132947,1,8,0:0:0:0:
470,315,133097,1,0,0:0:0:0:
333,176,133247,2,0,P|321:123|332:73,1,101.999996887207,2|0,0:0|0:0,0:0:0:0:
459,223,133547,1,8,0:0:0:0:
270,344,133697,6,0,B|227:351|227:351|137:343,1,101.999996887207,2|0,0:0|0:0,0:0:0:0:
22,218,133997,1,0,0:0:0:0:
230,135,134147,1,8,0:0:0:0:
94,281,134297,2,0,P|70:333|76:379,1,101.999996887207,0|2,0:0|0:0,0:0:0:0:
227,241,134597,1,2,0:0:0:0:
89,77,134747,1,8,0:0:0:0:
169,346,134897,6,0,P|272:333|386:325,1,203.999993774414,6|0,0:0|0:0,0:0:0:0:
444,130,135347,1,8,0:0:0:0:
308,201,135497,2,0,P|291:157|302:86,1,101.999996887207,0|2,0:0|0:0,0:0:0:0:
461,156,135797,1,0,0:0:0:0:
371,325,135947,1,8,0:0:0:0:
195,234,136097,6,0,L|183:115,1,101.999996887207,2|0,0:0|0:0,0:0:0:0:
70,289,136397,1,2,0:0:0:0:
276,349,136547,2,0,P|331:346|373:323,1,101.999996887207,8|0,0:0|0:0,0:0:0:0:
281,109,136847,2,0,P|225:111|183:134,1,101.999996887207,2|0,0:0|0:0,0:0:0:0:
63,377,137147,1,8,0:0:0:0:
263,228,137297,6,0,B|342:234|342:234|389:213|389:213|503:220,1,203.999993774414,6|0,0:0|0:0,0:0:0:0:
276,349,137747,2,0,L|139:360,1,101.999996887207,8|0,0:0|0:0,0:0:0:0:
237,210,138047,1,2,0:0:0:0:
309,366,138197,1,2,0:0:0:0:
365,137,138347,1,8,0:0:0:0:
140,334,138497,6,0,L|240:326,1,85,6|0,0:0|0:0,0:0:0:0:
101,243,138797,2,0,L|1:235,1,85,2|8,0:0|0:0,0:0:0:0:
318,238,139097,6,0,L|329:374,1,106.25,6|0,0:0|0:0,0:0:0:0:
447,119,139397,2,0,L|458:-17,1,106.25,2|8,0:0|0:0,0:0:0:0:
425,321,139697,6,0,B|325:364|212:320|212:320|238:275,1,255.000009727478,6|0,0:0|0:0,0:0:0:0:
354,20,140147,1,8,0:0:0:0:
91,150,140297,1,8,3:0:0:0:
91,150,140372,1,8,3:0:0:0:
91,150,140447,2,0,P|54:157|3:150,1,50.9999984436036,8|8,0:0|3:0,0:0:0:0:
170,61,140597,2,0,P|207:54|258:61,1,50.9999984436036,8|8,3:0|3:0,0:0:0:0:
323,136,140747,1,8,0:0:0:0:
323,136,140822,1,8,0:0:0:0:
323,136,140897,6,0,L|328:254,1,101.999996887207,6|0,0:0|0:0,0:0:0:0:
330,381,141197,1,0,0:0:0:0:
423,188,141347,1,8,0:0:0:0:
243,305,141497,1,0,0:0:0:0:
456,319,141647,1,8,0:0:0:0:
226,208,141797,1,8,0:0:0:0:
181,219,141872,1,8,0:0:0:0:
136,231,141947,1,8,0:0:0:0:
90,239,142022,1,8,0:0:0:0:
45,248,142097,6,0,B|17:207|17:207|48:99|48:99|84:135,1,203.999993774414,6|0,0:0|0:0,0:0:0:0:
243,305,142547,1,8,0:0:0:0:
354,175,142697,2,0,B|390:170|390:170|459:174,1,101.999996887207,0|2,0:0|0:0,0:0:0:0:
386,343,142997,1,2,0:0:0:0:
251,150,143147,1,8,0:0:0:0:
120,293,143297,6,0,L|11:283,1,101.999996887207,2|0,0:0|0:0,0:0:0:0:
161,168,143597,1,2,0:0:0:0:
223,383,143747,1,8,0:0:0:0:
358,274,143897,2,0,P|366:216|347:164,1,101.999996887207,0|2,0:0|0:0,0:0:0:0:
288,14,144197,1,2,0:0:0:0:
227,230,144347,1,8,0:0:0:0:
398,84,144497,6,0,L|506:91,1,101.999996887207,6|0,0:0|0:0,0:0:0:0:
358,274,144797,1,2,0:0:0:0:
230,89,144947,1,8,0:0:0:0:
122,224,145097,2,0,L|14:231,1,101.999996887207,0|2,0:0|0:0,0:0:0:0:
205,356,145397,1,0,0:0:0:0:
353,175,145547,1,8,0:0:0:0:
163,37,145697,6,0,P|97:31|15:131,1,203.999993774414,2|2,0:0|0:0,0:0:0:0:
217,210,146147,2,0,P|241:162|231:93,1,101.999996887207,8|0,0:0|0:0,0:0:0:0:
75,227,146447,1,2,0:0:0:0:
187,343,146597,1,2,0:0:0:0:
123,138,146747,1,8,0:0:0:0:
0,357,146897,6,0,B|135:381|135:381|168:377|192:334,1,203.999993774414,6|0,0:0|0:0,0:0:0:0:
239,114,147347,1,8,0:0:0:0:
372,268,147497,2,0,L|365:383,1,101.999996887207,0|2,0:0|0:0,0:0:0:0:
211,221,147797,1,2,0:0:0:0:
393,108,147947,1,8,0:0:0:0:
174,142,148097,6,0,B|5:128|5:128|68:203,1,255.000009727478,6|0,0:0|0:0,0:0:0:0:
297,288,148547,1,8,0:0:0:0:
63,296,148697,6,0,B|49:232|49:232|63:177,1,106.25,6|0,0:0|0:0,0:0:0:0:
255,68,148997,2,0,B|269:132|269:132|255:187,1,106.25,2|8,0:0|0:0,0:0:0:0:
437,365,149297,6,0,B|451:302|451:302|439:256|439:256|454:171,1,170,6|0,0:0|0:0,0:0:0:0:
251,48,149747,5,8,0:0:0:0:
297,237,149897,1,2,0:0:0:0:
402,14,150047,5,8,0:0:0:0:
241,152,150197,1,2,0:0:0:0:
485,123,150347,5,8,0:0:0:0:
251,48,150497,2,0,P|166:55|67:65,1,170,6|0,0:0|0:0,0:0:0:0:
297,237,150947,5,8,0:0:0:0:
363,44,151097,1,2,0:0:0:0:
159,167,151247,5,8,0:0:0:0:
361,142,151397,1,2,0:0:0:0:
158,17,151547,1,8,0:0:0:0:
239,333,151697,6,0,P|336:322|444:310,1,203.999993774414,6|0,0:0|0:0,0:0:0:0:
159,167,152147,1,8,0:0:0:0:
212,353,152297,1,0,0:0:0:0:
306,149,152447,1,2,0:0:0:0:
76,260,152597,1,2,0:0:0:0:
170,56,152747,1,8,0:0:0:0:
310,268,152897,6,0,P|397:228|423:120,1,203.999993774414,2|0,0:0|0:0,0:0:0:0:
170,56,153347,1,8,0:0:0:0:
306,149,153497,1,0,0:0:0:0:
92,169,153647,1,2,0:0:0:0:
272,46,153797,1,0,0:0:0:0:
377,242,153947,1,8,0:0:0:0:
168,89,154097,6,0,P|74:59|-6:115,1,203.999993774414,6|0,0:0|0:0,0:0:0:0:
212,249,154547,1,8,0:0:0:0:
334,141,154697,2,0,L|325:36,1,101.999996887207,0|2,0:0|0:0,0:0:0:0:
217,162,154997,1,2,0:0:0:0:
406,238,155147,1,8,0:0:0:0:
229,352,155297,6,0,L|91:358,1,101.999996887207,2|0,0:0|0:0,0:0:0:0:
304,242,155597,2,0,L|442:236,1,101.999996887207,0|8,0:0|0:0,0:0:0:0:
219,130,155897,2,0,L|81:136,1,101.999996887207,0|2,0:0|0:0,0:0:0:0:
183,242,156197,1,0,0:0:0:0:
274,33,156347,1,8,0:0:0:0:
293,265,156497,6,0,B|448:259|448:259|399:215,1,203.999993774414,6|0,0:0|0:0,0:0:0:0:
206,107,156947,1,8,0:0:0:0:
278,297,157097,1,0,0:0:0:0:
389,90,157247,1,2,0:0:0:0:
240,197,157397,1,2,0:0:0:0:
481,156,157547,1,8,0:0:0:0:
225,85,157697,6,0,L|105:81,1,101.999996887207,2|0,0:0|0:0,0:0:0:0:
334,5,157997,1,2,0:0:0:0:
221,222,158147,1,8,0:0:0:0:
26,131,158297,2,0,P|14:74|40:12,1,101.999996887207,0|2,0:0|0:0,0:0:0:0:
225,85,158597,1,0,0:0:0:0:
24,161,158747,1,8,0:0:0:0:
250,68,158897,6,0,B|243:131|243:131|258:189|258:189|246:283,1,203.999993774414,6|0,0:0|0:0,0:0:0:0:
11,260,159347,2,0,P|57:238|115:243,1,101.999996887207,8|0,0:0|0:0,0:0:0:0:
243,290,159647,1,2,0:0:0:0:
80,346,159797,1,2,0:0:0:0:
230,166,159947,1,8,0:0:0:0:
435,279,160097,6,0,B|459:229|459:229|442:73,1,203.999993774414,6|0,0:0|0:0,0:0:0:0:
227,17,160547,1,8,0:0:0:0:
56,163,160697,1,0,3:0:0:0:
56,163,160772,1,0,3:0:0:0:
56,163,160847,2,0,P|51:198|55:228,1,50.9999984436036,8|8,0:0|3:0,0:0:0:0:
150,338,160997,1,8,3:0:0:0:
185,358,161072,1,8,3:0:0:0:
225,363,161147,1,8,3:0:0:0:
265,359,161222,1,8,3:0:0:0:
302,343,161297,6,0,B|310:279|310:279|298:220|298:220|311:128,1,203.999993774414,6|0,0:0|0:0,0:0:0:0:
389,351,161747,1,8,0:0:0:0:
212,212,161897,1,0,0:0:0:0:
409,105,162047,1,2,0:0:0:0:
310,279,162197,1,0,0:0:0:0:
246,64,162347,1,8,0:0:0:0:
99,272,162497,6,0,P|41:233|26:107,1,203.999993774414,2|0,0:0|0:0,0:0:0:0:
246,64,162947,1,8,0:0:0:0:
325,274,163097,1,0,0:0:0:0:
132,157,163247,1,2,0:0:0:0:
216,364,163397,1,0,0:0:0:0:
289,152,163547,1,8,0:0:0:0:
469,332,163697,6,0,B|488:282|488:282|473:125,1,203.999993774414,6|0,0:0|0:0,0:0:0:0:
287,3,164147,1,8,0:0:0:0:
372,210,164297,1,0,0:0:0:0:
179,94,164447,1,2,0:0:0:0:
264,301,164597,1,0,0:0:0:0:
355,95,164747,1,8,0:0:0:0:
126,208,164897,6,0,P|65:148|79:19,1,203.999993774414,2|0,0:0|0:0,0:0:0:0:
251,167,165347,1,8,0:0:0:0:
59,284,165497,1,0,0:0:0:0:
179,94,165647,1,2,0:0:0:0:
270,298,165797,1,0,0:0:0:0:
390,108,165947,1,8,0:0:0:0:
151,11,166097,6,0,B|130:68|130:68|144:140|144:140|122:219,1,203.999993774414,6|0,0:0|0:0,0:0:0:0:
238,13,166547,1,8,0:0:0:0:
51,137,166697,1,0,0:0:0:0:
275,127,166847,2,0,P|316:104|354:38,1,101.999996887207,2|0,0:0|0:0,0:0:0:0:
205,235,167147,1,8,0:0:0:0:
458,215,167297,6,0,P|435:129|333:56,1,203.999993774414,2|0,0:0|0:0,0:0:0:0:
128,106,167747,2,0,B|121:145|121:145|127:240,1,101.999996887207,8|0,0:0|0:0,0:0:0:0:
287,364,168047,2,0,L|282:298,1,50.9999984436036,2|0,0:0|0:0,0:0:0:0:
369,241,168197,2,0,L|374:307,1,50.9999984436036
281,226,168347,1,8,0:0:0:0:
504,348,168497,6,0,L|483:116,1,203.999993774414,6|0,0:0|0:0,0:0:0:0:
270,80,168947,1,8,0:0:0:0:
244,111,169022,1,0,0:0:0:0:
209,132,169097,1,0,0:0:0:0:
169,141,169172,1,0,0:0:0:0:
128,136,169247,2,0,L|121:71,1,50.9999984436036,2|0,0:0|0:0,0:0:0:0:
39,177,169397,2,0,L|46:242,1,50.9999984436036
124,319,169547,1,8,0:0:0:0:
158,341,169622,1,0,0:0:0:0:
197,349,169697,1,0,0:0:0:0:
237,349,169772,1,0,0:0:0:0:
275,335,169847,6,0,L|345:328,1,50.9999984436036,2|0,0:0|0:0,0:0:0:0:
383,220,169997,2,0,L|313:227,1,50.9999984436036
413,316,170147,1,8,0:0:0:0:
340,82,170297,2,0,L|238:92,1,101.999996887207,2|0,0:0|0:0,0:0:0:0:
24,211,170597,2,0,L|125:221,1,101.999996887207,6|0,0:0|0:0,0:0:0:0:
413,316,170897,6,0,B|439:273|439:273|430:169,1,136,6|0,0:0|0:0,0:0:0:0:
419,86,171347,1,2,0:0:0:0:
249,199,171647,1,8,0:0:0:0:
123,38,171947,1,0,0:0:0:0:
22,130,172097,6,0,B|5:218|5:218|31:285,1,136,2|0,0:0|0:0,0:0:0:0:
70,352,172547,1,2,0:0:0:0:
263,286,172847,2,0,P|311:267|381:278,1,102,8|8,0:0|0:0,0:0:0:0:
360,270,173147,1,0,0:0:0:0:
458,175,173297,6,0,B|465:129|465:129|450:87|450:87|460:31,1,136,2|0,0:0|0:0,0:0:0:0:
357,61,173747,2,0,L|343:141,1,68,2|0,0:0|0:0,0:0:0:0:
241,216,174047,2,0,P|195:223|117:180,1,136,8|0,0:0|0:0,0:0:0:0:
58,99,174497,6,0,P|20:156|33:240,1,136,2|0,0:0|0:0,0:0:0:0:
111,272,174947,1,2,0:0:0:0:
209,299,175097,2,0,L|214:378,1,68,0|8,0:0|0:0,0:0:0:0:
314,350,175397,2,0,L|309:271,1,68
342,150,175697,6,0,P|376:115|460:105,1,136,2|0,0:0|0:0,0:0:0:0:
431,203,176147,1,2,0:0:0:0:
357,12,176447,1,8,0:0:0:0:
234,174,176747,1,0,0:0:0:0:
136,79,176897,6,0,P|102:44|18:34,1,136,2|0,0:0|0:0,0:0:0:0:
47,132,177347,1,2,0:0:0:0:
246,90,177647,2,0,L|249:10,1,68,8|0,0:0|0:0,0:0:0:0:
340,65,177947,1,0,0:0:0:0:
291,192,178097,6,0,P|226:201|160:160,1,136,2|0,0:0|0:0,0:0:0:0:
73,210,178547,2,0,L|77:294,1,68,2|0,0:0|0:0,0:0:0:0:
167,168,178847,2,0,L|163:84,1,68,8|0,0:0|0:0,0:0:0:0:
64,125,179147,1,0,0:0:0:0:
164,251,179297,6,0,P|219:232|243:138,1,136,2|0,0:0|0:0,0:0:0:0:
235,63,179747,1,2,0:0:0:0:
399,184,180047,1,8,0:0:0:0:
471,112,180197,1,0,0:0:0:0:
372,86,180347,1,0,0:0:0:0:
314,219,180497,6,0,B|303:266|303:266|313:313|313:313|298:382,1,152.999995330811,6|0,0:0|0:0,0:0:0:0:
186,367,180947,2,0,L|190:281,1,76.4999976654053,2|0,0:0|0:0,0:0:0:0:
94,226,181247,2,0,L|97:302,1,76.4999976654053,2|0,0:0|0:0,0:0:0:0:
2,238,181547,1,2,0:0:0:0:
142,107,181697,6,0,P|196:150|222:229,1,152.999995330811,8|0,0:0|0:0,0:0:0:0:
296,314,182147,2,0,P|312:273|346:246,1,76.4999976654053,2|0,0:0|0:0,0:0:0:0:
439,199,182447,2,0,B|448:155|448:155|445:100,1,76.4999976654053,2|0,0:0|0:0,0:0:0:0:
436,8,182747,1,2,0:0:0:0:
274,110,182897,6,0,P|207:142|131:84,1,152.999995330811,8|0,0:0|0:0,0:0:0:0:
53,35,183347,2,0,L|40:117,1,76.4999976654053,2|0,0:0|0:0,0:0:0:0:
120,192,183647,2,0,L|133:274,1,76.4999976654053,2|8,0:0|0:0,0:0:0:0:
9,241,183947,1,2,0:0:0:0:
142,107,184097,6,0,P|193:142|194:237,1,152.999995330811,8|0,0:0|0:0,0:0:0:0:
302,322,184547,2,0,P|336:326|399:315,1,76.4999976654053,2|0,0:0|0:0,0:0:0:0:
459,191,184847,2,0,B|453:88|453:88|427:138,1,152.999995330811,8|0,0:0|0:0,0:0:0:0:
302,322,185297,6,0,P|246:327|170:266,1,144.500002756119,6|0,0:0|0:0,0:0:0:0:
124,174,185747,2,0,L|39:182,1,72.2500013780594,2|0,0:0|0:0,0:0:0:0:
195,83,186047,2,0,L|280:75,1,72.2500013780594,8|0,0:0|0:0,0:0:0:0:
381,58,186347,1,0,0:0:0:0:
433,200,186497,6,0,B|443:249|443:249|440:359,1,144.500002756119,2|8,0:0|0:0,0:0:0:0:
328,371,186947,2,0,L|330:281,1,72.2500013780594,2|0,0:0|0:0,0:0:0:0:
268,159,187247,1,8,0:0:0:0:
237,307,187397,1,0,0:0:0:0:
348,204,187547,1,8,0:0:0:0:
175,223,187697,6,0,B|124:249|62:213|62:213|93:177,1,144.500002756119,6|0,0:0|0:0,0:0:0:0:
268,159,188147,2,0,P|285:195|287:235,1,72.2500013780594,8|0,0:0|0:0,0:0:0:0:
257,375,188447,1,2,0:0:0:0:
398,319,188597,1,0,0:0:0:0:
211,295,188747,1,8,0:0:0:0:
376,206,188897,6,0,B|381:172|381:172|371:118,1,72.2500013780594,6|0,0:0|0:0,0:0:0:0:
237,40,189197,1,8,0:0:0:0:
200,37,189272,1,8,0:0:0:0:
165,45,189347,1,8,0:0:0:0:
135,65,189422,1,8,0:0:0:0:
119,97,189497,1,6,0:0:0:0:
135,310,189797,6,0,P|173:324|163:270,1,95.6250036478044
241,252,190097,6,0,P|219:289|176:271,1,85
132,220,190547,5,2,0:0:0:0:
402,105,190697,2,0,L|394:11,1,93.5000028533936,4|0,3:0|0:0,0:0:0:0:
114,51,190997,2,0,L|122:145,1,93.5000028533936,4|0,3:0|0:0,0:0:0:0:
309,354,191297,6,0,P|356:349|398:312,1,93.5000028533936,4|0,3:0|0:0,0:0:0:0:
191,79,191597,2,0,B|128:61|80:90|80:90|107:113,1,140.25000428009,4|0,3:0|0:0,0:0:0:0:
164,206,191897,6,0,L|344:208,1,140.25000428009,4|0,3:0|0:0,0:0:0:0:
192,298,192197,2,0,L|12:296,1,140.25000428009,4|0,3:0|0:0,0:0:0:0:
274,342,192497,6,0,P|274:254|145:214,1,220.999989883423,6|0,0:0|0:0,0:0:0:0:
151,375,192947,1,8,0:0:0:0:
389,217,193097,2,0,L|373:92,1,110.499994941712,0|2,0:0|0:0,0:0:0:0:
192,298,193397,1,0,0:0:0:0:
289,75,193547,1,8,0:0:0:0:
464,288,193697,6,0,B|485:233|485:233|463:62,1,220.999989883423,2|0,0:0|0:0,0:0:0:0:
223,30,194147,2,0,L|239:157,1,110.499994941712,8|0,0:0|0:0,0:0:0:0:
274,342,194447,1,2,0:0:0:0:
347,133,194597,1,0,0:0:0:0:
129,242,194747,1,8,0:0:0:0:
404,227,194897,6,0,P|452:160|374:26,1,220.999989883423,6|0,0:0|0:0,0:0:0:0:
271,245,195347,1,8,0:0:0:0:
223,30,195497,1,0,0:0:0:0:
347,133,195647,1,2,0:0:0:0:
140,211,195797,1,0,0:0:0:0:
311,352,195947,1,8,0:0:0:0:
185,130,196097,6,0,P|115:122|50:226,1,187.000005706787,6|0,0:0|0:0,0:0:0:0:
207,308,196547,1,8,0:0:0:0:
243,72,196697,6,0,B|210:44|170:31|118:29|67:53|67:53|75:28|102:4,1,237.999992736817,6|0,0:0|0:0,0:0:0:0:
274,162,197147,1,8,0:0:0:0:
67,53,197297,6,0,B|55:89|51:118|51:118|64:146|93:166|93:166|89:219|67:261|67:261|65:234|37:184,1,289.000005512238,6|0,0:0|0:0,0:0:0:0:
243,72,197747,1,8,0:0:0:0:
320,320,197897,1,0,3:0:0:0:
320,320,197972,1,0,3:0:0:0:
320,320,198047,2,0,L|407:317,1,55.2499974708558,8|0,0:0|3:0,0:0:0:0:
464,253,198197,1,0,3:0:0:0:
492,212,198272,1,0,3:0:0:0:
495,162,198347,1,0,3:0:0:0:
482,113,198422,1,0,3:0:0:0:
455,70,198497,6,0,B|421:61|421:61|316:69,1,110.499994941712,6|0,0:0|0:0,0:0:0:0:
106,102,198797,1,2,0:0:0:0:
363,176,198947,1,8,0:0:0:0:
118,244,199097,1,2,0:0:0:0:
375,318,199247,1,8,0:0:0:0:
257,104,199397,1,8,0:0:0:0:
210,74,199472,1,8,0:0:0:0:
154,77,199547,1,8,0:0:0:0:
106,102,199622,1,8,0:0:0:0:
74,147,199697,6,0,B|62:224|62:224|81:270|81:270|65:367,1,220.999989883423,6|0,0:0|0:0,0:0:0:0:
216,200,200147,1,8,0:0:0:0:
323,352,200297,2,0,L|478:341,1,110.499994941712,0|2,0:0|0:0,0:0:0:0:
339,167,200597,1,2,0:0:0:0:
190,359,200747,1,8,0:0:0:0:
128,146,200897,6,0,L|10:157,1,110.499994941712,2|0,0:0|0:0,0:0:0:0:
240,283,201197,1,2,0:0:0:0:
322,66,201347,2,0,L|204:55,1,110.499994941712,8|0,0:0|0:0,0:0:0:0:
341,250,201647,1,2,0:0:0:0:
444,80,201797,1,2,0:0:0:0:
233,147,201947,1,8,0:0:0:0:
317,374,202097,6,0,P|415:351|466:238,1,220.999989883423,6|0,0:0|0:0,0:0:0:0:
269,61,202547,1,8,0:0:0:0:
231,260,202697,2,0,L|355:249,1,110.499994941712,0|2,0:0|0:0,0:0:0:0:
142,126,202997,1,2,0:0:0:0:
205,372,203147,1,8,0:0:0:0:
433,323,203297,6,0,B|442:264|442:264|414:180|414:180|428:90,1,220.999989883423,2|0,0:0|0:0,0:0:0:0:
197,23,203747,1,8,0:0:0:0:
324,203,203897,1,0,0:0:0:0:
442,16,204047,1,2,0:0:0:0:
259,114,204197,1,2,0:0:0:0:
506,216,204347,1,8,0:0:0:0:
247,312,204497,6,0,B|174:321|174:321|108:353|108:353|26:320,1,220.999989883423,6|0,0:0|0:0,0:0:0:0:
17,83,204947,1,8,0:0:0:0:
259,114,205097,2,0,L|405:96,1,110.499994941712,0|2,0:0|0:0,0:0:0:0:
329,285,205397,1,0,0:0:0:0:
474,90,205547,1,8,0:0:0:0:
181,116,205697,6,0,B|171:174|171:174|191:240|191:240|174:321|174:321|135:239,1,289.000005512238,6|0,0:0|0:0,0:0:0:0:
303,11,206147,1,8,0:0:0:0:
257,244,206297,6,0,P|162:261|36:153,1,237.999992736817,6|0,0:0|0:0,0:0:0:0:
233,31,206747,1,8,0:0:0:0:
372,206,206897,6,0,P|373:288|285:363,1,187.000005706787,6|0,0:0|0:0,0:0:0:0:
189,91,207347,5,8,0:0:0:0:
257,244,207497,1,0,0:0:0:0:
360,88,207647,1,8,0:0:0:0:
406,89,207722,1,8,0:0:0:0:
447,110,207797,1,8,0:0:0:0:
474,148,207872,1,8,0:0:0:0:
482,194,207947,2,0,L|474:282,1,46.7500014266968,2|0,0:0|0:0,0:0:0:0:
373,334,208097,2,0,L|365:246,1,46.7500014266968,8|0,0:0|0:0,0:0:0:0:
261,197,208247,6,0,L|253:285,1,46.7500014266968,2|0,0:0|0:0,0:0:0:0:
164,349,208397,1,8,0:0:0:0:
117,351,208472,1,8,0:0:0:0:
72,335,208547,1,8,0:0:0:0:
36,304,208622,1,8,0:0:0:0:
19,260,208697,1,8,0:0:0:0:
21,213,208772,1,8,0:0:0:0:
37,184,208847,5,8,3:0:0:0:
64,165,208922,1,8,3:0:0:0:
96,161,208997,1,8,3:0:0:0:
126,172,209072,1,8,3:0:0:0:
142,200,209147,1,8,3:0:0:0:
139,232,209222,1,8,3:0:0:0:
125,268,209297,6,0,B|94:211|90:96|90:96|145:42,1,220.999989883423,6|0,0:0|0:0,0:0:0:0:
398,41,209747,2,0,L|508:42,1,110.499994941712,8|0,0:0|0:0,0:0:0:0:
315,244,210047,2,0,L|425:242,1,110.499994941712,2|2,0:0|0:0,0:0:0:0:
172,128,210347,1,8,0:0:0:0:
342,343,210497,6,0,L|482:341,1,110.499994941712,2|0,0:0|0:0,0:0:0:0:
269,132,210797,2,0,L|409:134,1,110.499994941712,0|8,0:0|0:0,0:0:0:0:
199,345,211097,1,0,0:0:0:0:
63,104,211247,1,2,0:0:0:0:
302,241,211397,1,2,0:0:0:0:
26,219,211547,1,8,0:0:0:0:
274,34,211697,6,0,B|337:17|337:17|440:48|440:48|377:68,1,220.999989883423,6|0,0:0|0:0,0:0:0:0:
130,151,212147,2,0,L|111:25,1,110.499994941712,8|0,0:0|0:0,0:0:0:0:
302,241,212447,2,0,L|321:115,1,110.499994941712,2|2,0:0|0:0,0:0:0:0:
146,350,212747,1,8,0:0:0:0:
421,327,212897,6,0,L|440:201,1,110.499994941712,2|0,0:0|0:0,0:0:0:0:
207,61,213197,2,0,L|226:187,1,110.499994941712,0|8,0:0|0:0,0:0:0:0:
456,18,213497,1,0,0:0:0:0:
302,241,213647,1,2,0:0:0:0:
114,42,213797,1,2,0:0:0:0:
375,130,213947,1,8,0:0:0:0:
146,350,214097,6,0,B|109:310|109:310|146:129,1,220.999989883423,6|0,0:0|0:0,0:0:0:0:
391,23,214547,2,0,L|501:19,1,110.499994941712,8|0,0:0|0:0,0:0:0:0:
357,254,214847,2,0,L|246:250,1,110.499994941712,2|2,0:0|0:0,0:0:0:0:
508,156,215147,1,8,0:0:0:0:
326,363,215297,6,0,L|215:359,1,110.499994941712,2|0,0:0|0:0,0:0:0:0:
31,150,215597,2,0,L|141:146,1,110.499994941712,0|8,0:0|0:0,0:0:0:0:
20,355,215897,1,0,0:0:0:0:
252,205,216047,1,2,0:0:0:0:
20,54,216197,1,2,0:0:0:0:
161,297,216347,1,8,0:0:0:0:
344,62,216497,6,0,B|421:6|509:62|509:62|465:113,1,220.999989883423,6|0,0:0|0:0,0:0:0:0:
272,327,216947,5,8,3:0:0:0:
176,32,217097,1,8,3:0:0:0:
468,114,217247,5,8,3:0:0:0:
159,236,217397,1,8,3:0:0:0:
307,8,217547,1,8,3:0:0:0:
473,203,217697,6,0,L|470:253,1,50.9999984436036,4|0,3:0|0:0,0:0:0:0:
351,146,217847,1,8,0:0:0:0:
351,146,217922,1,8,0:0:0:0:
351,146,217997,2,0,L|348:203,1,50.9999984436036,4|0,3:0|0:0,0:0:0:0:
208,275,218147,1,8,0:0:0:0:
208,275,218222,1,8,0:0:0:0:
208,275,218297,6,0,L|205:218,1,50.9999984436036,4|0,3:0|0:0,0:0:0:0:
90,335,218447,1,8,0:0:0:0:
90,335,218522,1,8,0:0:0:0:
90,335,218597,2,0,L|87:278,1,50.9999984436036,4|0,3:0|0:0,0:0:0:0:
9,143,218747,2,0,L|6:193,1,50.9999984436036,8|0,0:0|0:0,0:0:0:0:
214,364,218897,6,0,L|200:133,1,220.999989883423,6|0,0:0|0:0,0:0:0:0:
411,267,219347,2,0,L|403:385,1,110.499994941712,8|0,0:0|0:0,0:0:0:0:
316,150,219647,2,0,L|308:31,1,110.499994941712,2|0,0:0|0:0,0:0:0:0:
504,183,219947,1,8,0:0:0:0:
292,303,220097,6,0,B|233:318|233:318|59:309,1,220.999989883423,2|0,0:0|0:0,0:0:0:0:
205,91,220547,1,8,0:0:0:0:
297,202,220697,1,0,3:0:0:0:
297,202,220772,1,0,3:0:0:0:
297,202,220847,1,2,0:0:0:0:
131,216,220997,1,0,0:0:0:0:
332,61,221147,1,8,0:0:0:0:
292,303,221297,6,0,B|449:329|449:329|496:285,1,220.999989883423,6|0,0:0|0:0,0:0:0:0:
297,202,221747,1,8,0:0:0:0:
193,371,221897,1,0,3:0:0:0:
193,371,221972,1,0,3:0:0:0:
193,371,222047,2,0,L|78:379,1,110.499994941712,2|0,0:0|0:0,0:0:0:0:
204,166,222347,1,8,0:0:0:0:
379,317,222497,6,0,P|408:258|370:110,1,220.999989883423,2|2,0:0|0:0,0:0:0:0:
144,25,222947,1,8,0:0:0:0:
263,217,223097,1,0,3:0:0:0:
263,217,223172,1,0,3:0:0:0:
263,217,223247,1,2,0:0:0:0:
351,92,223397,1,0,0:0:0:0:
106,165,223547,1,8,0:0:0:0:
368,239,223697,6,0,B|294:225|294:225|228:252|228:252|146:238,1,220.999989883423,6|0,0:0|0:0,0:0:0:0:
18,96,224147,2,0,P|42:53|106:20,1,110.499994941712,8|0,0:0|0:0,0:0:0:0:
338,24,224447,1,2,0:0:0:0:
116,123,224597,1,0,0:0:0:0:
361,125,224747,1,8,0:0:0:0:
173,312,224897,6,0,B|81:349|2:295|2:295|66:237,1,220.999989883423,2|0,0:0|0:0,0:0:0:0:
275,235,225347,2,0,P|300:294|287:369,1,110.499994941712,8|0,0:0|0:0,0:0:0:0:
86,215,225647,1,2,0:0:0:0:
294,89,225797,1,0,0:0:0:0:
173,312,225947,1,8,0:0:0:0:
466,257,226097,6,0,B|485:200|485:200|469:33,1,220.999989883423,6|0,0:0|0:0,0:0:0:0:
228,13,226547,1,8,0:0:0:0:
396,188,226697,1,0,0:0:0:0:
165,110,226847,1,8,0:0:0:0:
121,132,226922,1,8,0:0:0:0:
89,170,226997,1,8,0:0:0:0:
75,218,227072,1,8,0:0:0:0:
81,267,227147,1,8,0:0:0:0:
106,310,227222,1,8,0:0:0:0:
145,339,227297,6,0,B|281:322|281:322|228:289,1,191.250007295609,6|0,0:0|0:0,0:0:0:0:
157,347,227597,6,0,B|293:330|293:330|240:297,1,191.250007295609,4|0,0:3|0:0,0:0:0:0:
168,354,227897,6,0,B|304:337|304:337|251:304,1,191.250007295609,4|0,0:3|0:0,0:0:0:0:
177,361,228197,6,0,B|313:344|313:344,1,127.500004863739,4|0,0:3|0:0,0:0:0:0:
