osu file format v14

[General]
AudioFilename: audio.mp3
AudioLeadIn: 0
PreviewTime: 50446
Countdown: 0
SampleSet: Soft
StackLeniency: 0.7
Mode: 0
LetterboxInBreaks: 0
WidescreenStoryboard: 1

[Editor]
DistanceSpacing: 1
BeatDivisor: 4
GridSize: 8
TimelineZoom: 1.699999

[Metadata]
Title:GATE ~Sore wa Akatsuki no You ni~ (TV Size)
TitleUnicode:GATE~それは暁のように~ (TV Size)
Artist:KISIDA KYODAN & THE AKEBOSI ROCKETS
ArtistUnicode:岸田教団&THE明星ロケッツ
Creator:SpokenAway
Version:reiSevia's Normal
Source:GATE 自衛隊 彼の地にて、斯く戦えり
Tags:japanese anime opening op rock j-rock jrock and kishida kyoudan akeboshi reisevia rei ゲート Gate: Thus the Japanese Self-Defense Force Fought There JSDF Jieitai rokettu 1st season one roda totsuki
BeatmapID:3188954
BeatmapSetID:1561442

[Difficulty]
HPDrainRate:3
CircleSize:3.3
OverallDifficulty:4
ApproachRate:5
SliderMultiplier:1
SliderTickRate:1

[Events]
//Background and Video events
0,0,"bg.png",0,0
//Break Periods
2,10236,11061
//Storyboard Layer 0 (Background)
//Storyboard Layer 1 (Fail)
//Storyboard Layer 2 (Pass)
//Storyboard Layer 3 (Foreground)
//Storyboard Layer 4 (Overlay)
//Storyboard Sound Samples

[TimingPoints]
571,300,4,2,1,50,1,0
1171,-100,4,2,1,55,0,0
1621,-100,4,2,1,70,0,0
9271,-100,4,2,1,65,0,0
9571,-100,4,2,1,70,0,0
10021,-100,4,2,1,80,0,0
11671,-100,4,2,1,50,0,0
11971,-100,4,2,1,60,0,0
12421,-100,4,2,1,70,0,0
22021,-111.111111111111,4,2,1,55,0,0
30721,-111.111111111111,4,2,1,65,0,0
30946,-111.111111111111,4,2,1,5,0,0
31021,-111.111111111111,4,2,1,65,0,0
31246,-111.111111111111,4,2,1,5,0,0
31321,-111.111111111111,4,2,1,65,0,0
31546,-111.111111111111,4,2,1,5,0,0
31621,-111.111111111111,4,2,1,60,0,0
38821,-111.111111111111,4,2,1,65,0,0
41221,-111.111111111111,4,2,1,50,0,0
45421,-111.111111111111,4,2,1,65,0,0
50221,-111.111111111111,4,2,1,80,0,0
50521,-111.111111111111,4,2,1,50,0,0
50746,-111.111111111111,4,2,1,5,0,0
50821,-90.9090909090908,4,2,1,80,0,0
52246,-90.9090909090908,4,2,1,5,0,0
52321,-90.9090909090908,4,2,1,80,0,0
61846,-90.9090909090908,4,2,1,5,0,0
61921,-90.9090909090908,4,2,1,80,0,0
70021,-90.9090909090908,4,2,1,75,0,0
71446,-90.9090909090908,4,2,1,5,0,0
71521,-90.9090909090908,4,2,1,75,0,0
73846,-90.9090909090908,4,2,1,5,0,0
73921,-90.9090909090908,4,2,1,75,0,0
78571,-90.9090909090908,4,2,1,60,0,0
79621,-100,4,2,1,70,0,0
88246,-100,4,2,1,5,0,0
88321,-100,4,2,1,70,0,0
88546,-100,4,2,1,5,0,0
88621,-100,4,2,1,70,0,0
88846,-100,4,2,1,5,0,0
88921,-100,4,2,1,70,0,0

[Colours]
Combo1 : 122,117,144
Combo2 : 191,130,141
Combo3 : 159,28,52
Combo4 : 128,0,128

[HitObjects]
101,68,1621,5,6,3:2:0:0:
47,315,2371,1,0,3:2:0:0:
47,315,2521,2,0,L|101:302,1,50,12|0,0:0|0:0,0:0:0:0:
124,262,2821,2,0,P|163:287|230:280,1,100,6|0,3:2|3:0,0:0:0:0:
251,251,3271,1,8,0:0:0:0:
334,305,3571,2,0,L|337:354,2,50,8|8|8,3:0|0:0|0:0,0:0:0:0:
366,266,4021,5,6,3:2:0:0:
439,198,4321,2,0,L|449:138,1,50,0|8,3:2|0:0,0:0:0:0:
435,105,4621,1,0,3:2:0:0:
435,105,4771,2,0,L|490:91,2,50,8|8|4,0:0|3:0|3:0,0:0:0:0:
393,77,5221,1,6,3:2:0:0:
305,28,5521,2,0,L|252:26,1,50,0|8,3:2|0:0,0:0:0:0:
208,8,5821,1,4,3:2:0:0:
128,68,6121,1,8,0:0:0:0:
205,130,6421,6,0,L|191:246,1,100,6|0,3:2|3:2,0:0:0:0:
149,254,6871,2,0,L|158:310,1,50,8|0,0:0|3:2,0:0:0:0:
123,341,7171,2,0,L|63:347,2,50,8|0|8,3:0|3:2|0:0,0:0:0:0:
156,378,7621,1,6,3:2:0:0:
298,331,8071,2,0,L|281:218,1,100,8|8,0:0|0:0,0:0:0:0:
330,143,8671,1,8,0:0:0:0:
330,143,8821,1,6,3:2:0:0:
212,49,9271,6,0,L|149:69,1,50,8|8,3:2|3:2,0:0:0:0:
119,42,9571,2,0,L|88:100,1,50,8|8,0:0|0:0,0:0:0:0:
55,113,9871,1,8,0:0:0:0:
55,113,10021,1,10,0:0:0:0:
446,70,12421,6,0,P|401:52|344:79,1,100,6|2,3:2|3:2,0:0:0:0:
325,109,12871,1,10,0:0:0:0:
254,38,13171,2,0,L|196:25,1,50,2|2,3:2|3:2,0:0:0:0:
106,10,13621,2,0,B|129:54|129:54|103:103,1,100,2|2,3:2|3:2,0:0:0:0:
79,141,14071,1,10,0:0:0:0:
79,141,14221,2,0,L|18:128,2,50,0|2|2,0:0|3:2|3:2,0:0:0:0:
130,227,14821,6,0,P|153:263|141:329,1,100,6|2,3:2|3:2,0:0:0:0:
170,363,15271,1,10,0:0:0:0:
269,353,15571,2,0,L|327:345,1,50,2|2,3:2|3:2,0:0:0:0:
417,362,16021,2,0,L|395:253,1,100,2|2,3:2|3:2,0:0:0:0:
413,164,16621,2,0,P|367:181|318:170,1,100,2|2,0:0|3:2,0:0:0:0:
280,144,17071,1,8,0:0:0:0:
280,144,17221,6,0,L|291:39,1,100,6|2,3:2|3:2,0:0:0:0:
268,2,17671,1,10,0:0:0:0:
184,57,17971,2,0,L|122:50,1,50,2|2,3:2|3:2,0:0:0:0:
36,32,18421,2,0,B|57:85|57:85|35:140,1,100,2|2,3:2|3:2,0:0:0:0:
78,158,18871,1,10,0:0:0:0:
78,158,19021,2,0,L|133:149,2,50,2|2|2,0:0|3:2|3:2,0:0:0:0:
9,230,19621,6,0,L|23:339,1,100,6|2,3:2|3:2,0:0:0:0:
58,363,20071,1,10,0:0:0:0:
141,307,20371,2,0,L|197:318,1,50,2|2,3:2|3:2,0:0:0:0:
271,258,20821,2,0,L|286:148,2,100,2|2|2,3:2|3:2|3:2,0:0:0:0:
319,345,21721,1,10,0:0:0:0:
402,311,22021,6,0,P|393:256|380:166,1,134.999995880127,6|8,3:2|0:0,0:0:0:0:
255,129,22921,1,2,3:2:0:0:
332,82,23221,2,0,P|319:37|349:-16,1,89.9999972534181,2|2,3:2|3:2,0:0:0:0:
424,11,23821,2,0,P|437:56|407:109,1,89.9999972534181,2|2,0:0|3:2,0:0:0:0:
381,177,24421,6,0,P|390:243|401:310,1,134.999995880127,2|8,3:2|0:0,0:0:0:0:
284,379,25321,1,2,3:2:0:0:
267,290,25621,1,2,3:2:0:0:
185,327,25921,2,0,P|134:330|84:262,1,134.999995880127,2|0,3:2|3:2,0:0:0:0:
94,225,26521,1,2,3:2:0:0:
59,141,26821,6,0,P|121:125|188:172,1,134.999995880127,6|8,3:2|0:0,0:0:0:0:
290,81,27721,1,2,0:0:0:0:
340,155,28021,2,0,P|402:170|469:123,1,134.999995880127,2|8,3:2|0:0,0:0:0:0:
507,216,28771,1,0,3:2:0:0:
507,216,28921,2,0,L|496:275,1,44.999998626709,2|8,3:2|0:0,0:0:0:0:
465,293,29221,6,0,P|424:278|349:334,1,134.999995880127,2|10,3:2|0:0,0:0:0:0:
345,368,29821,1,2,0:0:0:0:
264,327,30121,1,2,3:2:0:0:
186,372,30421,2,0,L|138:359,1,44.999998626709,2|8,3:2|0:0,0:0:0:0:
121,320,30721,2,0,B|76:310|76:310|45:348,2,89.9999972534181,2|2|2,3:2|3:2|3:2,0:0:0:0:
149,234,31621,6,0,P|185:201|276:217,1,134.999995880127,6|8,3:2|0:0,0:0:0:0:
324,276,32371,2,0,L|317:333,2,44.999998626709,0|2|8,3:2|3:2|0:0,0:0:0:0:
362,252,32821,2,0,L|352:158,1,89.9999972534181,2|2,3:2|3:2,0:0:0:0:
305,85,33421,2,0,P|262:68|220:79,1,89.9999972534181,2|2,0:0|3:2,0:0:0:0:
185,104,33871,1,8,0:0:0:0:
185,104,34021,6,0,L|194:205,1,89.9999972534181,2|0,3:2|3:2,0:0:0:0:
109,300,34771,1,2,3:2:0:0:
109,300,34921,1,2,3:2:0:0:
21,277,35221,2,0,P|5:243|21:189,1,89.9999972534181,2|2,3:2|3:2,0:0:0:0:
57,173,35671,1,8,0:0:0:0:
10,102,35971,1,0,3:2:0:0:
10,102,36121,2,0,L|18:47,1,44.999998626709,2|8,3:2|0:0,0:0:0:0:
26,13,36421,6,0,B|107:-2|78:50|158:36,1,134.999995880127,6|8,3:2|0:0,0:0:0:0:
240,8,37171,1,2,3:2:0:0:
240,8,37321,1,2,3:2:0:0:
315,56,37621,2,0,P|383:42|442:85,1,134.999995880127,2|8,3:2|0:0,0:0:0:0:
440,164,38371,1,2,3:2:0:0:
440,164,38521,2,0,L|447:213,1,44.999998626709,2|8,3:2|0:0,0:0:0:0:
423,247,38821,6,0,L|321:234,1,89.9999972534181,6|0,3:2|3:2,0:0:0:0:
289,226,39271,1,10,0:0:0:0:
212,272,39571,2,0,L|158:262,2,44.999998626709,2|2|8,3:2|3:2|0:0,0:0:0:0:
229,313,40021,2,0,P|264:345|321:343,1,89.9999972534181,6|2,3:2|3:2,0:0:0:0:
385,307,40621,2,0,L|377:209,1,89.9999972534181,2|2,3:2|3:2,0:0:0:0:
375,127,41221,6,0,P|349:144|265:85,1,134.999995880127,6|0,3:2|3:2,0:0:0:0:
213,27,41971,2,0,L|150:37,1,44.999998626709,2|2,3:2|0:0,0:0:0:0:
79,46,42421,2,0,L|97:150,1,89.9999972534181,2|2,0:0|0:0,0:0:0:0:
31,253,43171,5,2,3:2:0:0:
99,320,43471,1,2,3:2:0:0:
99,320,43621,2,0,P|125:300|194:300,1,89.9999972534181,2|2,0:0|0:0,0:0:0:0:
242,229,44221,1,2,0:0:0:0:
242,229,44371,6,0,P|234:176|227:133,1,89.9999972534181,2|2,3:2|3:2,0:0:0:0:
252,102,44821,1,2,0:0:0:0:
338,76,45121,1,2,0:0:0:0:
404,195,45571,2,0,L|394:249,1,44.999998626709,8|10,0:0|0:0,0:0:0:0:
391,285,45871,1,8,0:0:0:0:
391,285,46021,6,0,L|252:269,1,134.999995880127,6|0,3:2|3:2,0:0:0:0:
209,345,46771,1,10,0:0:0:0:
127,319,47071,1,0,3:2:0:0:
127,319,47221,2,0,P|101:272|110:227,1,89.9999972534181,2|10,3:2|0:0,0:0:0:0:
125,198,47671,1,0,0:0:0:0:
69,127,47971,2,0,L|18:118,2,44.999998626709,10|2|10,0:0|3:2|0:0,0:0:0:0:
98,92,48421,6,0,P|127:62|184:64,1,89.9999972534181,6|2,3:2|3:2,0:0:0:0:
209,86,48871,2,0,P|238:116|295:114,1,89.9999972534181,10|0,0:0|3:2,0:0:0:0:
318,89,49321,1,0,3:2:0:0:
389,144,49621,1,4,3:2:0:0:
341,220,49921,2,0,L|290:210,2,44.999998626709,8|8|2,0:0|0:0|3:2,0:0:0:0:
160,345,50821,6,0,B|187:310|187:310|163:239,1,110.000003356934,6|0,3:1|3:2,0:0:0:0:
148,195,51271,1,10,0:0:0:0:
148,195,51421,2,0,P|107:210|49:173,1,110.000003356934,2|2,0:0|3:2,0:0:0:0:
16,75,52021,1,2,3:2:0:0:
103,8,52321,1,2,3:2:0:0:
202,55,52621,2,0,L|193:114,2,55.0000016784668,2|2|2,0:0|3:2|3:2,0:0:0:0:
303,12,53221,6,0,L|418:26,1,110.000003356934,6|2,3:2|3:2,0:0:0:0:
470,35,53671,1,10,0:0:0:0:
470,35,53821,2,0,P|484:70|447:141,1,110.000003356934,2|2,0:0|3:2,0:0:0:0:
354,171,54421,1,2,3:2:0:0:
265,114,54721,1,2,3:2:0:0:
265,114,54871,2,0,L|142:95,1,110.000003356934,10|0,0:0|3:2,0:0:0:0:
102,85,55321,1,2,3:2:0:0:
26,164,55621,5,6,3:2:0:0:
48,271,55921,1,2,3:2:0:0:
48,271,56071,2,0,L|104:262,1,55.0000016784668,10|2,0:0|0:0,0:0:0:0:
145,301,56371,1,2,3:2:0:0:
216,228,56671,1,10,0:0:0:0:
216,228,56821,2,0,B|183:177|183:177|210:114,1,110.000003356934,6|0,3:2|3:2,0:0:0:0:
240,91,57271,1,10,0:0:0:0:
240,91,57421,2,0,L|357:109,1,110.000003356934,6|2,3:2|3:2,0:0:0:0:
446,159,58021,6,0,B|407:259|491:226|449:323,1,165.000005035401,6|8,3:2|0:0,0:0:0:0:
369,371,58771,1,2,3:2:0:0:
369,371,58921,2,0,L|304:356,1,55.0000016784668,2|10,3:2|0:0,0:0:0:0:
265,344,59221,1,6,3:2:0:0:
313,252,59521,1,2,3:2:0:0:
269,151,59821,2,0,L|280:42,1,110.000003356934,2|8,0:0|0:0,0:0:0:0:
256,10,60271,1,8,0:0:0:0:
256,10,60421,6,0,B|205:34|205:34|140:13,1,110.000003356934,6|0,3:1|3:2,0:0:0:0:
102,39,60871,1,10,0:0:0:0:
102,39,61021,2,0,L|119:163,1,110.000003356934,2|2,0:0|3:2,0:0:0:0:
50,235,61621,1,2,3:2:0:0:
104,330,61921,1,2,3:2:0:0:
211,307,62221,2,0,L|221:367,2,55.0000016784668,2|2|2,0:0|3:2|3:2,0:0:0:0:
277,219,62821,6,0,B|318:184|318:184|377:193,1,110.000003356934,6|2,3:2|3:2,0:0:0:0:
427,201,63271,1,10,0:0:0:0:
427,201,63421,2,0,P|453:253|422:314,1,110.000003356934,2|2,0:0|3:2,0:0:0:0:
339,349,64021,1,2,3:2:0:0:
239,302,64321,2,0,B|181:270|137:310|137:310|69:294,1,165.000005035401,2|0,3:2|3:2,0:0:0:0:
30,207,65071,1,10,0:0:0:0:
30,207,65221,6,0,L|37:81,1,110.000003356934,6|0,3:2|3:2,0:0:0:0:
32,41,65671,1,10,0:0:0:0:
32,41,65821,2,0,P|79:68|147:44,1,110.000003356934,2|0,0:0|3:2,0:0:0:0:
238,82,66421,2,0,B|293:72|293:72|344:116,1,110.000003356934,6|0,3:2|3:2,0:0:0:0:
383,134,66871,1,10,0:0:0:0:
383,134,67021,2,0,B|393:189|393:189|349:240,1,110.000003356934,6|0,3:2|3:2,0:0:0:0:
308,242,67471,1,10,0:0:0:0:
308,242,67621,6,0,L|194:219,1,110.000003356934,6|0,3:2|3:2,0:0:0:0:
147,211,68071,1,8,0:0:0:0:
54,270,68371,1,8,0:0:0:0:
86,368,68671,1,8,0:0:0:0:
86,368,68821,2,0,L|203:354,1,110.000003356934,4|0,3:2|3:2,0:0:0:0:
250,349,69271,1,8,0:0:0:0:
358,330,69571,2,0,L|368:385,2,55.0000016784668,8|10|8,0:0|0:0|0:0,0:0:0:0:
396,290,70021,6,0,P|425:259|411:176,1,110.000003356934,6|0,3:1|3:2,0:0:0:0:
384,156,70471,2,0,L|400:32,2,110.000003356934,10|2|10,0:0|3:2|0:0,0:0:0:0:
339,188,71221,1,2,3:2:0:0:
252,120,71521,2,0,L|133:94,1,110.000003356934,2|0,3:2|0:0,0:0:0:0:
57,164,72121,1,2,3:2:0:0:
158,205,72421,6,0,P|180:239|160:309,1,110.000003356934,6|0,3:2|3:2,0:0:0:0:
129,346,72871,2,0,L|1:324,2,110.000003356934,10|2|10,0:0|3:2|0:0,0:0:0:0:
171,381,73621,1,2,3:2:0:0:
255,310,73921,2,0,P|300:293|364:317,1,110.000003356934,2|0,3:2|0:0,0:0:0:0:
447,372,74521,1,2,3:2:0:0:
508,280,74821,6,0,L|493:164,1,110.000003356934,6|0,3:2|3:2,0:0:0:0:
450,136,75271,2,0,L|471:11,2,110.000003356934,10|2|10,0:0|3:2|0:0,0:0:0:0:
397,153,76021,1,2,3:2:0:0:
308,218,76321,2,0,P|257:187|202:200,1,110.000003356934,2|0,3:2|0:0,0:0:0:0:
113,248,76921,1,2,3:2:0:0:
29,176,77221,1,6,3:2:0:0:
129,44,77671,6,0,L|188:68,1,55.0000016784668,10|8,3:2|3:2,0:0:0:0:
228,37,77971,2,0,L|252:95,1,55.0000016784668,10|8,3:2|3:2,0:0:0:0:
300,111,78271,1,10,3:2:0:0:
300,111,78421,2,0,B|354:118|354:118|396:63,2,110.000003356934,2|2|2,3:2|3:2|3:2,0:0:0:0:
226,189,79321,1,2,3:2:0:0:
311,258,79621,6,0,L|422:242,1,100,6|2,3:2|3:2,0:0:0:0:
457,258,80071,1,14,0:0:0:0:
477,355,80371,2,0,L|420:346,1,50,2|2,3:2|3:2,0:0:0:0:
337,383,80821,2,0,P|296:354|231:363,1,100,2|2,3:2|3:2,0:0:0:0:
204,330,81271,1,10,0:0:0:0:
204,330,81421,2,0,L|212:270,2,50,0|2|2,0:0|3:2|3:2,0:0:0:0:
108,358,82021,6,0,P|73:312|86:256,1,100,6|2,3:2|3:2,0:0:0:0:
94,225,82471,1,10,0:0:0:0:
181,172,82771,2,0,L|245:180,1,50,2|2,3:2|3:2,0:0:0:0:
305,240,83221,2,0,L|408:222,1,100,2|2,3:2|3:2,0:0:0:0:
502,233,83821,2,0,L|484:130,1,100,2|2,0:0|3:2,0:0:0:0:
498,89,84271,1,8,0:0:0:0:
498,89,84421,6,0,P|453:113|399:94,1,100,6|2,3:2|3:2,0:0:0:0:
380,59,84871,1,10,0:0:0:0:
299,118,85171,2,0,L|231:110,1,50,2|2,3:2|3:2,0:0:0:0:
158,71,85621,2,0,B|171:124|171:124|134:170,1,100,2|2,3:2|3:2,0:0:0:0:
107,195,86071,1,10,0:0:0:0:
107,195,86221,2,0,L|53:183,2,50,0|2|2,0:0|3:2|3:2,0:0:0:0:
156,282,86821,6,0,L|263:267,1,100,6|2,3:2|3:2,0:0:0:0:
299,291,87271,1,10,0:0:0:0:
345,202,87571,2,0,L|329:146,2,50,8|8|8,0:0|0:0|0:0,0:0:0:0:
390,222,88021,5,2,3:2:0:0:
459,150,88321,1,2,3:2:0:0:
426,55,88621,1,2,3:2:0:0:
333,17,88921,1,2,3:2:0:0:
