osu file format v14

[General]
AudioFilename: audio.mp3
AudioLeadIn: 0
PreviewTime: 50446
Countdown: 0
SampleSet: Soft
StackLeniency: 0.7
Mode: 0
LetterboxInBreaks: 0
WidescreenStoryboard: 1

[Editor]
DistanceSpacing: 0.3
BeatDivisor: 4
GridSize: 4
TimelineZoom: 2.2

[Metadata]
Title:GATE ~Sore wa Akatsuki no You ni~ (TV Size)
TitleUnicode:GATE~それは暁のように~ (TV Size)
Artist:KISIDA KYODAN & THE AKEBOSI ROCKETS
ArtistUnicode:岸田教団&THE明星ロケッツ
Creator:SpokenAway
Version:Insane
Source:GATE 自衛隊 彼の地にて、斯く戦えり
Tags:japanese anime opening op rock j-rock jrock and kishida kyoudan akeboshi reisevia rei ゲート Gate: Thus the Japanese Self-Defense Force Fought There JSDF Jieitai rokettu 1st season one roda totsuki
BeatmapID:3188953
BeatmapSetID:1561442

[Difficulty]
HPDrainRate:5
CircleSize:3.8
OverallDifficulty:8
ApproachRate:9
SliderMultiplier:1.75
SliderTickRate:1

[Events]
//Background and Video events
0,0,"bg.png",0,0
//Break Periods
2,10221,11071
//Storyboard Layer 0 (Background)
//Storyboard Layer 1 (Fail)
//Storyboard Layer 2 (Pass)
//Storyboard Layer 3 (Foreground)
//Storyboard Layer 4 (Overlay)
//Storyboard Sound Samples

[TimingPoints]
571,300,4,2,1,50,1,0
571,-142.857142857143,4,2,1,50,0,0
1171,-142.857142857143,4,2,1,55,0,0
1621,-166.666666666666,4,2,1,70,0,0
2071,-111.111111111111,4,2,1,70,0,0
7621,-90.9090909090908,4,2,1,70,0,0
7921,-111.111111111111,4,2,1,70,0,0
9271,-111.111111111111,4,2,1,65,0,0
9571,-111.111111111111,4,2,1,70,0,0
10021,-111.111111111111,4,2,1,80,0,0
11671,-142.857142857143,4,2,1,50,0,0
11971,-111.111111111111,4,2,1,60,0,0
12421,-100,4,2,1,70,0,0
17146,-100,4,2,1,5,0,0
17221,-100,4,2,1,70,0,0
20821,-66.6666666666667,4,2,1,70,0,0
20896,-66.6666666666667,4,2,1,5,0,0
21121,-66.6666666666667,4,2,1,70,0,0
21196,-66.6666666666667,4,2,1,5,0,0
21421,-66.6666666666667,4,2,1,70,0,0
21496,-66.6666666666667,4,2,1,5,0,0
21721,-100,4,2,1,70,0,0
22021,-111.111111111111,4,2,1,55,0,0
30721,-90.9090909090908,4,2,1,65,0,0
31621,-111.111111111111,4,2,1,60,0,0
38821,-111.111111111111,4,2,1,65,0,0
41221,-125,4,2,1,50,0,0
42346,-125,4,2,1,5,0,0
42421,-125,4,2,1,50,0,0
45421,-100,4,2,1,65,0,0
46021,-111.111111111111,4,2,1,65,0,0
50221,-111.111111111111,4,2,1,80,0,0
50521,-166.666666666666,4,2,1,50,0,0
50746,-166.666666666666,4,2,1,5,0,0
50821,-76.9230769230769,4,2,1,80,0,0
51121,-83.3333333333333,4,2,1,80,0,0
56821,-76.9230769230769,4,2,1,80,0,0
58471,-83.3333333333333,4,2,1,80,0,0
60421,-80,4,2,1,80,0,0
60871,-83.3333333333333,4,2,1,80,0,0
62821,-80,4,2,1,80,0,0
63271,-83.3333333333333,4,2,1,80,0,0
65221,-80,4,2,1,80,0,0
65671,-83.3333333333333,4,2,1,80,0,0
66421,-76.9230769230769,4,2,1,80,0,0
68071,-83.3333333333333,4,2,1,80,0,0
70021,-90.9090909090909,4,2,1,75,0,0
78571,-90.9090909090909,4,2,1,60,0,0
79621,-86.9565217391304,4,2,1,70,0,0
80071,-100,4,2,1,70,0,0
84346,-100,4,2,1,5,0,0
84421,-100,4,2,1,70,0,0
88021,-66.6666666666667,4,2,1,70,0,0
88096,-66.6666666666667,4,2,1,5,0,0
88321,-66.6666666666667,4,2,1,70,0,0
88396,-66.6666666666667,4,2,1,5,0,0
88621,-66.6666666666667,4,2,1,70,0,0
88696,-66.6666666666667,4,2,1,5,0,0
88921,-66.6666666666667,4,2,1,70,0,0
88996,-66.6666666666667,4,2,1,5,0,0

[Colours]
Combo1 : 122,117,144
Combo2 : 191,130,141
Combo3 : 159,28,52
Combo4 : 128,0,128

[HitObjects]
369,127,571,6,0,P|342:84|343:60,1,61.2499981307984,2|0,0:0|0:0,0:0:0:0:
425,42,871,2,0,P|452:85|451:109,1,61.2499981307984,2|0,0:0|0:0,0:0:0:0:
471,216,1171,5,8,0:0:0:0:
475,207,1246,1,8,0:0:0:0:
478,198,1321,1,8,3:0:0:0:
376,234,1471,5,4,3:0:0:0:
306,188,1621,6,0,B|240:199|240:199|218:229|218:229|147:241,1,157.499995193482,6|0,3:2|0:0,0:0:0:0:
22,146,2371,1,0,3:2:0:0:
18,153,2446,1,0,3:2:0:0:
15,161,2521,2,0,L|112:185,1,78.7499975967408,12|0,0:0|0:0,0:0:0:0:
182,259,2821,6,0,P|138:208|166:112,1,157.499995193482,6|0,3:2|3:0,0:0:0:0:
268,31,3271,2,0,P|229:40|183:45,1,78.7499975967408,8|0,0:0|0:0,0:0:0:0:
322,125,3571,1,8,3:0:0:0:
327,130,3646,1,8,3:0:0:0:
332,135,3721,2,0,P|322:165|319:199,1,39.3749987983704,8|8,0:0|0:0,0:0:0:0:
274,239,3871,2,0,P|279:260|287:303,1,39.3749987983704,8|8,0:0|0:0,0:0:0:0:
381,351,4021,6,0,B|446:398|501:355|501:355|448:343,1,157.499995193482,6|0,3:2|3:2,0:0:0:0:
386,233,4471,1,8,0:0:0:0:
471,214,4621,1,0,3:2:0:0:
471,214,4696,1,0,3:2:0:0:
471,214,4771,2,0,L|461:264,1,39.3749987983704,8|8,0:0|0:0,0:0:0:0:
397,146,4921,1,8,3:0:0:0:
380,140,4996,1,8,3:0:0:0:
369,135,5071,2,0,L|381:85,1,39.3749987983704,4|4,3:0|3:0,0:0:0:0:
266,28,5221,6,0,P|226:49|112:13,1,157.499995193482,6|0,3:2|3:2,0:0:0:0:
19,104,5671,1,8,0:0:0:0:
111,28,5821,1,4,3:2:0:0:
32,100,5971,1,0,3:2:0:0:
136,175,6121,1,8,0:0:0:0:
136,175,6421,6,0,B|65:200|76:283|76:283|100:264,1,157.499995193482,6|0,3:2|3:2,0:0:0:0:
217,273,6871,2,0,P|263:299|282:330,1,78.7499975967408,8|0,0:0|3:2,0:0:0:0:
386,362,7171,5,8,3:0:0:0:
462,304,7321,1,0,3:2:0:0:
417,229,7471,1,8,0:0:0:0:
428,220,7621,6,0,B|351:259|300:178|300:178|362:182,1,192.500005874634,6|0,3:2|0:0,0:0:0:0:
386,23,8071,2,0,P|436:54|450:96,1,78.7499975967408,8|0,0:0|3:2,0:0:0:0:
341,180,8371,2,0,P|291:149|277:107,1,78.7499975967408,8|0,0:0|3:2,0:0:0:0:
151,19,8671,1,8,0:0:0:0:
86,77,8821,6,0,P|120:99|110:225,1,157.499995193482,6|0,3:2|3:2,0:0:0:0:
20,324,9271,1,8,3:2:0:0:
38,312,9421,1,8,3:2:0:0:
139,288,9571,1,8,0:0:0:0:
245,371,9721,1,8,0:0:0:0:
281,208,9871,1,8,0:0:0:0:
149,284,10021,5,10,0:0:0:0:
472,47,11671,5,2,0:0:0:0:
472,47,11971,5,8,0:0:0:0:
472,47,12046,1,8,0:0:0:0:
472,47,12121,2,0,L|419:39,1,39.3749987983704,8|8,0:0|0:0,0:0:0:0:
356,65,12271,2,0,L|303:57,1,39.3749987983704,8|8,0:0|0:0,0:0:0:0:
213,17,12421,6,0,B|291:58|263:130|263:130|251:101|227:91,1,175,6|2,3:2|3:2,0:0:0:0:
64,103,12871,2,0,P|95:72|150:59,1,87.5,10|0,0:0|0:0,0:0:0:0:
56,212,13171,1,2,3:2:0:0:
173,235,13321,2,0,P|214:221|244:190,1,87.5,2|8,3:2|0:0,0:0:0:0:
34,231,13621,6,0,P|-2:289|51:383,1,175,2|2,3:2|3:2,0:0:0:0:
150,345,14071,2,0,P|107:378|62:384,1,87.5,10|0,0:0|0:0,0:0:0:0:
283,326,14371,1,2,3:2:0:0:
199,234,14521,2,0,P|183:188|204:144,1,87.5,2|8,3:2|0:0,0:0:0:0:
400,64,14821,6,0,B|316:93|265:15|265:15|306:21,1,175,6|2,3:2|3:2,0:0:0:0:
415,68,15271,2,0,P|448:112|437:156,1,87.5,10|2,0:0|0:0,0:0:0:0:
296,241,15571,1,2,3:2:0:0:
384,218,15721,2,0,P|430:189|441:146,1,87.5,2|8,3:2|0:0,0:0:0:0:
277,259,16021,6,0,P|216:276|140:196,1,175,2|2,3:2|3:2,0:0:0:0:
0,329,16471,1,8,0:0:0:0:
69,375,16621,2,0,P|139:347|239:394,1,175,2|2,0:0|3:2,0:0:0:0:
359,293,17071,2,0,L|378:248,1,43.75,8|0,0:0|0:0,0:0:0:0:
455,189,17221,6,0,P|394:206|311:122,1,175,6|2,3:2|3:2,0:0:0:0:
475,110,17671,2,0,P|472:168|443:196,1,87.5,10|0,0:0|0:0,0:0:0:0:
314,139,17971,1,2,3:2:0:0:
229,207,18121,2,0,P|168:197|146:166,1,87.5,2|8,3:2|0:0,0:0:0:0:
53,14,18421,6,0,B|-20:37|-8:109|-8:109|5:69|44:59,1,175,2|2,3:2|3:2,0:0:0:0:
160,44,18871,2,0,P|104:12|71:12,1,87.5,10|0,0:0|0:0,0:0:0:0:
13,197,19171,1,2,3:2:0:0:
92,222,19321,2,0,P|133:209|182:197,1,87.5,2|8,3:2|0:0,0:0:0:0:
334,41,19621,6,0,B|423:59|424:128|424:128|411:107|389:102,1,175,6|2,3:2|3:2,0:0:0:0:
272,196,20071,2,0,P|283:149|331:120,1,87.5,10|2,0:0|0:0,0:0:0:0:
223,301,20371,1,2,3:2:0:0:
124,245,20521,2,0,P|72:268|55:307,1,87.5,2|8,3:2|0:0,0:0:0:0:
233,313,20821,6,0,B|231:337|256:345|256:345|250:334|245:303,1,65.6250025033952,2|0,3:2|0:0,0:0:0:0:
399,261,21121,6,0,B|409:282|435:277|435:277|424:270|404:246,1,65.6250025033952,2|0,3:2|0:0,0:0:0:0:
472,105,21421,6,0,B|491:118|511:100|511:100|498:100|469:89,1,65.6250025033952,2|0,3:2|0:0,0:0:0:0:
281,75,21721,5,10,0:0:0:0:
281,75,21796,1,8,0:0:0:0:
281,75,21871,2,0,L|266:31,1,43.75,8|8,0:0|0:0,0:0:0:0:
228,143,22021,6,0,P|270:110|377:119,1,157.499995193482,6|0,3:2|3:2,0:0:0:0:
321,186,22471,2,0,P|349:205|374:248,1,78.7499975967408,8|0,0:0|0:0,0:0:0:0:
338,314,22696,1,8,0:0:0:0:
331,319,22771,2,0,L|230:296,1,78.7499975967408,0|2,3:2|3:2,0:0:0:0:
189,227,23071,1,10,0:0:0:0:
96,318,23221,6,0,B|102:363|102:363|83:299|10:273,1,157.499995193482,2|2,3:2|3:2,0:0:0:0:
26,173,23671,2,0,L|111:148,1,78.7499975967408,8|2,0:0|0:0,0:0:0:0:
118,145,23896,1,8,0:0:0:0:
125,138,23971,1,0,3:2:0:0:
193,75,24121,1,2,3:2:0:0:
292,142,24271,1,8,0:0:0:0:
361,95,24421,6,0,P|414:121|398:227,1,157.499995193482,2|0,3:2|3:2,0:0:0:0:
344,271,24871,2,0,P|307:253|255:255,1,78.7499975967408,8|0,0:0|0:0,0:0:0:0:
243,326,25096,1,8,0:0:0:0:
249,333,25171,2,0,P|286:351|338:349,1,78.7499975967408,0|2,3:2|3:2,0:0:0:0:
490,277,25471,1,8,0:0:0:0:
432,361,25621,6,0,L|380:199,1,157.499995193482,2|2,3:2|3:2,0:0:0:0:
321,137,26071,2,0,L|336:43,1,78.7499975967408,8|0,0:0|0:0,0:0:0:0:
327,35,26296,1,8,0:0:0:0:
319,29,26371,1,0,3:2:0:0:
240,70,26521,1,2,3:2:0:0:
154,11,26671,1,8,0:0:0:0:
32,115,26821,6,0,B|96:130|96:130|119:159|119:159|187:177,1,157.499995193482,6|0,3:2|3:2,0:0:0:0:
257,256,27271,2,0,L|169:280,1,78.7499975967408,8|0,0:0|0:0,0:0:0:0:
111,324,27496,1,8,0:0:0:0:
104,327,27571,2,0,L|16:303,1,78.7499975967408,0|2,3:2|3:2,0:0:0:0:
99,238,27871,1,8,0:0:0:0:
18,168,28021,6,0,P|68:191|157:135,1,157.499995193482,2|0,3:2|3:2,0:0:0:0:
243,89,28471,2,0,L|340:110,1,78.7499975967408,8|0,0:0|0:0,0:0:0:0:
340,106,28696,1,8,0:0:0:0:
350,101,28771,1,0,3:2:0:0:
428,44,28921,1,2,3:2:0:0:
488,147,29071,1,8,0:0:0:0:
432,30,29221,6,0,P|373:26|253:1,1,157.499995193482,2|0,3:2|3:2,0:0:0:0:
161,25,29671,2,0,P|132:63|137:112,1,78.7499975967408,10|2,0:0|0:0,0:0:0:0:
206,126,29896,1,8,0:0:0:0:
213,124,29971,2,0,P|242:86|237:37,1,78.7499975967408,0|2,3:2|3:2,0:0:0:0:
132,175,30271,2,0,L|32:159,1,78.7499975967408,8|2,0:0|3:2,0:0:0:0:
16,238,30496,1,0,3:2:0:0:
24,255,30571,1,8,0:0:0:0:
33,272,30646,1,8,0:0:0:0:
43,288,30721,6,0,P|83:317|202:235,2,192.500005874634,2|2|2,3:2|3:2|3:2,0:0:0:0:
197,260,31621,6,0,B|266:236|316:303|316:303|284:308,1,157.499995193482,6|0,3:2|3:2,0:0:0:0:
177,262,32071,2,0,P|143:219|145:179,1,78.7499975967408,8|0,0:0|0:0,0:0:0:0:
191,129,32296,1,8,0:0:0:0:
198,125,32371,2,0,L|174:43,1,78.7499975967408,0|2,3:2|3:2,0:0:0:0:
88,127,32671,1,8,0:0:0:0:
188,30,32821,6,0,P|256:58|345:34,1,157.499995193482,2|2,3:2|3:2,0:0:0:0:
446,27,33271,2,0,P|416:64|421:101,1,78.7499975967408,8|2,0:0|0:0,0:0:0:0:
429,110,33496,1,8,0:0:0:0:
436,115,33571,1,0,3:2:0:0:
493,189,33721,1,2,3:2:0:0:
421,284,33871,1,8,0:0:0:0:
344,249,34021,6,0,P|285:284|193:238,1,157.499995193482,2|0,3:2|3:2,0:0:0:0:
128,175,34471,2,0,L|106:260,1,78.7499975967408,8|2,0:0|0:0,0:0:0:0:
37,309,34696,1,8,0:0:0:0:
28,315,34771,2,0,P|70:293|112:306,1,78.7499975967408,2|2,3:2|3:2,0:0:0:0:
169,362,35071,1,8,0:0:0:0:
266,272,35221,6,0,B|336:267|357:319|357:319|325:301|293:312,1,157.499995193482,2|2,3:2|3:2,0:0:0:0:
246,263,35671,2,0,P|231:218|248:179,1,78.7499975967408,8|0,0:0|0:0,0:0:0:0:
250,176,35896,1,8,0:0:0:0:
258,170,35971,1,0,3:2:0:0:
339,115,36121,1,2,3:2:0:0:
244,47,36271,1,8,0:0:0:0:
351,122,36421,6,0,B|390:167|452:149|452:149|439:119|443:95,1,157.499995193482,6|0,3:2|3:2,0:0:0:0:
348,217,36871,2,0,P|333:261|362:300,1,78.7499975967408,8|2,0:0|0:0,0:0:0:0:
420,319,37096,1,8,0:0:0:0:
428,321,37171,2,0,L|331:343,1,78.7499975967408,2|2,3:2|3:2,0:0:0:0:
222,259,37471,1,8,0:0:0:0:
160,315,37621,6,0,P|85:310|55:229,1,157.499995193482,2|0,3:2|3:2,0:0:0:0:
15,137,38071,2,0,L|103:157,1,78.7499975967408,8|0,0:0|0:0,0:0:0:0:
111,154,38296,1,8,0:0:0:0:
120,148,38371,1,2,3:2:0:0:
200,91,38521,1,2,3:2:0:0:
288,187,38671,1,8,0:0:0:0:
355,136,38821,6,0,B|424:101|394:22|394:22|372:50,1,157.499995193482,6|0,3:2|3:2,0:0:0:0:
288,187,39271,1,10,0:0:0:0:
469,272,39571,5,2,3:2:0:0:
469,272,39721,1,2,3:2:0:0:
398,332,39871,1,8,0:0:0:0:
415,198,40021,6,0,B|466:153|446:110|446:110|411:96|398:51,1,157.499995193482,6|2,3:2|3:2,0:0:0:0:
304,3,40471,5,8,0:0:0:0:
399,66,40621,1,2,3:2:0:0:
336,162,40771,5,8,0:0:0:0:
240,98,40921,1,2,3:2:0:0:
142,199,41071,1,8,0:0:0:0:
67,149,41221,6,0,P|19:178|39:319,1,210,6|0,3:2|3:2,0:0:0:0:
31,313,41971,1,2,3:2:0:0:
31,313,42121,2,0,L|157:284,1,105,2|0,0:0|0:0,0:0:0:0:
144,288,42421,6,0,L|229:307,1,70,2|0,0:2|3:0,0:0:0:0:
306,346,42721,1,2,0:0:0:0:
306,346,42796,1,2,0:0:0:0:
306,346,42871,2,0,L|391:327,1,70,0|0,3:2|0:0,0:0:0:0:
472,290,43171,1,2,3:2:0:0:
472,290,43321,2,0,P|488:250|478:207,1,70,2|2,0:2|3:2,0:0:0:0:
405,232,43621,2,0,P|378:197|336:184,1,70,2|0,0:2|3:0,0:0:0:0:
266,199,43921,6,0,P|199:207|137:144,1,140,2|2,0:0|0:0,0:0:0:0:
219,98,44371,2,0,P|193:64|200:15,1,70,2|0,3:2|0:0,0:0:0:0:
306,27,44671,1,2,3:2:0:0:
306,27,44821,2,0,L|385:48,1,70,2|0,0:0|3:2,0:0:0:0:
450,103,45121,2,0,P|470:62|464:28,1,70,2|0,0:0|3:2,0:0:0:0:
363,140,45421,5,8,0:0:0:0:
367,152,45496,1,8,0:0:0:0:
372,164,45571,1,8,0:0:0:0:
470,228,45721,1,10,0:0:0:0:
372,292,45871,1,8,0:0:0:0:
274,228,46021,6,0,P|229:245|216:361,1,157.499995193482,6|8,3:2|0:0,0:0:0:0:
48,295,46471,1,0,3:2:0:0:
111,355,46621,1,0,3:2:0:0:
35,282,46771,6,0,B|-17:235|15:169|15:169|33:214,1,157.499995193482,10|0,0:0|3:2,0:0:0:0:
114,103,47221,2,0,L|293:147,1,157.499995193482,2|10,3:2|0:0,0:0:0:0:
380,82,47671,1,0,3:2:0:0:
380,82,47821,1,0,3:2:0:0:
325,209,47971,5,10,0:0:0:0:
410,189,48121,1,2,3:2:0:0:
468,253,48271,1,10,0:0:0:0:
314,214,48421,6,0,B|242:213|237:158|237:158|261:182|300:175,1,157.499995193482,6|2,3:2|3:2,0:0:0:0:
69,152,48871,1,10,0:0:0:0:
69,152,49171,5,0,3:2:0:0:
69,152,49321,1,0,3:2:0:0:
190,70,49471,1,8,0:0:0:0:
122,15,49621,1,4,3:2:0:0:
190,70,49921,5,8,0:0:0:0:
218,64,49996,1,8,0:0:0:0:
247,59,50071,1,8,0:0:0:0:
276,53,50146,1,8,0:0:0:0:
304,48,50221,1,2,3:2:0:0:
378,238,50521,6,0,B|368:205|408:196|408:196|394:214|396:233,1,78.7499975967408,2|0,0:0|0:0,0:0:0:0:
472,238,50821,6,0,P|405:181|251:215,1,227.499989585877,6|0,3:1|3:2,0:0:0:0:
395,137,51271,1,10,0:0:0:0:
267,205,51421,2,0,P|240:263|252:323,1,104.999996795654,2|0,0:0|3:2,0:0:0:0:
396,232,51721,1,2,3:2:0:0:
293,103,51871,1,8,0:0:0:0:
150,237,52021,6,0,B|67:279|13:183|13:183|39:207|74:206,1,209.999993591309,2|2,3:2|3:2,0:0:0:0:
105,33,52471,2,0,P|159:41|197:84,1,104.999996795654,8|2,0:0|0:0,0:0:0:0:
339,184,52771,1,2,3:2:0:0:
438,219,52921,1,2,3:2:0:0:
504,123,53071,1,8,0:0:0:0:
326,194,53221,6,0,B|311:262|236:267|236:267|213:223|153:213,1,209.999993591309,6|2,3:2|3:2,0:0:0:0:
306,279,53671,1,10,0:0:0:0:
163,214,53821,2,0,P|97:231|71:268,1,104.999996795654,2|0,0:0|3:2,0:0:0:0:
242,143,54121,1,2,3:2:0:0:
86,27,54271,1,8,0:0:0:0:
163,64,54421,6,0,P|228:24|370:52,1,209.999993591309,2|2,3:2|3:2,0:0:0:0:
490,173,54871,2,0,P|439:130|431:80,1,104.999996795654,10|0,0:0|0:0,0:0:0:0:
314,176,55171,1,0,3:2:0:0:
426,247,55321,1,2,3:2:0:0:
279,359,55471,1,8,0:0:0:0:
356,315,55621,6,0,P|295:328|183:205,1,209.999993591309,6|2,3:2|3:2,0:0:0:0:
406,228,56071,2,0,P|387:287|351:316,1,104.999996795654,10|2,0:0|0:0,0:0:0:0:
278,150,56371,1,2,3:2:0:0:
182,224,56521,1,0,3:2:0:0:
291,139,56671,1,10,0:0:0:0:
113,36,56821,6,0,B|5:39|-1:154|-1:154|13:128|43:123,1,227.499989585877,6|0,3:2|3:2,0:0:0:0:
126,34,57271,1,10,0:0:0:0:
283,146,57421,6,0,B|346:238|455:189|455:189|408:152,1,227.499989585877,6|2,3:2|3:2,0:0:0:0:
274,137,57871,1,8,0:0:0:0:
147,293,58021,6,0,B|127:350|63:356|63:356|31:297|68:245,1,227.499989585877,6|0,3:2|3:2,0:0:0:0:
227,224,58471,1,8,0:0:0:0:
227,224,58771,5,2,3:2:0:0:
227,224,58921,1,2,3:2:0:0:
367,355,59071,1,10,0:0:0:0:
427,290,59221,6,0,B|362:260|368:185|368:185|414:172|434:126,1,209.999993591309,6|2,3:2|3:2,0:0:0:0:
277,137,59671,2,0,P|322:181|381:181,1,104.999996795654,8|2,0:0|0:0,0:0:0:0:
223,30,59971,1,8,0:0:0:0:
223,30,60046,1,8,0:0:0:0:
223,30,60121,2,0,P|200:41|170:51,1,52.4999983978272,8|8,0:0|0:0,0:0:0:0:
56,136,60271,1,8,0:0:0:0:
46,149,60346,1,8,0:0:0:0:
37,162,60421,6,0,P|99:143|213:242,1,218.75,6|0,3:1|3:2,0:0:0:0:
89,360,60871,1,10,0:0:0:0:
180,331,61021,2,0,P|214:282|210:226,1,104.999996795654,2|0,0:0|3:2,0:0:0:0:
366,59,61321,1,2,3:2:0:0:
270,103,61471,1,8,0:0:0:0:
390,194,61621,6,0,B|338:127|246:166|246:166|286:176|309:210,1,209.999993591309,2|2,3:2|3:2,0:0:0:0:
404,354,62071,2,0,P|360:308|352:240,1,104.999996795654,8|2,0:0|0:0,0:0:0:0:
500,155,62371,1,2,3:2:0:0:
395,178,62521,1,2,3:2:0:0:
332,68,62671,1,8,0:0:0:0:
390,189,62821,6,0,B|294:228|333:312|333:312|336:258|375:239,1,218.75,6|2,3:2|3:2,0:0:0:0:
226,116,63271,1,10,0:0:0:0:
156,164,63422,2,0,P|104:161|67:125,1,104.999996795654,2|0,0:0|3:2,0:0:0:0:
228,217,63721,1,2,3:2:0:0:
104,318,63871,1,8,0:0:0:0:
183,360,64021,6,0,P|247:350|309:223,1,209.999993591309,2|2,3:2|3:2,0:0:0:0:
458,137,64471,1,8,0:0:0:0:
458,137,64771,5,0,3:2:0:0:
375,74,64921,1,0,3:2:0:0:
492,14,65071,1,10,0:0:0:0:
361,68,65221,6,0,B|321:14|217:43|217:43|263:44|289:73,1,218.75,6|0,3:2|3:2,0:0:0:0:
167,197,65671,1,10,0:0:0:0:
140,112,65821,2,0,P|162:68|229:42,1,104.999996795654,2|0,0:0|3:2,0:0:0:0:
162,211,66121,1,0,3:2:0:0:
38,115,66271,1,10,0:0:0:0:
15,298,66421,6,0,B|30:361|96:376|96:376|127:316|87:248,1,227.499989585877,6|0,3:2|3:2,0:0:0:0:
9,285,66871,1,10,0:0:0:0:
226,352,67021,6,0,B|287:350|310:297|310:297|390:282|436:354,1,227.499989585877,6|0,3:2|3:2,0:0:0:0:
433,345,67471,1,10,0:0:0:0:
231,268,67621,6,0,B|142:226|173:97|173:97|193:118,1,227.499989585877,6|0,3:2|3:2,0:0:0:0:
360,8,68071,5,8,0:0:0:0:
278,63,68221,1,0,3:2:0:0:
448,197,68371,5,8,0:0:0:0:
363,100,68521,1,0,3:2:0:0:
278,248,68671,5,8,0:0:0:0:
215,189,68821,6,0,B|163:247|109:229|109:229|86:181|32:170,1,209.999993591309,4|0,3:2|3:2,0:0:0:0:
226,179,69271,1,8,0:0:0:0:
48,39,69571,5,8,0:0:0:0:
48,39,69646,1,8,0:0:0:0:
48,39,69721,2,0,P|80:26|107:23,1,52.4999983978272,10|8,0:0|0:0,0:0:0:0:
177,60,69871,2,0,P|203:75|237:75,1,52.4999983978272,8|8,0:0|0:0,0:0:0:0:
368,18,70021,6,0,P|331:66|397:194,1,192.500005874634,6|0,3:1|3:2,0:0:0:0:
460,13,70471,2,0,P|412:3|350:30,1,96.250002937317,10|0,0:0|0:0,0:0:0:0:
369,181,70771,2,0,P|426:193|469:179,1,96.250002937317,2|0,3:2|3:2,0:0:0:0:
252,44,71071,1,10,0:0:0:0:
197,110,71221,6,0,B|140:187|46:138|46:138|87:116,1,192.500005874634,2|2,3:2|3:2,0:0:0:0:
214,207,71671,2,0,P|245:251|235:304,1,96.250002937317,8|0,0:0|0:0,0:0:0:0:
136,367,71971,1,0,3:2:0:0:
136,367,72121,1,2,3:2:0:0:
239,302,72271,1,8,0:0:0:0:
406,372,72421,6,0,B|351:330|381:272|381:272|429:257|443:214,1,192.500005874634,6|0,3:2|3:2,0:0:0:0:
424,124,72871,2,0,P|449:175|440:229,1,96.250002937317,10|0,0:0|0:0,0:0:0:0:
273,171,73171,2,0,P|304:123|355:104,1,96.250002937317,2|0,3:2|3:2,0:0:0:0:
423,295,73471,1,10,0:0:0:0:
352,255,73621,6,0,B|260:270|260:353|260:353|287:328|321:334,1,192.500005874634,2|2,3:2|3:2,0:0:0:0:
204,225,74071,2,0,P|168:175|185:125,1,96.250002937317,8|0,0:0|0:0,0:0:0:0:
97,45,74371,1,0,3:2:0:0:
97,45,74521,1,2,3:2:0:0:
217,125,74671,1,8,0:0:0:0:
288,81,74821,6,0,P|231:92|134:6,1,192.500005874634,6|0,3:2|3:2,0:0:0:0:
57,135,75271,2,0,P|105:151|133:195,1,96.250002937317,10|0,0:0|0:0,0:0:0:0:
73,258,75571,2,0,P|25:242|-3:198,1,96.250002937317,2|0,3:2|3:2,0:0:0:0:
154,359,75871,1,10,0:0:0:0:
215,304,76021,6,0,P|269:292|385:371,1,192.500005874634,2|2,3:2|3:2,0:0:0:0:
270,208,76471,2,0,P|250:152|283:101,1,96.250002937317,8|0,0:0|0:0,0:0:0:0:
387,166,76771,1,0,3:2:0:0:
387,166,76921,1,2,3:2:0:0:
272,111,77071,1,8,0:0:0:0:
151,52,77221,5,6,3:2:0:0:
151,52,77521,5,8,3:2:0:0:
95,130,77671,1,10,3:2:0:0:
188,185,77821,1,8,3:2:0:0:
90,254,77971,1,10,3:2:0:0:
193,337,78121,1,8,3:2:0:0:
299,245,78271,1,10,3:2:0:0:
429,348,78421,1,2,3:2:0:0:
295,229,78571,6,0,P|304:198|319:178,2,48.1250014686585,8|8|2,0:0|0:0|3:2,0:0:0:0:
398,103,78871,2,0,P|420:126|430:149,2,48.1250014686585,8|8|2,0:0|0:0|3:2,0:0:0:0:
298,28,79171,1,8,0:0:0:0:
284,32,79246,1,8,0:0:0:0:
270,37,79321,1,2,3:2:0:0:
124,127,79471,1,8,0:0:0:0:
146,136,79546,1,8,0:0:0:0:
168,145,79621,6,0,B|135:179|135:179|171:92|100:30,1,201.250003838539,6|2,3:2|3:2,0:0:0:0:
56,229,80071,2,0,P|106:214|139:168,1,87.5,14|0,0:0|0:0,0:0:0:0:
30,325,80371,1,2,3:2:0:0:
128,343,80521,2,0,P|165:307|222:301,1,87.5,2|8,3:2|0:0,0:0:0:0:
397,365,80821,6,0,B|368:297|286:306|286:306|327:345,1,175,2|2,3:2|3:2,0:0:0:0:
407,240,81271,2,0,P|437:199|430:156,1,87.5,10|0,0:0|0:0,0:0:0:0:
420,143,81496,1,8,0:0:0:0:
410,133,81571,1,2,3:2:0:0:
269,196,81721,2,0,P|224:183|195:137,1,87.5,2|8,3:2|0:0,0:0:0:0:
70,25,82021,6,0,B|-4:56|5:127|5:127|47:167,1,175,6|2,3:2|3:2,0:0:0:0:
165,56,82471,2,0,P|212:27|263:34,1,87.5,10|2,0:0|0:0,0:0:0:0:
264,33,82696,1,8,0:0:0:0:
274,40,82771,1,2,3:2:0:0:
392,158,82921,2,0,P|346:125|338:82,1,87.5,2|8,3:2|0:0,0:0:0:0:
229,278,83221,6,0,P|286:239|413:276,1,175,2|2,3:2|3:2,0:0:0:0:
402,261,83671,1,8,0:0:0:0:
206,352,83821,2,0,P|224:285|345:237,1,175,2|2,0:0|3:2,0:0:0:0:
183,106,84271,2,0,P|160:93|141:75,1,43.75,8|0,0:0|0:0,0:0:0:0:
65,17,84421,6,0,B|134:45|112:115|112:115|95:80|50:67,1,175,6|2,3:2|3:2,0:0:0:0:
9,238,84871,2,0,P|32:193|73:174,1,87.5,10|0,0:0|0:0,0:0:0:0:
196,278,85171,1,2,3:2:0:0:
262,330,85321,2,0,P|317:327|345:298,1,87.5,2|8,3:2|0:0,0:0:0:0:
180,273,85621,6,0,B|139:287|127:331|127:331|75:354|23:294,1,175,2|2,3:2|3:2,0:0:0:0:
143,174,86071,2,0,P|195:172|226:144,1,87.5,10|0,0:0|0:0,0:0:0:0:
167,7,86371,1,2,3:2:0:0:
240,59,86521,2,0,P|248:111|225:149,1,87.5,2|8,3:2|0:0,0:0:0:0:
362,20,86821,6,0,B|405:95|488:73|488:73|459:35,1,175,6|2,3:2|3:2,0:0:0:0:
369,145,87271,2,0,P|344:191|361:240,1,87.5,10|2,0:0|3:2,0:0:0:0:
413,273,87496,1,0,3:2:0:0:
421,276,87571,2,0,L|481:263,1,43.75,8|8,0:0|0:0,0:0:0:0:
309,335,87721,1,8,0:0:0:0:
300,345,87796,1,8,0:0:0:0:
291,355,87871,2,0,L|231:342,1,43.75,8|8,0:0|0:0,0:0:0:0:
140,286,88021,6,0,P|136:255|148:281,1,65.6250025033952,2|0,3:2|0:0,0:0:0:0:
261,187,88321,6,0,P|285:168|268:192,1,65.6250025033952,2|0,3:2|0:0,0:0:0:0:
126,108,88621,6,0,P|97:120|126:117,1,65.6250025033952,2|0,3:2|0:0,0:0:0:0:
302,46,88921,6,0,P|277:27|294:51,1,65.6250025033952,2|0,3:2|0:0,0:0:0:0:
