osu file format v14

[General]
AudioFilename: audio.mp3
AudioLeadIn: 0
PreviewTime: 50446
Countdown: 0
SampleSet: Soft
StackLeniency: 0.7
Mode: 0
LetterboxInBreaks: 0
WidescreenStoryboard: 1

[Editor]
DistanceSpacing: 1.4
BeatDivisor: 4
GridSize: 4
TimelineZoom: 2.2

[Metadata]
Title:GATE ~Sore wa Akatsuki no You ni~ (TV Size)
TitleUnicode:GATE~それは暁のように~ (TV Size)
Artist:KISIDA KYODAN & THE AKEBOSI ROCKETS
ArtistUnicode:岸田教団&THE明星ロケッツ
Creator:SpokenAway
Version:Hard
Source:GATE 自衛隊 彼の地にて、斯く戦えり
Tags:japanese anime opening op rock j-rock jrock and kishida kyoudan akeboshi reisevia rei ゲート Gate: Thus the Japanese Self-Defense Force Fought There JSDF Jieitai rokettu 1st season one roda totsuki
BeatmapID:3188952
BeatmapSetID:1561442

[Difficulty]
HPDrainRate:4
CircleSize:3.5
OverallDifficulty:6.5
ApproachRate:8
SliderMultiplier:1.4
SliderTickRate:1

[Events]
//Background and Video events
0,0,"bg.png",0,0
//Break Periods
2,10221,10921
//Storyboard Layer 0 (Background)
//Storyboard Layer 1 (Fail)
//Storyboard Layer 2 (Pass)
//Storyboard Layer 3 (Foreground)
//Storyboard Layer 4 (Overlay)
//Storyboard Sound Samples

[TimingPoints]
571,300,4,2,1,50,1,0
571,-142.857142857143,4,2,1,50,0,0
1171,-142.857142857143,4,2,1,55,0,0
1621,-111.111111111111,4,2,1,70,0,0
9271,-111.111111111111,4,2,1,65,0,0
9571,-111.111111111111,4,2,1,70,0,0
10021,-111.111111111111,4,2,1,80,0,0
11671,-111.111111111111,4,2,1,50,0,0
11971,-111.111111111111,4,2,1,60,0,0
12421,-100,4,2,1,70,0,0
22021,-111.111111111111,4,2,1,55,0,0
30721,-111.111111111111,4,2,1,65,0,0
31621,-111.111111111111,4,2,1,60,0,0
38821,-111.111111111111,4,2,1,65,0,0
41221,-125,4,2,1,50,0,0
45421,-100,4,2,1,65,0,0
46021,-111.111111111111,4,2,1,65,0,0
50221,-111.111111111111,4,2,1,80,0,0
50521,-111.111111111111,4,2,1,50,0,0
50821,-86.9565217391304,4,2,1,80,0,0
52246,-86.9565217391304,4,2,1,5,0,0
52321,-86.9565217391304,4,2,1,80,0,0
61846,-86.9565217391304,4,2,1,5,0,0
61921,-86.9565217391304,4,2,1,80,0,0
70021,-90.9090909090909,4,2,1,75,0,0
78571,-90.9090909090909,4,2,1,60,0,0
79621,-100,4,2,1,70,0,0

[Colours]
Combo1 : 122,117,144
Combo2 : 191,130,141
Combo3 : 159,28,52
Combo4 : 128,0,128

[HitObjects]
53,44,571,6,0,L|114:58,1,48.9999985046387,2|0,0:0|0:0,0:0:0:0:
186,75,871,2,0,L|247:61,1,48.9999985046387,2|0,0:0|0:0,0:0:0:0:
312,24,1171,2,0,L|347:39,2,24.4999992523194,8|8|8,0:0|0:0|3:0,0:0:0:0:
409,79,1471,1,4,3:0:0:0:
325,146,1621,6,0,P|297:194|344:314,1,188.999994232178,6|0,3:2|0:0,0:0:0:0:
492,193,2371,1,0,3:2:0:0:
492,193,2446,1,0,3:2:0:0:
492,193,2521,2,0,L|480:123,1,62.9999980773926,12|0,0:0|0:0,0:0:0:0:
401,60,2821,6,0,B|344:71|344:71|329:91|329:91|261:107,1,125.999996154785,6|0,3:2|3:0,0:0:0:0:
205,135,3271,2,0,L|128:113,1,62.9999980773926,8|0,0:0|0:0,0:0:0:0:
55,115,3571,1,8,3:0:0:0:
55,115,3646,1,8,3:0:0:0:
55,115,3721,2,0,L|35:153,3,31.4999990386963,8|8|8|8,0:0|0:0|0:0|0:0,0:0:0:0:
18,191,4021,6,0,B|81:213|81:213|86:220|86:220|147:241,1,125.999996154785,6|0,3:2|3:2,0:0:0:0:
200,309,4471,2,0,P|240:311|263:292,1,62.9999980773926,8|0,0:0|3:2,0:0:0:0:
311,224,4771,1,8,0:0:0:0:
311,224,4846,1,8,0:0:0:0:
311,224,4921,2,0,L|297:189,3,31.4999990386963,8|8|4|4,3:0|3:0|3:0|3:0,0:0:0:0:
279,151,5221,5,6,3:2:0:0:
423,32,5521,1,0,3:2:0:0:
486,94,5671,6,0,L|471:162,1,62.9999980773926,8|4,0:0|3:2,0:0:0:0:
397,212,5971,2,0,L|382:144,1,62.9999980773926,0|8,3:2|0:0,0:0:0:0:
505,305,6421,6,0,P|441:304|388:353,1,125.999996154785,6|0,3:2|3:2,0:0:0:0:
300,337,6871,2,0,L|226:323,1,62.9999980773926,8|0,0:0|3:2,0:0:0:0:
155,270,7171,1,8,3:0:0:0:
155,270,7321,1,0,3:2:0:0:
82,320,7471,1,8,0:0:0:0:
24,233,7621,6,0,P|13:165|3:104,1,125.999996154785,6|0,3:2|0:0,0:0:0:0:
69,29,8071,2,0,L|140:49,1,62.9999980773926,8|0,0:0|3:2,0:0:0:0:
206,123,8371,2,0,L|135:143,1,62.9999980773926,8|0,0:0|3:2,0:0:0:0:
69,197,8671,1,8,0:0:0:0:
158,276,8821,6,0,P|212:252|291:277,1,125.999996154785,6|0,3:2|3:2,0:0:0:0:
352,308,9271,2,0,L|378:240,1,62.9999980773926,8|8,3:2|3:2,0:0:0:0:
446,197,9571,1,8,0:0:0:0:
446,197,9721,1,8,0:0:0:0:
379,126,9871,1,8,0:0:0:0:
447,44,10021,5,10,0:0:0:0:
419,182,11671,5,2,0:0:0:0:
481,340,11971,5,8,0:0:0:0:
481,340,12046,1,8,0:0:0:0:
481,340,12121,2,0,L|428:316,3,31.4999990386963,8|8|8|8,0:0|0:0|0:0|0:0,0:0:0:0:
407,297,12421,6,0,B|349:310|349:310|329:341|329:341|269:353,1,140,6|2,3:2|3:2,0:0:0:0:
205,307,12871,2,0,L|116:330,1,70,10|0,0:0|0:0,0:0:0:0:
61,273,13171,1,2,3:2:0:0:
116,201,13321,2,0,P|127:160|115:128,1,70,2|8,3:2|0:0,0:0:0:0:
52,54,13621,6,0,P|100:85|199:57,1,140,2|2,3:2|3:2,0:0:0:0:
257,26,14071,2,0,L|334:49,1,70,10|0,0:0|0:0,0:0:0:0:
394,104,14371,1,2,3:2:0:0:
329,168,14521,2,0,L|354:250,1,70,2|8,3:2|0:0,0:0:0:0:
423,314,14821,6,0,B|361:325|361:325|342:347|342:347|279:353,1,140,6|2,3:2|3:2,0:0:0:0:
221,297,15271,2,0,P|206:264|212:227,1,70,10|2,0:0|0:0,0:0:0:0:
283,176,15571,1,2,3:2:0:0:
214,115,15721,2,0,L|126:134,1,70,2|8,3:2|0:0,0:0:0:0:
55,206,16021,6,0,P|81:274|100:359,1,140,2|2,3:2|3:2,0:0:0:0:
182,368,16471,1,8,0:0:0:0:
244,302,16621,2,0,P|290:276|381:303,1,140,2|2,0:0|3:2,0:0:0:0:
437,357,17071,1,8,0:0:0:0:
469,246,17221,6,0,B|507:168|507:168|473:157|454:123,1,140,6|2,3:2|3:2,0:0:0:0:
417,59,17671,2,0,P|377:45|340:50,1,70,10|0,0:0|0:0,0:0:0:0:
269,89,17971,1,2,3:2:0:0:
328,157,18121,2,0,P|340:198|324:235,1,70,2|8,3:2|0:0,0:0:0:0:
245,300,18421,6,0,B|175:279|175:279|165:281|165:281|95:257,1,140,2|2,3:2|3:2,0:0:0:0:
47,197,18871,2,0,P|37:159|51:123,1,70,10|0,0:0|0:0,0:0:0:0:
101,57,19171,1,2,3:2:0:0:
101,57,19321,1,2,3:2:0:0:
180,101,19471,1,8,0:0:0:0:
262,29,19621,6,0,B|319:40|319:40|341:66|341:66|402:75,1,140,6|2,3:2|3:2,0:0:0:0:
450,139,20071,2,0,L|429:214,1,70,10|2,0:0|0:0,0:0:0:0:
355,257,20371,1,2,3:2:0:0:
279,206,20521,2,0,P|242:211|202:204,1,70,2|8,3:2|0:0,0:0:0:0:
89,238,20821,6,0,L|50:384,2,140,2|2|2,3:2|3:2|3:2,0:0:0:0:
229,354,21721,1,10,0:0:0:0:
229,354,21796,1,8,0:0:0:0:
229,354,21871,2,0,L|271:347,1,35,8|8,0:0|0:0,0:0:0:0:
309,339,22021,6,0,P|341:302|326:220,1,125.999996154785,6|0,3:2|3:2,0:0:0:0:
268,169,22471,1,8,0:0:0:0:
383,35,22771,1,0,3:2:0:0:
383,35,22921,2,0,L|451:54,1,62.9999980773926,2|10,3:2|0:0,0:0:0:0:
475,132,23221,2,0,P|488:172|478:198,1,62.9999980773926,2|0,3:2|0:0,0:0:0:0:
398,255,23521,6,0,L|384:183,1,62.9999980773926,2|8,3:2|0:0,0:0:0:0:
312,156,23821,2,0,L|298:228,1,62.9999980773926,2|0,0:0|3:2,0:0:0:0:
225,253,24121,2,0,L|211:181,1,62.9999980773926,2|8,3:2|0:0,0:0:0:0:
137,128,24421,6,0,P|75:121|22:174,1,125.999996154785,2|0,3:2|3:2,0:0:0:0:
86,226,24871,1,8,0:0:0:0:
195,364,25171,1,0,3:2:0:0:
195,364,25321,2,0,P|232:350|269:357,1,62.9999980773926,2|8,3:2|0:0,0:0:0:0:
342,363,25621,2,0,P|369:346|380:298,1,62.9999980773926,2|0,3:2|0:2,3:2:0:0:
349,236,25921,5,2,3:2:0:0:
349,236,26071,2,0,L|314:98,1,125.999996154785,8|0,0:0|3:0,0:0:0:0:
310,32,26521,2,0,P|362:24|381:29,1,62.9999980773926,2|8,3:2|0:0,0:0:0:0:
464,83,26821,6,0,P|453:139|442:227,1,125.999996154785,6|0,3:2|3:2,0:0:0:0:
389,269,27271,2,0,P|321:279|262:231,1,125.999996154785,8|0,0:0|3:2,0:0:0:0:
215,189,27721,2,0,L|141:208,1,62.9999980773926,2|8,3:2|0:0,0:0:0:0:
70,255,28021,6,0,P|35:221|56:128,1,125.999996154785,2|0,3:2|3:2,0:0:0:0:
117,128,28471,2,0,L|244:98,1,125.999996154785,8|0,0:0|3:0,0:0:0:0:
312,57,28921,2,0,P|296:26|270:3,1,62.9999980773926,2|8,3:2|0:0,0:0:0:0:
174,22,29221,6,0,B|117:30|117:30|97:48|97:48|29:58,1,125.999996154785,2|0,3:2|3:2,0:0:0:0:
24,128,29671,1,10,0:0:0:0:
24,128,29821,2,0,L|39:197,1,62.9999980773926,2|0,0:0|3:2,0:0:0:0:
96,246,30121,2,0,L|81:315,1,62.9999980773926,2|8,3:2|0:0,0:0:0:0:
162,337,30421,1,2,3:2:0:0:
171,345,30496,1,0,3:2:0:0:
181,352,30571,1,8,0:0:0:0:
192,357,30646,1,8,0:0:0:0:
202,362,30721,6,0,P|267:337|327:319,2,125.999996154785,2|2|2,3:2|3:2|3:2,0:0:0:0:
494,355,31621,6,0,B|456:328|456:289|456:289|484:269|493:244,1,125.999996154785,6|0,3:2|3:2,0:0:0:0:
462,170,32071,1,8,0:0:0:0:
301,243,32371,1,0,3:2:0:0:
301,243,32521,2,0,L|222:225,1,62.9999980773926,2|8,3:2|0:0,0:0:0:0:
179,163,32821,2,0,P|142:177|121:206,1,62.9999980773926,2|0,3:2|0:0,0:0:0:0:
57,258,33121,6,0,L|42:191,1,62.9999980773926,2|8,3:2|0:0,0:0:0:0:
17,118,33421,2,0,L|32:51,1,62.9999980773926,2|0,0:0|3:2,0:0:0:0:
106,25,33721,2,0,P|138:33|180:26,1,62.9999980773926,2|8,3:2|0:0,0:0:0:0:
263,87,34021,6,0,P|231:117|246:213,1,125.999996154785,2|0,3:2|3:2,0:0:0:0:
303,245,34471,1,8,0:0:0:0:
364,184,34621,2,0,L|345:114,2,62.9999980773926,2|2|2,0:0|3:2|3:2,0:0:0:0:
455,189,35071,1,8,0:0:0:0:
426,89,35221,6,0,P|394:56|316:46,1,125.999996154785,2|2,3:2|3:2,0:0:0:0:
237,22,35671,2,0,P|156:28|119:83,1,125.999996154785,8|0,0:0|3:0,0:0:0:0:
71,120,36121,1,2,3:2:0:0:
142,171,36271,1,8,0:0:0:0:
66,238,36421,6,0,P|48:285|96:366,1,125.999996154785,6|0,3:2|3:2,3:2:0:0:
167,329,36871,2,0,L|151:253,1,62.9999980773926,8|2,0:0|0:0,0:0:0:0:
229,213,37171,2,0,P|264:202|306:199,1,62.9999980773926,2|2,3:2|3:2,0:0:0:0:
361,147,37471,1,8,0:0:0:0:
278,91,37621,6,0,B|236:41|236:41|296:-8,1,125.999996154785,2|0,3:2|3:2,0:0:0:0:
357,36,38071,2,0,L|431:19,1,62.9999980773926,8|0,0:0|0:0,0:0:0:0:
483,71,38371,1,2,3:2:0:0:
483,71,38521,1,2,3:2:0:0:
419,122,38671,1,8,0:0:0:0:
486,194,38821,6,0,L|457:320,1,125.999996154785,6|0,3:2|3:2,0:0:0:0:
387,358,39271,1,10,0:0:0:0:
258,256,39571,2,0,L|178:281,1,62.9999980773926,2|2,3:2|3:2,0:0:0:0:
129,218,39871,1,8,0:0:0:0:
59,272,40021,2,0,P|46:238|36:204,1,62.9999980773926,6|0,3:2|0:2,3:2:0:0:
18,118,40321,6,0,L|38:50,1,62.9999980773926,2|8,3:2|0:0,0:0:0:0:
121,22,40621,1,2,3:2:0:0:
121,22,40771,1,8,0:0:0:0:
194,78,40921,2,0,P|240:83|272:66,1,62.9999980773926,2|8,3:2|0:0,0:0:0:0:
338,22,41221,6,0,P|379:43|389:161,1,168,6|0,3:2|3:0,0:0:0:0:
305,283,41971,1,2,3:2:0:0:
305,283,42121,2,0,P|296:251|291:222,1,56,2|0,0:0|3:2,0:0:0:0:
284,138,42421,6,0,P|234:114|164:126,1,112,2|2,0:0|0:0,0:0:0:0:
115,166,42871,1,0,3:2:0:0:
52,374,43171,6,0,P|17:319|36:260,1,112,2|0,3:2|3:0,0:0:0:0:
103,253,43621,2,0,L|173:264,1,56,2|0,0:0|3:2,0:0:0:0:
227,297,43921,2,0,L|293:283,1,56,2|0,0:0|3:2,0:0:0:0:
347,236,44221,1,2,0:0:0:0:
347,236,44371,6,0,P|354:179|364:115,1,112,2|2,3:2|3:2,0:0:0:0:
409,61,44821,2,0,P|449:53|469:57,1,56,2|0,0:0|3:2,0:0:0:0:
491,128,45121,2,0,L|481:186,1,56,2|0,0:0|3:2,0:0:0:0:
431,267,45421,2,0,L|445:302,2,35,8|8|8,0:0|0:0|0:0,0:0:0:0:
354,207,45721,1,10,0:0:0:0:
278,262,45871,1,8,0:0:0:0:
197,185,46021,6,0,B|147:199|147:199|131:225|131:225|74:240,1,125.999996154785,6|8,3:2|0:0,0:0:0:0:
32,169,46471,2,0,L|21:104,1,62.9999980773926,0|0,3:2|3:2,0:0:0:0:
101,49,46771,1,10,0:0:0:0:
269,132,47071,1,0,3:2:0:0:
197,185,47221,6,0,P|163:237|174:300,1,125.999996154785,2|10,3:2|0:0,0:0:0:0:
244,349,47671,2,0,L|308:337,1,62.9999980773926,0|0,3:2|3:2,0:0:0:0:
389,309,47971,2,0,P|402:277|395:238,1,62.9999980773926,10|2,0:0|3:2,0:0:0:0:
339,184,48271,1,10,0:0:0:0:
436,138,48421,6,0,P|390:144|328:89,1,125.999996154785,6|2,3:2|3:2,0:0:0:0:
268,34,48871,1,10,0:0:0:0:
146,222,49171,2,0,L|128:140,1,62.9999980773926,0|0,3:2|3:2,0:0:0:0:
64,103,49471,1,8,0:0:0:0:
121,27,49621,1,4,3:2:0:0:
264,129,49921,5,8,0:0:0:0:
264,129,49996,1,8,0:0:0:0:
264,129,50071,2,0,L|303:120,2,31.4999990386963,8|8|2,0:0|0:0|3:2,0:0:0:0:
488,280,50821,6,0,P|408:300|336:238,1,161.000003070831,6|0,3:1|3:2,0:0:0:0:
284,194,51271,1,10,0:0:0:0:
340,125,51421,2,0,P|350:75|323:32,1,80.5000015354157,2|0,0:0|3:2,0:0:0:0:
254,20,51721,2,0,L|165:44,1,80.5000015354157,2|8,3:2|0:0,0:0:0:0:
81,108,52021,6,0,P|133:132|150:205,1,120.750002303124,2|0,3:2|0:0,0:0:0:0:
140,217,52321,2,0,P|127:266|148:309,1,80.5000015354157,2|8,3:2|0:0,0:0:0:0:
202,350,52621,2,0,L|282:330,1,80.5000015354157,2|2,0:0|3:2,0:0:0:0:
348,268,52921,1,2,3:2:0:0:
429,301,53071,1,8,0:0:0:0:
344,257,53221,6,0,L|310:82,1,161.000003070831,6|2,3:2|3:2,0:0:0:0:
374,34,53671,1,10,0:0:0:0:
452,75,53821,2,0,L|441:163,1,80.5000015354157,2|0,0:0|3:2,0:0:0:0:
437,243,54121,2,0,L|455:329,1,80.5000015354157,2|8,3:2|0:0,0:0:0:0:
349,300,54421,6,0,B|281:316|281:316|261:345|261:345|193:359,1,161.000003070831,2|2,3:2|3:2,0:0:0:0:
136,300,54871,2,0,L|146:217,1,80.5000015354157,10|0,0:0|0:0,0:0:0:0:
219,171,55171,1,0,3:2:0:0:
219,171,55321,1,2,3:2:0:0:
157,106,55471,1,8,0:0:0:0:
247,51,55621,6,0,P|188:63|102:10,1,161.000003070831,6|2,3:2|3:2,0:0:0:0:
30,63,56071,2,0,P|10:98|21:142,1,80.5000015354157,10|2,0:0|0:0,0:0:0:0:
75,202,56371,2,0,L|58:293,1,80.5000015354157,2|0,3:2|3:2,0:0:0:0:
115,350,56671,1,10,0:0:0:0:
200,287,56821,6,0,B|306:262|306:262|279:255|248:234,1,161.000003070831,6|0,3:2|3:2,0:0:0:0:
201,172,57271,1,10,0:0:0:0:
279,93,57421,6,0,B|348:103|348:103|372:128|372:128|439:135,1,161.000003070831,6|2,3:2|3:2,0:0:0:0:
495,75,57871,1,8,0:0:0:0:
501,190,58021,6,0,P|465:211|462:335,1,161.000003070831,6|0,3:2|3:2,0:0:0:0:
364,355,58471,1,8,0:0:0:0:
226,243,58771,2,0,L|139:273,1,80.5000015354157,2|2,3:2|3:2,0:0:0:0:
83,328,59071,1,10,0:0:0:0:
31,231,59221,6,0,L|12:66,1,161.000003070831,6|2,3:2|3:2,0:0:0:0:
91,29,59671,2,0,P|139:51|178:37,1,80.5000015354157,8|2,0:0|0:0,0:0:0:0:
249,18,59971,1,8,0:0:0:0:
249,18,60046,1,8,0:0:0:0:
249,18,60121,2,0,L|295:39,3,40.2500007677078,8|8|8|8,0:0|0:0|0:0|0:0,0:0:0:0:
332,70,60421,6,0,P|297:100|313:214,1,161.000003070831,6|0,3:1|3:2,0:0:0:0:
372,263,60871,1,10,0:0:0:0:
443,211,61021,2,0,L|468:122,1,80.5000015354157,2|0,0:0|3:2,0:0:0:0:
484,41,61321,2,0,P|438:50|396:30,1,80.5000015354157,2|8,3:2|0:0,0:0:0:0:
293,24,61621,6,0,B|227:38|227:38|221:42|221:42|151:56,1,120.750002303124,2|0,3:2|0:0,0:0:0:0:
142,64,61921,2,0,P|130:112|153:156,1,80.5000015354157,2|8,3:2|0:0,0:0:0:0:
212,192,62221,2,0,L|197:290,1,80.5000015354157,2|2,0:0|3:2,0:0:0:0:
128,324,62521,1,2,3:2:0:0:
56,271,62671,1,8,0:0:0:0:
139,331,62821,6,0,P|199:364|298:339,1,161.000003070831,6|2,3:2|3:2,0:0:0:0:
349,284,63271,1,10,0:0:0:0:
283,224,63421,2,0,P|266:181|281:145,1,80.5000015354157,2|0,0:0|3:2,0:0:0:0:
345,94,63721,2,0,P|346:51|327:17,1,80.5000015354157,2|8,3:2|0:0,0:0:0:0:
458,41,64021,6,0,L|438:211,1,161.000003070831,2|2,3:2|3:2,0:0:0:0:
490,273,64471,1,8,0:0:0:0:
334,358,64771,2,0,L|253:342,1,80.5000015354157,0|0,3:2|3:2,0:0:0:0:
184,289,65071,1,10,0:0:0:0:
90,354,65221,6,0,P|56:297|88:200,1,161.000003070831,6|0,3:2|3:2,0:0:0:0:
151,158,65671,1,10,0:0:0:0:
63,111,65821,2,0,P|142:95|237:78,1,161.000003070831,2|0,0:0|3:2,0:0:0:0:
283,17,66271,1,10,0:0:0:0:
374,79,66421,6,0,P|416:118|416:218,1,161.000003070831,6|0,3:2|3:2,0:0:0:0:
348,272,66871,1,10,0:0:0:0:
263,204,67021,6,0,B|192:213|192:213|171:237|171:237|83:249,1,161.000003070831,6|0,3:2|3:2,0:0:0:0:
44,300,67471,1,10,0:0:0:0:
137,369,67621,6,0,P|181:339|300:364,1,161.000003070831,6|0,3:2|3:2,0:0:0:0:
366,318,68071,2,0,L|387:232,1,80.5000015354157,8|0,0:0|3:2,0:0:0:0:
436,167,68371,2,0,L|415:81,1,80.5000015354157,8|0,0:0|3:2,0:0:0:0:
354,24,68671,1,8,0:0:0:0:
278,69,68821,1,4,3:2:0:0:
106,26,69121,5,0,3:2:0:0:
106,26,69271,2,0,L|124:121,1,80.5000015354157,8|0,0:0|0:0,0:0:0:0:
150,188,69571,1,8,0:0:0:0:
150,188,69646,1,8,0:0:0:0:
150,188,69721,2,0,L|129:230,3,40.2500007677078,10|8|8|8,0:0|0:0|0:0|0:0,0:0:0:0:
110,269,70021,6,0,P|137:297|247:277,1,154.000004699707,6|0,3:1|3:2,0:0:0:0:
304,224,70471,1,10,0:0:0:0:
459,292,70771,2,0,L|446:380,1,77.0000023498536,2|0,3:2|3:2,0:0:0:0:
369,322,71071,1,10,0:0:0:0:
279,360,71221,6,0,P|202:342|123:328,1,154.000004699707,2|2,3:2|3:2,0:0:0:0:
62,274,71671,2,0,P|49:228|61:197,1,77.0000023498536,8|0,0:0|0:0,0:0:0:0:
127,152,71971,2,0,P|153:105|145:74,1,77.0000023498536,0|2,3:2|3:2,0:0:0:0:
215,29,72271,1,8,0:0:0:0:
300,98,72421,6,0,B|338:51|379:63|379:63|400:92|432:102,1,154.000004699707,6|0,3:2|3:2,0:0:0:0:
488,158,72871,1,10,0:0:0:0:
364,274,73171,2,0,L|282:257,1,77.0000023498536,2|0,3:2|3:2,0:0:0:0:
223,203,73471,1,10,0:0:0:0:
148,273,73621,6,0,P|69:256|1:297,1,154.000004699707,2|2,3:2|3:2,0:0:0:0:
61,354,74071,2,0,P|97:365|154:364,1,77.0000023498536,8|0,0:0|0:0,0:0:0:0:
213,331,74371,1,0,3:2:0:0:
213,331,74521,1,2,3:2:0:0:
291,363,74671,1,8,0:0:0:0:
360,286,74821,6,0,L|393:131,1,154.000004699707,6|0,3:2|3:2,0:0:0:0:
337,69,75271,1,10,0:0:0:0:
203,172,75571,2,0,L|123:157,1,77.0000023498536,2|0,3:2|3:2,0:0:0:0:
61,103,75871,1,10,0:0:0:0:
154,35,76021,6,0,B|219:46|219:46|240:72|240:72|328:86,1,154.000004699707,2|2,3:2|3:2,0:0:0:0:
374,109,76471,2,0,L|466:87,1,77.0000023498536,8|0,0:0|0:0,0:0:0:0:
480,169,76771,2,0,L|388:191,1,77.0000023498536,0|2,3:2|3:2,0:0:0:0:
345,247,77071,1,8,0:0:0:0:
255,187,77221,6,0,P|177:174|103:214,1,154.000004699707,6|8,3:2|3:2,0:0:0:0:
51,271,77671,2,0,L|73:358,1,77.0000023498536,10|8,3:2|3:2,0:0:0:0:
165,375,77971,2,0,L|187:288,1,77.0000023498536,10|8,3:2|3:2,0:0:0:0:
274,268,78271,1,10,3:2:0:0:
340,333,78421,1,2,3:2:0:0:
409,256,78571,6,0,L|420:208,2,38.5000011749268,8|8|2,0:0|0:0|3:2,0:0:0:0:
331,205,78871,2,0,L|320:157,2,38.5000011749268,8|8|2,0:0|0:0|3:2,0:0:0:0:
401,150,79171,2,0,L|412:102,2,38.5000011749268,8|8|2,0:0|0:0|3:2,0:0:0:0:
329,87,79471,1,8,0:0:0:0:
329,87,79546,1,8,0:0:0:0:
329,87,79621,6,0,P|265:65|184:46,1,140,6|2,3:2|3:2,0:0:0:0:
106,71,80071,2,0,P|83:113|88:153,1,70,14|0,0:0|0:0,0:0:0:0:
124,215,80371,1,2,3:2:0:0:
207,179,80521,2,0,L|277:208,1,70,2|8,3:2|0:0,0:0:0:0:
344,275,80821,6,0,P|317:232|349:136,1,140,2|2,3:2|3:2,0:0:0:0:
416,103,81271,2,0,L|500:121,1,70,10|0,0:0|0:0,0:0:0:0:
512,123,81496,1,8,0:0:0:0:
512,123,81571,1,2,3:2:0:0:
465,201,81721,2,0,L|484:281,1,70,2|8,3:2|0:0,0:0:0:0:
407,349,82021,6,0,B|349:343|349:343|331:322|331:322|255:308,1,140,6|2,3:2|3:2,0:0:0:0:
212,247,82471,2,0,L|135:264,1,70,10|2,0:0|0:0,0:0:0:0:
98,270,82696,1,8,0:0:0:0:
98,270,82771,1,2,3:2:0:0:
39,200,82921,2,0,P|23:152|34:124,1,70,2|8,3:2|0:0,0:0:0:0:
114,67,83221,6,0,P|165:91|253:65,1,140,2|2,3:2|3:2,0:0:0:0:
323,28,83671,1,8,0:0:0:0:
379,111,83821,2,0,L|351:268,1,140,2|2,0:0|3:2,0:0:0:0:
275,293,84271,1,8,0:0:0:0:
368,361,84421,6,0,B|457:319|457:319|430:319|405:304,1,140,6|2,3:2|3:2,0:0:0:0:
468,234,84871,2,0,L|456:152,1,70,10|0,0:0|0:0,0:0:0:0:
406,89,85171,1,2,3:2:0:0:
338,149,85321,2,0,P|283:151|269:136,1,70,2|8,3:2|0:0,0:0:0:0:
186,72,85621,6,0,B|142:107|142:107|184:197,1,140,2|2,3:2|3:2,0:0:0:0:
251,235,86071,2,0,L|240:316,1,70,10|0,0:0|0:0,0:0:0:0:
175,367,86371,1,2,3:2:0:0:
114,298,86521,2,0,P|73:296|41:289,1,70,2|8,3:2|0:0,0:0:0:0:
16,184,86821,6,0,P|48:144|27:47,1,140,6|2,3:2|3:2,0:0:0:0:
122,26,87271,2,0,L|201:49,1,70,10|2,0:0|3:2,0:0:0:0:
269,89,87571,1,8,0:0:0:0:
269,89,87646,1,8,0:0:0:0:
269,89,87721,2,0,L|318:76,3,35,8|8|8|8,0:0|0:0|0:0|0:0,0:0:0:0:
352,73,88021,5,2,3:2:0:0:
488,214,88321,1,2,3:2:0:0:
347,350,88621,1,2,3:2:0:0:
211,209,88921,1,2,3:2:0:0:
