osu file format v14

[General]
AudioFilename: audio.mp3
AudioLeadIn: 0
PreviewTime: 50446
Countdown: 0
SampleSet: Soft
StackLeniency: 0.7
Mode: 0
LetterboxInBreaks: 0
WidescreenStoryboard: 0

[Editor]
DistanceSpacing: 0.3
BeatDivisor: 4
GridSize: 4
TimelineZoom: 2.2

[Metadata]
Title:GATE ~Sore wa Akatsuki no You ni~ (TV Size)
TitleUnicode:GATE~それは暁のように~ (TV Size)
Artist:KISIDA KYODAN & THE AKEBOSI ROCKETS
ArtistUnicode:岸田教団&THE明星ロケッツ
Creator:SpokenAway
Version:Aurora
Source:GATE 自衛隊 彼の地にて、斯く戦えり
Tags:japanese anime opening op rock j-rock jrock and kishida kyoudan akeboshi reisevia rei ゲート Gate: Thus the Japanese Self-Defense Force Fought There JSDF Jieitai rokettu 1st season one roda totsuki
BeatmapID:3278294
BeatmapSetID:1561442

[Difficulty]
HPDrainRate:5.5
CircleSize:4
OverallDifficulty:8.5
ApproachRate:9.2
SliderMultiplier:1.9
SliderTickRate:1

[Events]
//Background and Video events
0,0,"bg.png",0,0
//Break Periods
2,10221,11101
//Storyboard Layer 0 (Background)
//Storyboard Layer 1 (Fail)
//Storyboard Layer 2 (Pass)
//Storyboard Layer 3 (Foreground)
//Storyboard Layer 4 (Overlay)
//Storyboard Sound Samples

[TimingPoints]
571,300,4,2,1,50,1,0
571,-142.857142857143,4,2,1,50,0,0
1171,-142.857142857143,4,2,1,55,0,0
1621,-166.666666666667,4,2,1,70,0,0
2371,-125,4,2,1,70,0,0
2821,-100,4,2,1,70,0,0
3046,-100,4,2,1,5,0,0
3121,-125,4,2,1,70,0,0
5221,-90.9090909090909,4,2,1,70,0,0
5446,-90.9090909090909,4,2,1,5,0,0
5521,-125,4,2,1,70,0,0
6421,-90.9090909090909,4,2,1,70,0,0
6646,-90.9090909090909,4,2,1,5,0,0
6721,-125,4,2,1,70,0,0
9121,-111.111111111111,4,2,1,70,0,0
9271,-111.111111111111,4,2,1,65,0,0
9571,-111.111111111111,4,2,1,70,0,0
10021,-111.111111111111,4,2,1,80,0,0
11671,-111.111111111111,4,2,1,50,0,0
11971,-111.111111111111,4,2,1,60,0,0
12421,-90.9090909090909,4,2,1,70,0,0
12721,-100,4,2,1,70,0,0
13546,-100,4,2,1,5,0,0
13621,-100,4,2,1,70,0,0
14746,-100,4,2,1,5,0,0
14821,-76.9230769230769,4,2,1,70,0,0
15046,-76.9230769230769,4,2,1,5,0,0
15121,-100,4,2,1,70,0,0
17071,-83.3333333333333,4,2,1,70,0,0
17146,-83.3333333333333,4,2,1,5,0,0
17221,-83.3333333333333,4,2,1,70,0,0
17521,-100,4,2,1,70,0,0
18346,-100,4,2,1,5,0,0
18421,-100,4,2,1,70,0,0
19246,-100,4,2,1,5,0,0
19321,-100,4,2,1,70,0,0
19396,-100,4,2,1,5,0,0
19471,-100,4,2,1,70,0,0
19621,-83.3333333333333,4,2,1,70,0,0
19921,-100,4,2,1,70,0,0
20821,-76.9230769230769,4,2,1,70,0,0
21046,-76.9230769230769,4,2,1,5,0,0
21121,-76.9230769230769,4,2,1,70,0,0
21346,-76.9230769230769,4,2,1,5,0,0
21421,-76.9230769230769,4,2,1,70,0,0
21646,-76.9230769230769,4,2,1,5,0,0
21721,-100,4,2,1,70,0,0
22021,-111.111111111111,4,2,1,55,0,0
26746,-111.111111111111,4,2,1,5,0,0
26821,-90.9090909090908,4,2,1,55,0,0
27271,-111.111111111111,4,2,1,55,0,0
30721,-76.9230769230769,4,2,1,65,0,0
30946,-76.9230769230769,4,2,1,5,0,0
31021,-76.9230769230769,4,2,1,65,0,0
31246,-76.9230769230769,4,2,1,5,0,0
31321,-76.9230769230769,4,2,1,65,0,0
31546,-76.9230769230769,4,2,1,5,0,0
31621,-95.2380952380952,4,2,1,60,0,0
31921,-111.111111111111,4,2,1,60,0,0
36346,-111.111111111111,4,2,1,5,0,0
36421,-90.9090909090908,4,2,1,60,0,0
36721,-111.111111111111,4,2,1,60,0,0
38821,-90.9090909090908,4,2,1,65,0,0
39121,-111.111111111111,4,2,1,65,0,0
40021,-90.9090909090908,4,2,1,65,0,0
40321,-111.111111111111,4,2,1,65,0,0
41221,-166.666666666667,4,2,1,50,0,0
42571,-142.857142857143,4,2,1,50,0,0
43771,-125,4,2,1,50,0,0
45421,-125,4,2,1,65,0,0
46021,-90.9090909090908,4,2,1,65,0,0
46321,-111.111111111111,4,2,1,65,0,0
46546,-111.111111111111,4,2,1,5,0,0
46621,-111.111111111111,4,2,1,65,0,0
46696,-111.111111111111,4,2,1,5,0,0
46771,-111.111111111111,4,2,1,65,0,0
50221,-111.111111111111,4,2,1,80,0,0
50521,-199.999999999999,4,2,1,50,0,0
50746,-199.999999999999,4,2,1,5,0,0
50821,-76.9230769230769,4,2,1,80,0,0
51121,-83.3333333333333,4,2,1,80,0,0
51796,-83.3333333333333,4,2,1,5,0,0
51871,-83.3333333333333,4,2,1,80,0,0
51946,-83.3333333333333,4,2,1,5,0,0
52021,-83.3333333333333,4,2,1,80,0,0
53221,-76.9230769230769,4,2,1,80,0,0
53671,-83.3333333333333,4,2,1,80,0,0
55621,-76.9230769230769,4,2,1,80,0,0
56071,-83.3333333333333,4,2,1,80,0,0
56821,-76.9230769230769,4,2,1,80,0,0
58471,-83.3333333333333,4,2,1,80,0,0
59221,-76.9230769230769,4,2,1,80,0,0
59521,-83.3333333333333,4,2,1,80,0,0
60421,-74.0740740740741,4,2,1,80,0,0
60871,-83.3333333333333,4,2,1,80,0,0
61396,-83.3333333333333,4,2,1,5,0,0
61471,-83.3333333333333,4,2,1,80,0,0
61546,-83.3333333333333,4,2,1,5,0,0
61621,-83.3333333333333,4,2,1,80,0,0
62821,-76.9230769230769,4,2,1,80,0,0
63271,-83.3333333333333,4,2,1,80,0,0
65146,-83.3333333333333,4,2,1,5,0,0
65221,-76.9230769230769,4,2,1,80,0,0
65671,-83.3333333333333,4,2,1,80,0,0
66421,-76.9230769230769,4,2,1,80,0,0
70021,-83.3333333333333,4,2,1,75,0,0
70321,-90.9090909090909,4,2,1,75,0,0
72421,-80,4,2,1,75,0,0
72721,-90.9090909090909,4,2,1,75,0,0
74821,-80,4,2,1,75,0,0
75121,-90.9090909090909,4,2,1,75,0,0
77146,-90.9090909090909,4,2,1,5,0,0
77221,-80,4,2,1,75,0,0
77521,-90.9090909090909,4,2,1,75,0,0
78571,-90.9090909090909,4,2,1,60,0,0
79621,-83.3333333333333,4,2,1,70,0,0
79921,-100,4,2,1,70,0,0
80746,-100,4,2,1,5,0,0
80821,-100,4,2,1,70,0,0
81946,-100,4,2,1,5,0,0
82021,-83.3333333333333,4,2,1,70,0,0
82321,-100,4,2,1,70,0,0
84346,-100,4,2,1,5,0,0
84421,-86.9565217391304,4,2,1,70,0,0
84721,-100,4,2,1,70,0,0
85546,-100,4,2,1,5,0,0
85621,-100,4,2,1,70,0,0
86746,-100,4,2,1,5,0,0
86821,-83.3333333333333,4,2,1,70,0,0
87121,-100,4,2,1,70,0,0
88021,-76.9230769230769,4,2,1,70,0,0
88246,-76.9230769230769,4,2,1,5,0,0
88321,-76.9230769230769,4,2,1,70,0,0
88546,-76.9230769230769,4,2,1,5,0,0
88621,-76.9230769230769,4,2,1,70,0,0
88846,-76.9230769230769,4,2,1,5,0,0
88921,-76.9230769230769,4,2,1,70,0,0

[Colours]
Combo1 : 122,117,144
Combo2 : 191,130,141
Combo3 : 159,28,52
Combo4 : 128,0,128

[HitObjects]
88,35,571,5,2,0:0:0:0:
181,102,871,1,2,0:0:0:0:
78,190,1171,5,8,0:0:0:0:
75,180,1246,1,8,0:0:0:0:
71,170,1321,1,8,3:0:0:0:
159,232,1471,5,4,3:0:0:0:
109,296,1621,6,0,P|155:262|274:264,1,170.999994781494,6|0,3:2|0:0,0:0:0:0:
265,260,2371,5,0,3:2:0:0:
265,260,2446,1,0,3:2:0:0:
265,260,2521,2,0,P|277:219|294:177,1,76,12|0,0:0|0:0,0:0:0:0:
388,80,2821,6,0,B|304:109|304:109|334:88|342:44,1,142.5,6|0,3:2|0:0,0:0:0:0:
264,45,3121,1,0,3:0:0:0:
400,84,3271,6,0,L|493:119,1,76,8|0,0:0|0:0,0:0:0:0:
480,277,3571,5,8,3:0:0:0:
475,287,3646,5,8,3:0:0:0:
469,296,3721,5,8,0:0:0:0:
436,267,3796,5,8,0:0:0:0:
392,285,3871,5,8,0:0:0:0:
351,256,3946,5,8,0:0:0:0:
286,296,4021,6,0,P|332:259|311:153,1,152,6|0,3:2|3:2,0:0:0:0:
173,69,4471,1,8,0:0:0:0:
247,26,4621,1,0,3:2:0:0:
257,31,4696,1,0,3:2:0:0:
267,35,4771,2,0,L|254:93,1,38,8|8,0:0|0:0,0:0:0:0:
175,167,4921,5,8,3:0:0:0:
133,180,4996,1,8,3:0:0:0:
91,157,5071,2,0,L|94:112,1,38,4|4,3:0|3:0,0:0:0:0:
13,278,5221,6,0,B|48:242|97:254|97:254|115:292|159:302,1,156.750004783631,6|0,3:2|0:0,0:0:0:0:
155,298,5521,1,0,3:2:0:0:
312,181,5671,5,8,0:0:0:0:
324,365,5821,1,4,3:2:0:0:
268,276,5971,1,0,3:2:0:0:
446,356,6121,5,8,0:0:0:0:
446,356,6421,6,0,B|401:316|412:272|412:272|450:258|467:218,1,156.750004783631,6|0,3:2|0:0,0:0:0:0:
462,224,6721,1,0,3:2:0:0:
356,53,6871,5,8,0:0:0:0:
393,149,7021,5,0,3:2:0:0:
351,228,7171,5,8,3:0:0:0:
276,262,7321,5,0,3:2:0:0:
402,142,7471,5,8,0:0:0:0:
264,264,7621,6,0,B|222:262|201:223|201:223|189:266|129:280,1,152,6|0,3:2|0:0,0:0:0:0:
14,93,8071,5,8,0:0:0:0:
109,171,8221,1,0,3:2:0:0:
197,55,8371,5,8,0:0:0:0:
278,16,8521,1,0,3:2:0:0:
180,61,8671,1,8,0:0:0:0:
310,181,8821,5,6,3:2:0:0:
310,181,9121,5,0,3:2:0:0:
277,99,9271,1,8,3:2:0:0:
411,129,9421,1,8,3:2:0:0:
439,278,9571,1,8,0:0:0:0:
309,379,9721,1,8,0:0:0:0:
161,270,9871,1,8,0:0:0:0:
0,375,10021,5,10,0:0:0:0:
74,117,11671,6,0,P|61:70|49:34,1,85.4999973907472,2|0,0:0|0:0,0:0:0:0:
210,42,11971,1,8,0:0:0:0:
196,34,12046,1,8,0:0:0:0:
180,29,12121,6,0,L|164:70,1,42.7499986953736,8|8,0:0|0:0,0:0:0:0:
177,155,12271,2,0,L|161:196,1,42.7499986953736,8|8,0:0|0:0,0:0:0:0:
69,296,12421,6,0,P|125:252|275:268,1,209.000006378174,6|2,3:2|3:2,0:0:0:0:
384,361,12871,2,0,P|351:316|357:271,1,95,10|0,0:0|0:0,0:0:0:0:
474,140,13171,5,2,3:2:0:0:
414,200,13321,1,2,3:2:0:0:
295,75,13471,6,0,P|275:51|272:32,1,47.5,8|0,0:0|0:0,0:0:0:0:
386,72,13621,6,0,B|316:99|316:99|294:141|294:141|206:173,1,190,2|2,3:2|3:2,0:0:0:0:
74,34,14071,2,0,P|127:48|180:63,1,95,10|0,0:0|0:0,0:0:0:0:
29,200,14371,5,2,3:2:0:0:
104,135,14521,1,2,3:2:0:0:
145,274,14671,6,0,P|137:247|125:226,1,47.5,8|0,0:0|0:0,0:0:0:0:
60,351,14821,6,0,B|97:303|160:314|160:314|177:352|225:361,1,185.249991519928,6|0,3:2|0:0,0:0:0:0:
226,360,15121,1,2,3:2:0:0:
322,236,15271,2,0,P|308:187|290:140,1,95,10|2,0:0|0:0,0:0:0:0:
430,299,15571,5,2,3:2:0:0:
333,245,15721,1,2,3:2:0:0:
489,100,15871,1,8,0:0:0:0:
406,100,16021,6,0,P|369:63|224:78,1,190,2|2,3:2|3:2,0:0:0:0:
489,100,16471,5,8,0:0:0:0:
406,100,16621,2,0,P|369:63|224:78,1,190,2|2,0:0|3:2,0:0:0:0:
87,186,17071,6,0,B|113:152|113:152|95:163,1,56.9999982604981,8|0,0:0|0:0,0:0:0:0:
24,130,17221,6,0,B|152:126|86:251|228:247,1,227.999993041992,6|2,3:2|3:2,0:0:0:0:
342,360,17671,2,0,P|305:320|310:260,1,95,10|0,0:0|0:0,0:0:0:0:
434,156,17971,5,2,3:2:0:0:
362,216,18121,1,2,3:2:0:0:
438,345,18271,6,0,B|462:329|462:329|440:331,1,47.5,8|0,0:0|0:0,0:0:0:0:
342,360,18421,6,0,B|307:343|303:299|303:299|268:363|185:355,1,190,2|2,3:2|3:2,0:0:0:0:
113,213,18871,2,0,L|219:244,1,95,10|0,0:0|0:0,0:0:0:0:
28,358,19171,6,0,L|18:305,1,47.5,2|0,3:2|0:0,0:0:0:0:
31,236,19321,2,0,L|21:183,1,47.5,2|0,3:2|0:0,0:0:0:0:
108,78,19471,1,8,0:0:0:0:
41,19,19621,6,0,P|111:58|259:12,1,227.999993041992,6|2,3:2|3:2,0:0:0:0:
428,89,20071,2,0,P|381:120|372:176,1,95,10|2,0:0|0:0,0:0:0:0:
274,291,20371,5,2,3:2:0:0:
366,240,20521,1,2,3:2:0:0:
269,310,20671,1,8,0:0:0:0:
132,153,20821,6,0,B|107:86|29:96|29:96|78:155,1,185.249991519928,2|0,3:2|0:0,0:0:0:0:
197,205,21121,6,0,B|267:216|297:144|297:144|222:157,1,185.249991519928,2|0,3:2|0:0,0:0:0:0:
120,236,21421,6,0,B|74:291|122:353|122:353|148:281,1,185.249991519928,2|0,3:2|0:0,0:0:0:0:
240,293,21721,5,10,0:0:0:0:
263,308,21796,1,8,0:0:0:0:
287,322,21871,2,0,L|262:366,1,47.5,8|8,0:0|0:0,0:0:0:0:
369,249,22021,6,0,B|313:218|327:144|327:144|341:172|375:186,1,170.999994781494,6|0,3:2|3:2,0:0:0:0:
460,119,22471,2,0,P|495:81|504:43,1,85.4999973907472,8|0,0:0|0:0,0:0:0:0:
498,27,22696,1,8,0:0:0:0:
489,18,22771,1,0,3:2:0:0:
360,66,22921,5,2,3:2:0:0:
291,22,23071,1,10,0:0:0:0:
206,115,23221,6,0,B|170:82|170:82|301:117,1,170.999994781494,2|2,3:2|3:2,0:0:0:0:
357,252,23671,2,0,P|335:206|345:171,1,85.4999973907472,8|2,0:0|0:0,0:0:0:0:
359,163,23896,1,8,0:0:0:0:
370,159,23971,1,0,3:2:0:0:
432,310,24121,5,2,3:2:0:0:
365,263,24271,1,8,0:0:0:0:
263,352,24421,6,0,P|194:336|178:235,1,170.999994781494,2|0,3:2|3:2,0:0:0:0:
28,263,24871,2,0,P|74:288|90:335,1,85.4999973907472,8|0,0:0|0:0,0:0:0:0:
124,172,25171,5,0,3:2:0:0:
124,172,25321,1,2,3:2:0:0:
44,103,25471,1,8,0:0:0:0:
171,21,25621,6,0,B|234:39|234:39|258:73|258:73|331:91,1,170.999994781494,2|2,3:2|3:2,0:0:0:0:
435,147,26071,2,0,P|458:105|453:62,1,85.4999973907472,8|0,0:0|0:0,0:0:0:0:
442,55,26296,1,8,0:0:0:0:
432,51,26371,1,0,3:2:0:0:
319,88,26521,1,2,3:2:0:0:
377,219,26671,6,0,P|400:234|423:249,1,42.7499986953736,8|0,0:0|0:0,0:0:0:0:
298,185,26821,6,0,B|205:229|205:229|187:291|244:322,1,209.000006378174,6|0,3:2|3:2,0:0:0:0:
32,357,27271,2,0,L|131:325,1,85.4999973907472,8|0,0:0|0:0,0:0:0:0:
127,323,27496,1,8,0:0:0:0:
133,315,27571,1,0,3:2:0:0:
49,252,27721,5,2,3:2:0:0:
187,144,27871,1,8,0:0:0:0:
124,194,28021,6,0,B|78:153|91:100|91:100|126:78|130:36,1,170.999994781494,2|0,3:2|3:2,0:0:0:0:
255,24,28471,2,0,P|303:57|338:62,1,85.4999973907472,8|0,0:0|0:0,0:0:0:0:
346,60,28696,1,8,0:0:0:0:
356,53,28771,1,0,3:2:0:0:
431,118,28921,5,2,3:2:0:0:
333,202,29071,1,8,0:0:0:0:
460,279,29221,6,0,B|422:271|411:227|411:227|393:280|320:290,1,170.999994781494,2|0,3:2|3:2,0:0:0:0:
215,359,29671,2,0,P|247:324|236:278,1,85.4999973907472,10|2,0:0|0:0,0:0:0:0:
231,278,29896,1,8,0:0:0:0:
221,272,29971,5,0,3:2:0:0:
88,165,30121,1,2,3:2:0:0:
62,261,30271,6,0,L|148:235,1,85.4999973907472,8|2,0:0|3:2,0:0:0:0:
194,177,30496,1,0,3:2:0:0:
202,173,30571,6,0,L|260:182,1,42.7499986953736,8|8,0:0|0:0,0:0:0:0:
361,225,30721,6,0,P|325:156|355:42,1,185.249991519928,2|0,3:2|0:0,0:0:0:0:
366,48,31021,6,0,P|343:136|381:218,1,185.249991519928,2|0,3:2|0:0,0:0:0:0:
399,218,31321,6,0,P|361:135|383:47,1,185.249991519928,2|0,3:2|0:0,0:0:0:0:
256,22,31621,6,0,B|183:55|183:55|163:99|163:99|84:129,1,199.499993911743,6|0,3:2|3:2,0:0:0:0:
19,230,32071,2,0,L|112:257,1,85.4999973907472,8|0,0:0|0:0,0:0:0:0:
121,251,32296,1,8,0:0:0:0:
131,245,32371,1,0,3:2:0:0:
201,320,32521,5,2,3:2:0:0:
315,241,32671,1,8,0:0:0:0:
391,355,32821,6,0,B|294:321|294:321|340:325|368:307,1,170.999994781494,2|2,3:2|3:2,0:0:0:0:
440,231,33271,2,0,P|459:189|479:146,1,85.4999973907472,8|2,0:0|0:0,0:0:0:0:
479,132,33496,1,8,0:0:0:0:
471,121,33571,1,0,3:2:0:0:
400,42,33721,5,2,3:2:0:0:
264,153,33871,1,8,0:0:0:0:
208,85,34021,6,0,P|271:133|364:100,1,170.999994781494,2|0,3:2|3:2,0:0:0:0:
198,75,34471,2,0,L|103:104,1,85.4999973907472,8|2,0:0|0:0,0:0:0:0:
100,112,34696,1,8,0:0:0:0:
95,121,34771,5,2,3:2:0:0:
28,183,34921,1,2,3:2:0:0:
130,232,35071,1,8,0:0:0:0:
25,355,35221,6,0,B|61:307|118:320|118:320|136:351|171:363,1,170.999994781494,2|2,3:2|3:2,0:0:0:0:
274,306,35671,2,0,P|322:283|346:231,1,85.4999973907472,8|0,0:0|0:0,0:0:0:0:
333,237,35896,1,8,0:0:0:0:
324,228,35971,1,0,3:2:0:0:
257,154,36121,1,2,3:2:0:0:
362,68,36271,6,0,B|379:42|379:42|362:52,1,42.7499986953736,8|0,0:0|0:0,0:0:0:0:
292,26,36421,6,0,B|377:52|377:52|402:97|402:97|501:119,1,209.000006378174,6|0,3:2|3:2,0:0:0:0:
495,227,36871,2,0,P|451:239|405:257,1,85.4999973907472,8|2,0:0|0:0,0:0:0:0:
401,265,37096,1,8,0:0:0:0:
393,274,37171,1,2,3:2:0:0:
330,337,37321,5,2,3:2:0:0:
198,257,37471,1,8,0:0:0:0:
134,308,37621,6,0,P|78:309|43:197,1,170.999994781494,2|0,3:2|3:2,0:0:0:0:
125,118,38071,2,0,L|213:143,1,85.4999973907472,8|0,0:0|0:0,0:0:0:0:
229,142,38296,1,8,0:0:0:0:
237,134,38371,5,2,3:2:0:0:
211,49,38521,1,2,3:2:0:0:
116,124,38671,1,8,0:0:0:0:
230,38,38821,6,0,B|356:83|356:83|316:59|310:28,1,209.000006378174,6|0,3:2|3:2,0:0:0:0:
475,34,39271,1,10,0:0:0:0:
475,34,39571,5,2,3:2:0:0:
431,104,39721,1,2,3:2:0:0:
477,171,39871,1,8,0:0:0:0:
417,101,40021,6,0,B|333:118|333:118|307:154|307:154|221:169,1,209.000006378174,6|2,3:2|3:2,0:0:0:0:
85,306,40471,5,8,0:0:0:0:
140,197,40621,1,2,3:2:0:0:
258,349,40771,5,8,0:0:0:0:
148,206,40921,1,2,3:2:0:0:
340,151,41071,5,8,0:0:0:0:
414,193,41221,6,0,P|451:156|433:45,1,170.999994781494,6|0,3:2|3:2,0:0:0:0:
435,47,41971,6,0,P|398:59|370:61,1,56.9999982604981,2|2,3:2|0:0,0:0:0:0:
300,45,42271,2,0,P|261:36|236:24,1,56.9999982604981,0|2,3:2|0:0,0:0:0:0:
167,23,42496,1,2,0:0:0:0:
161,20,42571,6,0,P|123:27|89:43,1,66.4999979705811,0|2,3:2|0:0,0:0:0:0:
31,105,42871,1,0,3:2:0:0:
31,105,43171,6,0,L|44:185,1,66.4999979705811,2|0,3:2|0:0,0:0:0:0:
105,244,43471,2,0,L|92:324,1,66.4999979705811,2|2,3:2|0:0,0:0:0:0:
203,354,43771,6,0,P|250:352|285:334,1,76,0|2,3:2|0:0,0:0:0:0:
341,266,44071,1,0,3:2:0:0:
428,343,44221,1,2,0:0:0:0:
433,347,44296,1,2,0:0:0:0:
438,351,44371,2,0,L|462:265,1,76,2|0,3:2|0:0,0:0:0:0:
389,182,44671,2,0,P|347:157|321:125,1,76,2|2,3:2|0:0,0:0:0:0:
415,83,44971,2,0,P|415:34|430:-4,1,76,0|2,3:2|0:0,0:0:0:0:
480,151,45271,1,0,3:2:0:0:
324,67,45421,5,8,0:0:0:0:
324,67,45496,1,8,0:0:0:0:
324,67,45571,1,8,0:0:0:0:
480,151,45721,1,10,0:0:0:0:
395,308,45871,1,8,0:0:0:0:
239,223,46021,6,0,P|186:219|110:323,1,156.750004783631,6|0,3:2|0:0,0:0:0:0:
113,297,46321,1,8,0:0:0:0:
26,212,46471,6,0,L|19:166,1,42.7499986953736,0|0,3:2|0:0,0:0:0:0:
62,103,46621,2,0,L|55:57,1,42.7499986953736,0|0,3:2|0:0,0:0:0:0:
145,148,46771,6,0,P|197:170|301:113,1,170.999994781494,10|0,0:0|3:2,0:0:0:0:
401,64,47221,2,0,B|496:120|496:120|462:107|427:118,1,170.999994781494,2|10,3:2|0:0,0:0:0:0:
377,221,47671,5,0,3:2:0:0:
377,221,47821,1,0,3:2:0:0:
323,144,47971,5,10,0:0:0:0:
469,212,48121,1,2,3:2:0:0:
342,304,48271,1,10,0:0:0:0:
270,264,48421,6,0,B|202:281|202:281|182:315|182:315|100:335,1,170.999994781494,6|2,3:2|3:2,0:0:0:0:
15,223,48871,2,0,L|114:249,1,85.4999973907472,10|0,0:0|0:0,0:0:0:0:
212,114,49171,5,0,3:2:0:0:
142,175,49321,1,0,3:2:0:0:
220,107,49471,5,8,0:0:0:0:
67,26,49621,1,4,3:2:0:0:
198,26,49921,5,8,0:0:0:0:
231,14,49996,1,8,0:0:0:0:
260,32,50071,1,8,0:0:0:0:
296,14,50146,1,8,0:0:0:0:
341,32,50221,1,2,3:2:0:0:
387,164,50521,6,0,B|366:145|371:123|371:123|380:135|396:144,1,71.25,2|0,0:0|0:0,0:0:0:0:
464,158,50821,6,0,B|481:136|481:136|376:166|376:166|364:237|426:266,1,246.999988693238,6|0,3:1|3:2,0:0:0:0:
212,309,51271,1,10,0:0:0:0:
272,366,51421,2,0,P|296:311|276:260,1,113.999996520996,2|0,0:0|3:2,0:0:0:0:
104,199,51721,6,0,P|81:216|42:225,1,56.9999982604981,2|0,3:2|0:0,0:0:0:0:
21,149,51871,2,0,P|44:132|83:123,1,56.9999982604981,8|0,0:0|0:0,0:0:0:0:
187,226,52021,6,0,P|128:169|157:35,1,227.999993041992,2|2,3:2|3:2,0:0:0:0:
366,74,52471,1,8,0:0:0:0:
284,17,52621,5,2,0:0:0:0:
377,81,52771,1,2,3:2:0:0:
249,153,52921,1,2,3:2:0:0:
412,247,53071,1,8,0:0:0:0:
207,360,53221,6,0,B|190:331|156:317|156:317|204:268|284:269|320:334,1,246.999988693238,6|2,3:2|3:2,0:0:0:0:
391,356,53596,1,0,3:0:0:0:
408,342,53671,1,10,0:0:0:0:
335,203,53821,2,0,P|350:142|366:86,1,113.999996520996,2|0,0:0|3:2,0:0:0:0:
184,50,54121,5,2,3:2:0:0:
326,211,54271,1,8,0:0:0:0:
252,255,54421,6,0,P|177:252|127:116,1,227.999993041992,2|2,3:2|3:2,0:0:0:0:
53,277,54871,1,10,0:0:0:0:
53,277,55171,5,0,3:2:0:0:
211,174,55321,1,2,3:2:0:0:
223,340,55471,1,8,0:0:0:0:
71,147,55621,6,0,B|5:83|58:-10|58:-10|56:36|89:67,1,246.999988693238,6|2,3:2|3:2,0:0:0:0:
245,15,56071,5,10,0:0:0:0:
171,75,56221,1,2,0:0:0:0:
356,162,56371,5,2,3:2:0:0:
265,112,56521,1,0,3:2:0:0:
260,207,56671,1,10,0:0:0:0:
104,253,56821,6,0,P|222:277|303:397,1,246.999988693238,6|0,3:2|3:2,0:0:0:0:
260,207,57271,1,10,0:0:0:0:
153,68,57421,6,0,P|228:163|346:188,1,246.999988693238,6|2,3:2|3:2,0:0:0:0:
146,57,57871,1,8,0:0:0:0:
23,290,58021,6,0,P|137:252|267:315,1,246.999988693238,6|0,3:2|3:2,0:0:0:0:
14,298,58471,1,8,0:0:0:0:
14,298,58771,5,2,3:2:0:0:
139,213,58921,1,2,3:2:0:0:
48,41,59071,1,10,0:0:0:0:
0,113,59221,6,0,B|45:43|126:64|126:64|144:121|217:128,1,246.999988693238,6|2,3:2|3:2,0:0:0:0:
348,9,59671,2,0,P|287:24|232:45,1,113.999996520996,8|2,0:0|0:0,0:0:0:0:
390,155,59971,5,8,0:0:0:0:
415,166,60046,1,8,0:0:0:0:
442,159,60121,2,0,L|459:99,1,56.9999982604981,8|8,0:0|0:0,0:0:0:0:
483,263,60271,1,8,0:0:0:0:
445,305,60346,1,8,0:0:0:0:
456,368,60421,6,0,B|357:338|357:338|326:283|326:283|204:254,1,256.50000097847,6|0,3:1|3:2,0:0:0:0:
28,326,60871,1,10,0:0:0:0:
130,380,61021,2,0,L|96:261,1,113.999996520996,2|0,0:0|3:2,0:0:0:0:
15,105,61321,6,0,P|48:131|83:134,1,56.9999982604981,2|0,3:2|0:0,0:0:0:0:
134,91,61471,2,0,P|167:65|202:62,1,56.9999982604981,8|0,0:0|0:0,0:0:0:0:
326,181,61621,6,0,B|275:178|252:125|252:125|234:205|154:230,1,227.999993041992,2|2,3:2|3:2,0:0:0:0:
333,102,62071,1,8,0:0:0:0:
289,28,62221,5,2,0:0:0:0:
408,24,62371,1,2,3:2:0:0:
485,136,62521,1,2,3:2:0:0:
434,278,62671,1,8,0:0:0:0:
331,231,62821,6,0,B|392:201|392:201|307:271|340:380,1,246.999988693238,6|2,3:2|3:2,0:0:0:0:
167,214,63271,1,10,0:0:0:0:
129,320,63421,2,0,P|183:301|242:284,1,113.999996520996,2|0,0:0|3:2,0:0:0:0:
71,133,63721,5,2,3:2:0:0:
167,202,63871,1,8,0:0:0:0:
299,37,64021,6,0,B|256:111|166:102|166:102|214:80|231:32,1,227.999993041992,2|2,3:2|3:2,0:0:0:0:
403,26,64471,2,0,P|466:45|495:84,1,113.999996520996,8|0,0:0|0:0,0:0:0:0:
345,203,64771,5,0,3:2:0:0:
420,132,64921,1,0,3:2:0:0:
436,340,65071,6,0,B|417:307|417:307|430:319|445:324,1,56.9999982604981,10|0,0:0|0:0,0:0:0:0:
494,267,65221,6,0,B|373:263|429:388|268:375,1,246.999988693238,6|0,3:2|3:2,0:0:0:0:
123,318,65671,1,10,0:0:0:0:
17,361,65821,2,0,P|69:337|148:308,1,113.999996520996,2|0,0:0|3:2,0:0:0:0:
274,262,66121,1,0,3:2:0:0:
176,111,66271,1,10,0:0:0:0:
393,201,66421,6,0,P|331:219|167:115,1,246.999988693238,6|0,3:2|3:2,0:0:0:0:
469,120,66871,1,10,0:0:0:0:
469,120,66946,1,2,0:0:0:0:
469,120,67021,6,0,P|433:173|241:199,1,246.999988693238,6|0,3:2|3:2,0:0:0:0:
473,12,67471,1,10,0:0:0:0:
473,12,67546,1,2,0:0:0:0:
473,12,67621,6,0,P|479:75|350:218,1,246.999988693238,6|0,3:2|3:2,0:0:0:0:
362,67,68071,5,8,0:0:0:0:
509,231,68221,1,0,3:2:0:0:
302,320,68371,5,8,0:0:0:0:
402,180,68521,1,0,3:2:0:0:
294,333,68671,1,8,0:0:0:0:
223,293,68821,6,0,B|68:331|68:331|115:306|142:249,1,246.999988693238,4|0,3:2|3:2,0:0:0:0:
27,159,69271,1,8,0:0:0:0:
27,159,69571,5,8,0:0:0:0:
56,179,69646,5,8,0:0:0:0:
103,188,69721,5,10,0:0:0:0:
151,158,69796,5,8,0:0:0:0:
168,103,69871,5,8,0:0:0:0:
133,53,69946,5,8,0:0:0:0:
59,61,70021,6,0,B|148:48|148:48|176:5|176:5|288:0,1,227.999993041992,6|0,3:1|3:2,0:0:0:0:
354,150,70471,2,0,P|310:113|308:58,1,104.500003189087,10|0,0:0|0:0,0:0:0:0:
417,10,70771,2,0,P|461:47|463:102,1,104.500003189087,2|0,3:2|3:2,0:0:0:0:
305,69,71071,1,10,0:0:0:0:
474,225,71221,6,0,B|441:162|372:175|372:175|355:221|297:227,1,209.000006378174,2|2,3:2|3:2,0:0:0:0:
145,328,71671,2,0,L|251:359,1,104.500003189087,8|0,0:0|0:0,0:0:0:0:
94,235,71971,1,0,3:2:0:0:
136,320,72121,1,2,3:2:0:0:
8,228,72271,1,8,0:0:0:0:
201,152,72421,6,0,P|118:141|61:-14,1,237.5,6|0,3:2|3:2,0:0:0:0:
237,29,72871,2,0,P|292:44|349:70,1,104.500003189087,10|0,0:0|0:0,0:0:0:0:
458,150,73171,5,2,3:2:0:0:
458,150,73321,1,0,3:2:0:0:
316,252,73471,1,10,0:0:0:0:
496,371,73621,6,0,B|386:306|386:306|433:321|475:305,1,209.000006378174,2|2,3:2|3:2,0:0:0:0:
316,252,74071,2,0,P|261:267|192:291,1,104.500003189087,8|0,0:0|0:0,0:0:0:0:
48,272,74371,5,0,3:2:0:0:
125,354,74521,1,2,3:2:0:0:
34,265,74671,1,8,0:0:0:0:
186,165,74821,6,0,B|95:149|106:55|106:55|131:102|190:114,1,237.5,6|0,3:2|3:2,0:0:0:0:
333,26,75271,2,0,P|290:68|270:118,1,104.500003189087,10|0,0:0|0:0,0:0:0:0:
442,204,75571,2,0,P|399:162|379:112,1,104.500003189087,2|0,3:2|3:2,0:0:0:0:
240,308,75871,1,10,0:0:0:0:
311,362,76021,6,0,B|388:342|388:342|405:302|405:302|513:270,1,209.000006378174,2|2,3:2|3:2,0:0:0:0:
325,155,76471,2,0,P|302:207|327:266,1,104.500003189087,8|0,0:0|0:0,0:0:0:0:
218,67,76771,1,0,3:2:0:0:
317,147,76921,1,2,3:2:0:0:
151,259,77071,6,0,P|130:240|123:202,1,52.2500015945435,8|0,0:0|0:0,0:0:0:0:
237,299,77221,6,0,B|143:268|94:352|94:352|136:328|192:348,1,237.5,6|8,3:2|3:2,0:0:0:0:
31,121,77671,5,10,3:2:0:0:
151,259,77821,1,8,3:2:0:0:
289,139,77971,1,10,3:2:0:0:
169,1,78121,1,8,3:2:0:0:
286,150,78271,1,10,3:2:0:0:
406,12,78421,1,2,3:2:0:0:
488,84,78571,5,8,0:0:0:0:
482,69,78646,1,8,0:0:0:0:
476,54,78721,1,2,3:2:0:0:
368,185,78871,5,8,0:0:0:0:
377,164,78946,1,8,0:0:0:0:
386,142,79021,1,2,3:2:0:0:
391,284,79171,5,8,0:0:0:0:
433,306,79246,1,8,0:0:0:0:
480,285,79321,2,0,L|498:230,1,52.2500015945435,2|0,3:2|0:0,0:0:0:0:
365,359,79471,5,8,0:0:0:0:
316,336,79546,1,8,0:0:0:0:
263,357,79621,6,0,B|219:294|142:307|142:307|122:353|70:360,1,227.999993041992,6|2,3:2|3:2,0:0:0:0:
0,219,80071,2,0,P|47:191|98:192,1,95,14|0,0:0|0:0,0:0:0:0:
190,46,80371,5,2,3:2:0:0:
132,107,80521,1,2,3:2:0:0:
257,181,80671,2,0,P|243:160|232:127,1,47.5,8|0,0:0|0:0,0:0:0:0:
372,169,80821,6,0,P|273:208|198:265,1,190,2|2,3:2|3:2,0:0:0:0:
60,363,81271,2,0,P|92:319|81:273,1,95,10|0,0:0|0:0,0:0:0:0:
22,239,81496,1,8,0:0:0:0:
7,249,81571,1,2,3:2:0:0:
115,157,81721,1,2,3:2:0:0:
254,278,81871,6,0,B|233:301|233:301|239:282,1,47.5,8|0,0:0|0:0,0:0:0:0:
163,258,82021,6,0,B|240:284|240:284|266:335|266:335|375:372,1,227.999993041992,6|2,3:2|3:2,0:0:0:0:
493,212,82471,2,0,P|446:224|381:242,1,95,10|2,0:0|0:0,0:0:0:0:
328,207,82696,1,8,0:0:0:0:
316,194,82771,5,2,3:2:0:0:
190,115,82921,1,2,3:2:0:0:
83,280,83071,1,8,0:0:0:0:
11,226,83221,6,0,P|103:250|180:186,1,190,2|2,3:2|3:2,0:0:0:0:
83,280,83671,5,8,0:0:0:0:
11,226,83821,2,0,P|103:250|180:186,1,190,2|2,0:0|3:2,0:0:0:0:
299,56,84271,6,0,P|277:34|270:2,1,47.5,8|0,0:0|0:0,0:0:0:0:
388,64,84421,6,0,B|271:106|271:106|251:166|309:200,1,218.500004167557,6|2,3:2|3:2,0:0:0:0:
404,356,84871,2,0,P|429:302|405:264,1,95,10|0,0:0|0:0,0:0:0:0:
477,114,85171,5,2,3:2:0:0:
401,177,85321,1,2,3:2:0:0:
268,57,85471,6,0,B|245:33|245:33|265:43,1,47.5,8|0,0:0|0:0,0:0:0:0:
350,53,85621,6,0,B|275:76|275:76|256:112|256:112|163:139,1,190,2|2,3:2|3:2,0:0:0:0:
27,25,86071,2,0,P|78:43|105:89,1,95,10|0,0:0|0:0,0:0:0:0:
18,236,86371,5,2,3:2:0:0:
81,158,86521,1,2,3:2:0:0:
182,291,86671,6,0,P|160:270|150:238,1,47.5,8|0,0:0|0:0,0:0:0:0:
263,304,86821,6,0,P|191:313|44:379,1,227.999993041992,6|2,3:2|3:2,0:0:0:0:
227,182,87271,2,0,L|331:219,1,95,10|2,0:0|3:2,0:0:0:0:
394,187,87496,5,0,3:2:0:0:
409,180,87571,2,0,L|426:128,1,47.5,8|8,0:0|0:0,0:0:0:0:
506,293,87721,5,8,0:0:0:0:
472,323,87796,1,8,0:0:0:0:
434,301,87871,1,8,0:0:0:0:
443,258,87946,1,8,0:0:0:0:
487,253,88021,6,0,P|389:275|306:324,1,185.249991519928,2|0,3:2|0:0,0:0:0:0:
258,207,88321,6,0,P|356:185|439:136,1,185.249991519928,2|0,3:2|0:0,0:0:0:0:
494,265,88621,6,0,P|396:287|313:336,1,185.249991519928,2|0,3:2|0:0,0:0:0:0:
430,144,88921,5,2,3:2:0:0:
