osu file format v14

[General]
AudioFilename: audio.mp3
AudioLeadIn: 0
PreviewTime: 51520
Countdown: 1
SampleSet: Soft
StackLeniency: 0.7
Mode: 3
LetterboxInBreaks: 0
SpecialStyle: 0
WidescreenStoryboard: 0

[Editor]
DistanceSpacing: 0.8
BeatDivisor: 4
GridSize: 4
TimelineZoom: 4.7

[Metadata]
Title:GATE II ~Sekai wo Koete~
TitleUnicode:GATE Ⅱ ~世界を超えて~
Artist:KISIDA KYODAN & THE AKEBOSI ROCKETS
ArtistUnicode:岸田教団&THE 明星ロケッツ
Creator:Niima
Version:GATE
Source:GATE自衛隊 彼の地にて、斯く戦えり「炎龍編」
Tags:Pikobaka
BeatmapID:1073146
BeatmapSetID:504373

[Difficulty]
HPDrainRate:8
CircleSize:4
OverallDifficulty:0
ApproachRate:5
SliderMultiplier:1.4
SliderTickRate:1

[Events]
//Background and Video events
0,0,"54662_gate_rory_mercury.jpg",0,0
//Break Periods
//Storyboard Layer 0 (Background)
//Storyboard Layer 1 (Fail)
//Storyboard Layer 2 (Pass)
//Storyboard Layer 3 (Foreground)
//Storyboard Sound Samples

[TimingPoints]
-470,291.26213592233,4,2,0,0,1,0
4208,-10,4,2,0,0,0,0
4918,-133.333333333333,4,2,0,0,0,0
4991,-10000,4,2,0,0,0,0
5209,-83.3333333333333,4,2,0,0,0,0
5355,-100,4,2,0,0,0,0
5646,-100,4,2,0,0,0,0
12636,-100,4,2,0,0,0,0
42054,-400,4,2,0,0,0,0
42199,-50,4,2,0,0,0,0
42345,-400,4,2,0,0,0,0
42491,-50,4,2,0,0,0,0
42636,-100,4,2,0,0,0,0
51520,-400,4,2,0,0,0,0
51811,-50,4,2,0,0,0,0
51957,-100,4,2,0,0,0,0
51957,-100,4,2,0,0,0,1
70597,-100,4,2,0,0,0,0
88656,-400,4,2,0,0,0,0
88801,-50,4,2,0,0,0,0

[HitObjects]
64,192,185,5,0,0:0:0:0:
192,192,258,1,0,0:0:0:0:
448,192,330,1,0,0:0:0:0:
320,192,330,1,0,0:0:0:0:
64,192,403,1,0,0:0:0:0:
192,192,476,1,0,0:0:0:0:
320,192,549,1,0,0:0:0:0:
448,192,549,1,0,0:0:0:0:
448,192,622,1,0,0:0:0:0:
320,192,622,1,0,0:0:0:0:
192,192,695,1,0,0:0:0:0:
448,192,767,1,0,0:0:0:0:
64,192,767,1,0,0:0:0:0:
320,192,840,1,0,0:0:0:0:
192,192,913,1,0,0:0:0:0:
64,192,913,1,0,0:0:0:0:
320,192,986,1,0,0:0:0:0:
448,192,986,1,0,0:0:0:0:
64,192,1059,1,0,0:0:0:0:
192,192,1059,1,0,0:0:0:0:
448,192,1131,1,0,0:0:0:0:
192,192,1204,1,0,0:0:0:0:
320,192,1204,1,0,0:0:0:0:
64,192,1277,1,0,0:0:0:0:
64,192,1350,1,0,0:0:0:0:
320,192,1350,1,0,0:0:0:0:
448,192,1350,1,0,0:0:0:0:
192,192,1423,1,0,0:0:0:0:
320,192,1496,1,0,0:0:0:0:
448,192,1568,1,0,0:0:0:0:
64,192,1641,1,0,0:0:0:0:
192,192,1641,1,0,0:0:0:0:
64,192,1714,1,0,0:0:0:0:
192,192,1714,1,0,0:0:0:0:
448,192,1714,1,0,0:0:0:0:
320,192,1787,1,0,0:0:0:0:
192,192,1860,1,0,0:0:0:0:
320,192,1932,1,0,0:0:0:0:
448,192,1932,1,0,0:0:0:0:
320,192,2005,1,0,0:0:0:0:
448,192,2005,1,0,0:0:0:0:
64,192,2005,1,0,0:0:0:0:
192,192,2078,1,0,0:0:0:0:
320,192,2151,1,0,0:0:0:0:
448,192,2224,1,0,0:0:0:0:
320,192,2224,1,0,0:0:0:0:
64,192,2296,1,0,0:0:0:0:
192,192,2296,1,0,0:0:0:0:
448,192,2369,1,0,0:0:0:0:
192,192,2442,1,0,0:0:0:0:
64,192,2442,1,0,0:0:0:0:
320,192,2515,1,0,0:0:0:0:
192,192,2588,1,0,0:0:0:0:
64,192,2661,1,0,0:0:0:0:
320,192,2733,1,0,0:0:0:0:
448,192,2733,1,0,0:0:0:0:
64,192,2806,1,0,0:0:0:0:
448,192,2879,1,0,0:0:0:0:
320,192,2879,1,0,0:0:0:0:
192,192,2952,1,0,0:0:0:0:
320,192,3025,1,0,0:0:0:0:
64,192,3025,1,0,0:0:0:0:
448,192,3097,1,0,0:0:0:0:
64,192,3170,1,0,0:0:0:0:
320,192,3170,1,0,0:0:0:0:
448,192,3170,1,0,0:0:0:0:
192,192,3243,1,0,0:0:0:0:
320,192,3316,1,0,0:0:0:0:
192,192,3389,1,0,0:0:0:0:
64,192,3462,128,0,3680:0:0:0:0:
320,192,3462,128,0,3680:0:0:0:0:
448,192,3462,128,0,3680:0:0:0:0:
192,192,3462,128,0,3680:0:0:0:0:
64,192,3753,1,0,0:0:0:0:
192,192,3753,1,0,0:0:0:0:
320,192,3826,1,0,0:0:0:0:
448,192,3826,1,0,0:0:0:0:
192,192,3898,1,0,0:0:0:0:
64,192,3898,1,0,0:0:0:0:
320,192,3971,1,0,0:0:0:0:
448,192,3971,1,0,0:0:0:0:
192,192,4044,1,0,0:0:0:0:
64,192,4044,1,0,0:0:0:0:
320,192,4117,1,0,0:0:0:0:
448,192,4117,1,0,0:0:0:0:
320,192,4190,128,0,5355:0:0:0:0:
192,192,4190,1,0,0:0:0:0:
64,192,4190,1,0,0:0:0:0:
192,192,5209,128,0,5355:0:0:0:0:
64,192,5209,128,0,5355:0:0:0:0:
448,192,5355,128,0,5646:0:0:0:0:
192,192,5646,1,0,0:0:0:0:
64,192,5646,128,0,5719:0:0:0:0:
320,192,5719,1,0,0:0:0:0:
448,192,5792,1,0,0:0:0:0:
192,192,5792,128,0,5864:0:0:0:0:
64,192,5864,1,0,0:0:0:0:
192,192,5937,1,0,0:0:0:0:
320,192,5937,128,0,6010:0:0:0:0:
448,192,6010,1,0,0:0:0:0:
192,192,6083,1,0,0:0:0:0:
64,192,6083,128,0,6156:0:0:0:0:
320,192,6156,1,0,0:0:0:0:
192,192,6229,1,0,0:0:0:0:
448,192,6229,128,0,6301:0:0:0:0:
320,192,6301,1,0,0:0:0:0:
64,192,6374,1,0,0:0:0:0:
192,192,6374,128,0,6520:0:0:0:0:
448,192,6374,1,0,0:0:0:0:
320,192,6447,1,0,0:0:0:0:
64,192,6520,128,0,6811:0:0:0:0:
448,192,6520,1,0,0:0:0:0:
320,192,6811,1,0,0:0:0:0:
448,192,6811,128,0,6884:0:0:0:0:
192,192,6884,1,0,0:0:0:0:
64,192,6957,1,0,0:0:0:0:
320,192,6957,128,0,7029:0:0:0:0:
448,192,7029,1,0,0:0:0:0:
320,192,7102,1,0,0:0:0:0:
192,192,7102,128,0,7175:0:0:0:0:
64,192,7175,1,0,0:0:0:0:
320,192,7248,1,0,0:0:0:0:
448,192,7248,128,0,7321:0:0:0:0:
192,192,7321,1,0,0:0:0:0:
320,192,7394,1,0,0:0:0:0:
64,192,7394,128,0,7466:0:0:0:0:
192,192,7466,1,0,0:0:0:0:
448,192,7539,1,0,0:0:0:0:
320,192,7539,128,0,7685:0:0:0:0:
64,192,7539,1,0,0:0:0:0:
192,192,7612,1,0,0:0:0:0:
64,192,7685,1,0,0:0:0:0:
448,192,7685,128,0,7976:0:0:0:0:
192,192,7976,1,0,0:0:0:0:
64,192,7976,128,0,8049:0:0:0:0:
320,192,8049,1,0,0:0:0:0:
64,192,8122,1,0,0:0:0:0:
192,192,8122,128,0,8195:0:0:0:0:
448,192,8122,1,0,0:0:0:0:
320,192,8195,1,0,0:0:0:0:
64,192,8267,128,0,8340:0:0:0:0:
448,192,8267,1,0,0:0:0:0:
192,192,8340,1,0,0:0:0:0:
320,192,8413,1,0,0:0:0:0:
448,192,8413,128,0,8486:0:0:0:0:
64,192,8486,1,0,0:0:0:0:
192,192,8559,128,0,8631:0:0:0:0:
320,192,8559,1,0,0:0:0:0:
64,192,8631,1,0,0:0:0:0:
320,192,8704,128,0,8777:0:0:0:0:
448,192,8704,1,0,0:0:0:0:
192,192,8704,1,0,0:0:0:0:
64,192,8777,1,0,0:0:0:0:
192,192,8850,128,0,8996:0:0:0:0:
448,192,8850,1,0,0:0:0:0:
320,192,8923,1,0,0:0:0:0:
448,192,8996,1,0,0:0:0:0:
64,192,8996,1,0,0:0:0:0:
320,192,9068,1,0,0:0:0:0:
192,192,9141,1,0,0:0:0:0:
64,192,9141,128,0,9287:0:0:0:0:
320,192,9214,1,0,0:0:0:0:
192,192,9287,1,0,0:0:0:0:
448,192,9287,1,0,0:0:0:0:
320,192,9360,1,0,0:0:0:0:
192,192,9432,1,0,0:0:0:0:
64,192,9432,1,0,0:0:0:0:
448,192,9432,128,0,9578:0:0:0:0:
320,192,9505,1,0,0:0:0:0:
64,192,9578,1,0,0:0:0:0:
192,192,9578,1,0,0:0:0:0:
320,192,9651,1,0,0:0:0:0:
448,192,9651,1,0,0:0:0:0:
64,192,9724,1,0,0:0:0:0:
192,192,9724,1,0,0:0:0:0:
320,192,9796,1,0,0:0:0:0:
448,192,9796,1,0,0:0:0:0:
192,192,9869,1,0,0:0:0:0:
64,192,9869,1,0,0:0:0:0:
320,192,9942,1,0,0:0:0:0:
448,192,9942,1,0,0:0:0:0:
64,192,10015,128,0,10306:0:0:0:0:
320,192,10015,1,0,0:0:0:0:
448,192,10015,1,0,0:0:0:0:
320,192,10306,1,0,0:0:0:0:
448,192,10306,128,0,10379:0:0:0:0:
192,192,10379,1,0,0:0:0:0:
64,192,10452,1,0,0:0:0:0:
320,192,10452,128,0,10525:0:0:0:0:
448,192,10525,1,0,0:0:0:0:
320,192,10597,1,0,0:0:0:0:
192,192,10597,128,0,10670:0:0:0:0:
64,192,10670,1,0,0:0:0:0:
320,192,10743,1,0,0:0:0:0:
448,192,10743,128,0,10816:0:0:0:0:
192,192,10816,1,0,0:0:0:0:
320,192,10889,1,0,0:0:0:0:
64,192,10889,128,0,10962:0:0:0:0:
192,192,10962,1,0,0:0:0:0:
448,192,11034,1,0,0:0:0:0:
320,192,11034,128,0,11180:0:0:0:0:
64,192,11034,1,0,0:0:0:0:
192,192,11107,1,0,0:0:0:0:
448,192,11180,128,0,11471:0:0:0:0:
64,192,11180,1,0,0:0:0:0:
192,192,11471,1,0,0:0:0:0:
64,192,11471,128,0,11544:0:0:0:0:
320,192,11544,1,0,0:0:0:0:
448,192,11617,1,0,0:0:0:0:
192,192,11617,128,0,11690:0:0:0:0:
64,192,11690,1,0,0:0:0:0:
192,192,11763,1,0,0:0:0:0:
320,192,11763,128,0,11835:0:0:0:0:
448,192,11835,1,0,0:0:0:0:
192,192,11908,1,0,0:0:0:0:
64,192,11908,128,0,11981:0:0:0:0:
320,192,11981,1,0,0:0:0:0:
448,192,12054,128,0,12127:0:0:0:0:
192,192,12054,1,0,0:0:0:0:
320,192,12127,1,0,0:0:0:0:
64,192,12199,1,0,0:0:0:0:
192,192,12199,128,0,12345:0:0:0:0:
448,192,12199,1,0,0:0:0:0:
320,192,12272,1,0,0:0:0:0:
448,192,12345,1,0,0:0:0:0:
64,192,12345,128,0,12636:0:0:0:0:
320,192,12636,1,0,0:0:0:0:
448,192,12636,128,0,12709:0:0:0:0:
192,192,12709,1,0,0:0:0:0:
448,192,12782,1,0,0:0:0:0:
320,192,12782,128,0,12855:0:0:0:0:
64,192,12782,1,0,0:0:0:0:
192,192,12855,1,0,0:0:0:0:
448,192,12928,128,0,13000:0:0:0:0:
64,192,12928,1,0,0:0:0:0:
320,192,13000,1,0,0:0:0:0:
192,192,13073,1,0,0:0:0:0:
64,192,13073,128,0,13146:0:0:0:0:
448,192,13146,1,0,0:0:0:0:
320,192,13219,128,0,13292:0:0:0:0:
192,192,13219,1,0,0:0:0:0:
448,192,13292,1,0,0:0:0:0:
192,192,13364,128,0,13437:0:0:0:0:
64,192,13364,1,0,0:0:0:0:
320,192,13437,1,0,0:0:0:0:
64,192,13510,128,0,13583:0:0:0:0:
192,192,13510,128,0,13583:0:0:0:0:
448,192,13510,128,0,13656:0:0:0:0:
192,192,13656,1,0,0:0:0:0:
64,192,13656,1,0,0:0:0:0:
320,192,13656,1,0,0:0:0:0:
320,192,13801,1,0,0:0:0:0:
448,192,13801,128,0,13947:0:0:0:0:
64,192,13801,128,0,13874:0:0:0:0:
192,192,13874,1,0,0:0:0:0:
320,192,13947,1,0,0:0:0:0:
64,192,13947,1,0,0:0:0:0:
192,192,14020,1,0,0:0:0:0:
64,192,14093,128,0,14238:0:0:0:0:
320,192,14093,128,0,14165:0:0:0:0:
448,192,14093,128,0,14165:0:0:0:0:
448,192,14238,1,0,0:0:0:0:
320,192,14238,1,0,0:0:0:0:
192,192,14238,1,0,0:0:0:0:
192,192,14384,1,0,0:0:0:0:
64,192,14384,1,0,0:0:0:0:
448,192,14384,128,0,14675:0:0:0:0:
192,192,14675,1,0,0:0:0:0:
64,192,14675,1,0,0:0:0:0:
64,192,14821,1,0,0:0:0:0:
192,192,14966,1,0,0:0:0:0:
448,192,15112,128,0,15258:0:0:0:0:
64,192,15112,1,0,0:0:0:0:
192,192,15258,1,0,0:0:0:0:
64,192,15403,128,0,15549:0:0:0:0:
320,192,15403,1,0,0:0:0:0:
192,192,15549,128,0,15695:0:0:0:0:
320,192,15695,1,0,0:0:0:0:
448,192,15840,1,0,0:0:0:0:
64,192,15840,1,0,0:0:0:0:
320,192,15986,1,0,0:0:0:0:
64,192,16131,1,0,0:0:0:0:
448,192,16131,128,0,16277:0:0:0:0:
192,192,16277,1,0,0:0:0:0:
320,192,16423,1,0,0:0:0:0:
64,192,16568,128,0,16714:0:0:0:0:
448,192,16568,1,0,0:0:0:0:
192,192,16714,128,0,16860:0:0:0:0:
320,192,16860,128,0,17005:0:0:0:0:
64,192,17005,1,0,0:0:0:0:
448,192,17005,1,0,0:0:0:0:
192,192,17151,1,0,0:0:0:0:
320,192,17296,1,0,0:0:0:0:
448,192,17442,128,0,17515:0:0:0:0:
64,192,17442,128,0,17515:0:0:0:0:
320,192,17588,1,0,0:0:0:0:
192,192,17733,1,0,0:0:0:0:
64,192,17879,128,0,17952:0:0:0:0:
448,192,17879,128,0,17952:0:0:0:0:
192,192,18025,1,0,0:0:0:0:
320,192,18170,1,0,0:0:0:0:
448,192,18316,128,0,18389:0:0:0:0:
64,192,18316,128,0,18389:0:0:0:0:
320,192,18462,1,0,0:0:0:0:
192,192,18607,1,0,0:0:0:0:
64,192,18753,128,0,18826:0:0:0:0:
320,192,18898,128,0,18971:0:0:0:0:
192,192,18898,1,0,0:0:0:0:
64,192,19044,128,0,19190:0:0:0:0:
448,192,19190,128,0,19335:0:0:0:0:
192,192,19335,1,0,0:0:0:0:
64,192,19335,128,0,20500:0:0:0:0:
320,192,19335,1,0,0:0:0:0:
448,192,19481,1,0,0:0:0:0:
320,192,19627,1,0,0:0:0:0:
192,192,19772,1,0,0:0:0:0:
320,192,19772,1,0,0:0:0:0:
448,192,19918,1,0,0:0:0:0:
320,192,20063,1,0,0:0:0:0:
192,192,20209,1,0,0:0:0:0:
320,192,20209,1,0,0:0:0:0:
448,192,20355,1,0,0:0:0:0:
448,192,20500,128,0,21374:0:0:0:0:
192,192,20500,1,0,0:0:0:0:
192,192,20646,1,0,0:0:0:0:
320,192,20646,1,0,0:0:0:0:
64,192,20792,1,0,0:0:0:0:
192,192,20937,1,0,0:0:0:0:
320,192,20937,1,0,0:0:0:0:
320,192,21083,1,0,0:0:0:0:
64,192,21229,1,0,0:0:0:0:
192,192,21229,1,0,0:0:0:0:
320,192,21229,128,0,21374:0:0:0:0:
64,192,21374,128,0,21665:0:0:0:0:
192,192,21520,128,0,21665:0:0:0:0:
320,192,21665,1,0,0:0:0:0:
448,192,21665,1,0,0:0:0:0:
64,192,21811,128,0,21884:0:0:0:0:
320,192,21811,1,0,0:0:0:0:
192,192,21957,128,0,22029:0:0:0:0:
320,192,22102,1,0,0:0:0:0:
448,192,22102,1,0,0:0:0:0:
64,192,22102,128,0,22175:0:0:0:0:
448,192,22248,128,0,22321:0:0:0:0:
320,192,22394,128,0,22466:0:0:0:0:
192,192,22394,1,0,0:0:0:0:
64,192,22394,1,0,0:0:0:0:
448,192,22539,128,0,22612:0:0:0:0:
192,192,22685,1,0,0:0:0:0:
64,192,22685,1,0,0:0:0:0:
320,192,22685,128,0,22758:0:0:0:0:
64,192,22830,1,0,0:0:0:0:
192,192,22830,1,0,0:0:0:0:
320,192,22830,1,0,0:0:0:0:
448,192,22830,1,0,0:0:0:0:
64,192,23122,1,0,0:0:0:0:
192,192,23122,1,0,0:0:0:0:
192,192,23267,1,0,0:0:0:0:
448,192,23267,1,0,0:0:0:0:
320,192,23267,1,0,0:0:0:0:
448,192,23413,1,0,0:0:0:0:
320,192,23413,1,0,0:0:0:0:
64,192,23559,1,0,0:0:0:0:
320,192,23559,128,0,23923:0:0:0:0:
448,192,23559,1,0,0:0:0:0:
192,192,23704,128,0,23923:0:0:0:0:
448,192,23850,1,0,0:0:0:0:
64,192,23850,1,0,0:0:0:0:
320,192,23996,1,0,0:0:0:0:
192,192,23996,128,0,24068:0:0:0:0:
64,192,24068,128,0,24141:0:0:0:0:
448,192,24141,128,0,24214:0:0:0:0:
320,192,24214,128,0,24287:0:0:0:0:
64,192,24287,128,0,24360:0:0:0:0:
448,192,24287,1,0,0:0:0:0:
192,192,24360,128,0,24432:0:0:0:0:
320,192,24432,128,0,24505:0:0:0:0:
448,192,24432,1,0,0:0:0:0:
192,192,24505,128,0,24578:0:0:0:0:
64,192,24578,128,0,24651:0:0:0:0:
320,192,24651,128,0,24724:0:0:0:0:
192,192,24724,128,0,24796:0:0:0:0:
448,192,24724,1,0,0:0:0:0:
64,192,24796,128,0,24869:0:0:0:0:
320,192,24869,128,0,24942:0:0:0:0:
192,192,24869,1,0,0:0:0:0:
448,192,24942,128,0,25015:0:0:0:0:
64,192,25015,128,0,25088:0:0:0:0:
320,192,25015,1,0,0:0:0:0:
192,192,25088,128,0,25161:0:0:0:0:
320,192,25161,128,0,25233:0:0:0:0:
448,192,25161,1,0,0:0:0:0:
192,192,25233,128,0,25306:0:0:0:0:
64,192,25306,128,0,25379:0:0:0:0:
448,192,25306,1,0,0:0:0:0:
320,192,25379,128,0,25452:0:0:0:0:
448,192,25452,128,0,25525:0:0:0:0:
64,192,25452,1,0,0:0:0:0:
192,192,25525,128,0,25597:0:0:0:0:
320,192,25597,128,0,25670:0:0:0:0:
64,192,25597,1,0,0:0:0:0:
448,192,25670,128,0,25743:0:0:0:0:
320,192,25743,128,0,25816:0:0:0:0:
64,192,25743,1,0,0:0:0:0:
192,192,25816,128,0,25889:0:0:0:0:
448,192,25889,128,0,25962:0:0:0:0:
64,192,25889,1,0,0:0:0:0:
320,192,25962,128,0,26034:0:0:0:0:
192,192,26034,128,0,26107:0:0:0:0:
64,192,26034,1,0,0:0:0:0:
448,192,26034,1,0,0:0:0:0:
320,192,26107,128,0,26180:0:0:0:0:
448,192,26180,128,0,26253:0:0:0:0:
192,192,26180,1,0,0:0:0:0:
64,192,26180,1,0,0:0:0:0:
320,192,26253,128,0,26326:0:0:0:0:
192,192,26326,128,0,26617:0:0:0:0:
64,192,26617,1,0,0:0:0:0:
320,192,26617,1,0,0:0:0:0:
448,192,26617,1,0,0:0:0:0:
448,192,26763,128,0,26908:0:0:0:0:
64,192,26763,1,0,0:0:0:0:
192,192,26763,1,0,0:0:0:0:
64,192,26908,128,0,26981:0:0:0:0:
192,192,27054,128,0,27199:0:0:0:0:
320,192,27054,1,0,0:0:0:0:
64,192,27199,1,0,0:0:0:0:
448,192,27199,128,0,27272:0:0:0:0:
192,192,27345,128,0,27418:0:0:0:0:
320,192,27345,1,0,0:0:0:0:
448,192,27345,1,0,0:0:0:0:
64,192,27491,128,0,27782:0:0:0:0:
192,192,27491,1,0,0:0:0:0:
448,192,27491,1,0,0:0:0:0:
320,192,27636,1,0,0:0:0:0:
320,192,27782,128,0,28073:0:0:0:0:
448,192,27782,1,0,0:0:0:0:
192,192,27928,1,0,0:0:0:0:
64,192,27928,1,0,0:0:0:0:
64,192,28073,1,0,0:0:0:0:
448,192,28073,1,0,0:0:0:0:
192,192,28073,128,0,28146:0:0:0:0:
192,192,28219,128,0,28292:0:0:0:0:
320,192,28219,1,0,0:0:0:0:
448,192,28219,128,0,28292:0:0:0:0:
64,192,28364,1,0,0:0:0:0:
320,192,28364,1,0,0:0:0:0:
448,192,28364,128,0,28437:0:0:0:0:
448,192,28510,128,0,28583:0:0:0:0:
64,192,28510,1,0,0:0:0:0:
320,192,28510,128,0,28947:0:0:0:0:
192,192,28656,1,0,0:0:0:0:
64,192,28656,128,0,28947:0:0:0:0:
448,192,28947,128,0,29020:0:0:0:0:
64,192,29020,128,0,29093:0:0:0:0:
192,192,29093,128,0,29165:0:0:0:0:
320,192,29093,1,0,0:0:0:0:
448,192,29093,1,0,0:0:0:0:
64,192,29165,128,0,29238:0:0:0:0:
448,192,29238,128,0,29311:0:0:0:0:
320,192,29311,128,0,29384:0:0:0:0:
64,192,29384,128,0,29457:0:0:0:0:
448,192,29384,1,0,0:0:0:0:
192,192,29457,128,0,29529:0:0:0:0:
320,192,29529,128,0,29602:0:0:0:0:
448,192,29529,1,0,0:0:0:0:
192,192,29602,128,0,29675:0:0:0:0:
64,192,29675,128,0,29748:0:0:0:0:
448,192,29675,1,0,0:0:0:0:
320,192,29748,128,0,29821:0:0:0:0:
192,192,29821,128,0,29894:0:0:0:0:
448,192,29821,1,0,0:0:0:0:
64,192,29894,128,0,29966:0:0:0:0:
320,192,29966,128,0,30039:0:0:0:0:
192,192,29966,1,0,0:0:0:0:
448,192,30039,128,0,30112:0:0:0:0:
64,192,30112,128,0,30185:0:0:0:0:
320,192,30112,1,0,0:0:0:0:
192,192,30185,128,0,30258:0:0:0:0:
320,192,30258,128,0,30330:0:0:0:0:
448,192,30258,1,0,0:0:0:0:
192,192,30330,128,0,30403:0:0:0:0:
64,192,30403,128,0,30476:0:0:0:0:
448,192,30403,1,0,0:0:0:0:
320,192,30476,128,0,30549:0:0:0:0:
448,192,30549,128,0,30622:0:0:0:0:
64,192,30549,1,0,0:0:0:0:
192,192,30622,128,0,30695:0:0:0:0:
320,192,30695,128,0,30767:0:0:0:0:
64,192,30695,1,0,0:0:0:0:
448,192,30767,128,0,30840:0:0:0:0:
320,192,30840,128,0,30913:0:0:0:0:
64,192,30840,1,0,0:0:0:0:
192,192,30913,128,0,30986:0:0:0:0:
448,192,30986,128,0,31059:0:0:0:0:
64,192,30986,1,0,0:0:0:0:
320,192,31059,128,0,31131:0:0:0:0:
192,192,31131,128,0,31204:0:0:0:0:
64,192,31131,1,0,0:0:0:0:
448,192,31131,1,0,0:0:0:0:
320,192,31204,128,0,31277:0:0:0:0:
448,192,31277,128,0,31350:0:0:0:0:
64,192,31277,1,0,0:0:0:0:
320,192,31350,128,0,31423:0:0:0:0:
64,192,31423,128,0,31496:0:0:0:0:
192,192,31423,1,0,0:0:0:0:
320,192,31496,128,0,31568:0:0:0:0:
64,192,31568,128,0,31641:0:0:0:0:
448,192,31568,128,0,31860:0:0:0:0:
192,192,31641,128,0,31714:0:0:0:0:
320,192,31714,128,0,31787:0:0:0:0:
192,192,31787,128,0,31860:0:0:0:0:
320,192,31860,128,0,31932:0:0:0:0:
64,192,31860,128,0,32151:0:0:0:0:
448,192,31932,128,0,32005:0:0:0:0:
320,192,32005,128,0,32078:0:0:0:0:
192,192,32078,128,0,32151:0:0:0:0:
448,192,32151,128,0,32515:0:0:0:0:
320,192,32151,1,0,0:0:0:0:
64,192,32442,128,0,32733:0:0:0:0:
192,192,32442,1,0,0:0:0:0:
320,192,32442,1,0,0:0:0:0:
192,192,32588,128,0,32733:0:0:0:0:
320,192,32588,1,0,0:0:0:0:
448,192,32588,1,0,0:0:0:0:
448,192,32733,1,0,0:0:0:0:
192,192,32806,1,0,0:0:0:0:
448,192,32879,1,0,0:0:0:0:
320,192,32879,1,0,0:0:0:0:
64,192,32879,128,0,32952:0:0:0:0:
320,192,33025,1,0,0:0:0:0:
448,192,33025,1,0,0:0:0:0:
192,192,33025,128,0,33097:0:0:0:0:
448,192,33170,1,0,0:0:0:0:
320,192,33170,128,0,33243:0:0:0:0:
64,192,33316,1,0,0:0:0:0:
192,192,33316,1,0,0:0:0:0:
320,192,33389,1,0,0:0:0:0:
448,192,33462,1,0,0:0:0:0:
64,192,33462,1,0,0:0:0:0:
320,192,33534,1,0,0:0:0:0:
192,192,33607,1,0,0:0:0:0:
448,192,33607,1,0,0:0:0:0:
64,192,33680,1,0,0:0:0:0:
192,192,33753,1,0,0:0:0:0:
320,192,33753,1,0,0:0:0:0:
448,192,33826,1,0,0:0:0:0:
64,192,33898,1,0,0:0:0:0:
320,192,33898,1,0,0:0:0:0:
192,192,33971,1,0,0:0:0:0:
448,192,34044,1,0,0:0:0:0:
192,192,34117,1,0,0:0:0:0:
64,192,34117,1,0,0:0:0:0:
320,192,34190,1,0,0:0:0:0:
448,192,34190,1,0,0:0:0:0:
64,192,34263,1,0,0:0:0:0:
320,192,34335,1,0,0:0:0:0:
448,192,34335,1,0,0:0:0:0:
192,192,34408,1,0,0:0:0:0:
64,192,34481,1,0,0:0:0:0:
448,192,34481,1,0,0:0:0:0:
320,192,34554,1,0,0:0:0:0:
192,192,34627,1,0,0:0:0:0:
448,192,34627,1,0,0:0:0:0:
64,192,34699,1,0,0:0:0:0:
448,192,34772,1,0,0:0:0:0:
320,192,34772,1,0,0:0:0:0:
192,192,34845,1,0,0:0:0:0:
64,192,34918,1,0,0:0:0:0:
320,192,34918,1,0,0:0:0:0:
448,192,34918,1,0,0:0:0:0:
192,192,34991,1,0,0:0:0:0:
320,192,35063,1,0,0:0:0:0:
64,192,35063,1,0,0:0:0:0:
448,192,35136,1,0,0:0:0:0:
320,192,35209,1,0,0:0:0:0:
192,192,35209,1,0,0:0:0:0:
64,192,35282,1,0,0:0:0:0:
448,192,35355,1,0,0:0:0:0:
192,192,35355,1,0,0:0:0:0:
320,192,35428,1,0,0:0:0:0:
192,192,35500,1,0,0:0:0:0:
64,192,35500,1,0,0:0:0:0:
320,192,35573,1,0,0:0:0:0:
192,192,35646,1,0,0:0:0:0:
64,192,35646,1,0,0:0:0:0:
448,192,35646,1,0,0:0:0:0:
320,192,35719,1,0,0:0:0:0:
64,192,35792,1,0,0:0:0:0:
192,192,35864,1,0,0:0:0:0:
64,192,35937,1,0,0:0:0:0:
320,192,35937,1,0,0:0:0:0:
448,192,36010,1,0,0:0:0:0:
320,192,36083,1,0,0:0:0:0:
192,192,36083,1,0,0:0:0:0:
64,192,36156,1,0,0:0:0:0:
320,192,36229,1,0,0:0:0:0:
448,192,36229,1,0,0:0:0:0:
192,192,36301,1,0,0:0:0:0:
64,192,36374,1,0,0:0:0:0:
448,192,36374,1,0,0:0:0:0:
320,192,36447,1,0,0:0:0:0:
192,192,36520,1,0,0:0:0:0:
64,192,36520,1,0,0:0:0:0:
448,192,36593,1,0,0:0:0:0:
192,192,36665,1,0,0:0:0:0:
320,192,36665,1,0,0:0:0:0:
64,192,36738,1,0,0:0:0:0:
320,192,36811,1,0,0:0:0:0:
448,192,36811,1,0,0:0:0:0:
64,192,36884,1,0,0:0:0:0:
192,192,36957,1,0,0:0:0:0:
320,192,36957,1,0,0:0:0:0:
448,192,37029,1,0,0:0:0:0:
64,192,37102,1,0,0:0:0:0:
192,192,37102,1,0,0:0:0:0:
448,192,37175,1,0,0:0:0:0:
192,192,37248,1,0,0:0:0:0:
320,192,37248,1,0,0:0:0:0:
64,192,37321,1,0,0:0:0:0:
192,192,37394,1,0,0:0:0:0:
320,192,37466,1,0,0:0:0:0:
448,192,37539,1,0,0:0:0:0:
192,192,37539,1,0,0:0:0:0:
64,192,37539,128,0,37612:0:0:0:0:
448,192,37685,1,0,0:0:0:0:
64,192,37685,1,0,0:0:0:0:
192,192,37685,128,0,37758:0:0:0:0:
448,192,37830,1,0,0:0:0:0:
320,192,37830,128,0,37903:0:0:0:0:
64,192,37976,128,0,38413:0:0:0:0:
192,192,37976,1,0,0:0:0:0:
320,192,37976,1,0,0:0:0:0:
448,192,37976,1,0,0:0:0:0:
320,192,38267,1,0,0:0:0:0:
448,192,38267,1,0,0:0:0:0:
320,192,38413,1,0,0:0:0:0:
448,192,38413,1,0,0:0:0:0:
192,192,38486,1,0,0:0:0:0:
448,192,38559,128,0,38704:0:0:0:0:
64,192,38559,1,0,0:0:0:0:
192,192,38631,1,0,0:0:0:0:
320,192,38704,1,0,0:0:0:0:
64,192,38704,128,0,38850:0:0:0:0:
320,192,38850,1,0,0:0:0:0:
192,192,38850,128,0,38996:0:0:0:0:
320,192,38996,128,0,39141:0:0:0:0:
448,192,38996,1,0,0:0:0:0:
192,192,39141,1,0,0:0:0:0:
64,192,39141,128,0,39287:0:0:0:0:
320,192,39287,128,0,39432:0:0:0:0:
448,192,39287,1,0,0:0:0:0:
448,192,39432,128,0,39724:0:0:0:0:
192,192,39432,1,0,0:0:0:0:
64,192,39432,1,0,0:0:0:0:
64,192,39578,1,0,0:0:0:0:
192,192,39651,1,0,0:0:0:0:
320,192,39724,1,0,0:0:0:0:
192,192,39796,1,0,0:0:0:0:
64,192,39869,1,0,0:0:0:0:
320,192,39869,1,0,0:0:0:0:
448,192,39869,1,0,0:0:0:0:
192,192,40015,128,0,40088:0:0:0:0:
448,192,40015,128,0,40088:0:0:0:0:
64,192,40015,1,0,0:0:0:0:
192,192,40161,1,0,0:0:0:0:
448,192,40161,1,0,0:0:0:0:
320,192,40161,1,0,0:0:0:0:
64,192,40233,1,0,0:0:0:0:
192,192,40306,1,0,0:0:0:0:
320,192,40306,1,0,0:0:0:0:
448,192,40306,128,0,40597:0:0:0:0:
192,192,40597,1,0,0:0:0:0:
64,192,40597,1,0,0:0:0:0:
192,192,40743,1,0,0:0:0:0:
320,192,40743,1,0,0:0:0:0:
64,192,40743,1,0,0:0:0:0:
448,192,40889,1,0,0:0:0:0:
320,192,40962,1,0,0:0:0:0:
192,192,41034,1,0,0:0:0:0:
64,192,41034,1,0,0:0:0:0:
64,192,41180,1,0,0:0:0:0:
192,192,41180,128,0,41253:0:0:0:0:
320,192,41180,1,0,0:0:0:0:
320,192,41326,128,0,41398:0:0:0:0:
448,192,41326,1,0,0:0:0:0:
64,192,41326,1,0,0:0:0:0:
192,192,41471,1,0,0:0:0:0:
64,192,41471,128,0,41544:0:0:0:0:
448,192,41471,1,0,0:0:0:0:
64,192,41617,1,0,0:0:0:0:
448,192,41617,128,0,41690:0:0:0:0:
192,192,41617,1,0,0:0:0:0:
320,192,41763,1,0,0:0:0:0:
64,192,41763,128,0,41835:0:0:0:0:
64,192,41908,1,0,0:0:0:0:
192,192,41908,1,0,0:0:0:0:
320,192,41908,1,0,0:0:0:0:
64,192,42054,1,0,0:0:0:0:
192,192,42054,1,0,0:0:0:0:
320,192,42054,1,0,0:0:0:0:
448,192,42054,1,0,0:0:0:0:
64,192,42345,1,0,0:0:0:0:
192,192,42345,1,0,0:0:0:0:
448,192,42345,1,0,0:0:0:0:
320,192,42345,1,0,0:0:0:0:
64,192,42636,128,0,42928:0:0:0:0:
320,192,42636,1,0,0:0:0:0:
448,192,42636,1,0,0:0:0:0:
192,192,42636,1,0,0:0:0:0:
320,192,42928,128,0,43073:0:0:0:0:
192,192,43073,1,0,0:0:0:0:
64,192,43073,128,0,43292:0:0:0:0:
192,192,43219,128,0,43292:0:0:0:0:
320,192,43219,1,0,0:0:0:0:
448,192,43219,128,0,43292:0:0:0:0:
192,192,43364,1,0,0:0:0:0:
448,192,43364,128,0,43583:0:0:0:0:
64,192,43364,1,0,0:0:0:0:
192,192,43510,128,0,43583:0:0:0:0:
64,192,43510,128,0,43583:0:0:0:0:
320,192,43510,1,0,0:0:0:0:
192,192,43656,128,0,43874:0:0:0:0:
64,192,43656,1,0,0:0:0:0:
448,192,43656,1,0,0:0:0:0:
320,192,43801,128,0,43874:0:0:0:0:
448,192,43801,128,0,43874:0:0:0:0:
64,192,43801,1,0,0:0:0:0:
192,192,43947,1,0,0:0:0:0:
320,192,43947,1,0,0:0:0:0:
448,192,43947,1,0,0:0:0:0:
64,192,44093,128,0,44311:0:0:0:0:
320,192,44093,1,0,0:0:0:0:
448,192,44093,1,0,0:0:0:0:
448,192,44238,128,0,44311:0:0:0:0:
320,192,44238,128,0,44311:0:0:0:0:
192,192,44238,1,0,0:0:0:0:
320,192,44384,128,0,44602:0:0:0:0:
192,192,44384,1,0,0:0:0:0:
448,192,44384,1,0,0:0:0:0:
192,192,44529,128,0,44602:0:0:0:0:
64,192,44529,128,0,44602:0:0:0:0:
448,192,44529,1,0,0:0:0:0:
64,192,44675,1,0,0:0:0:0:
448,192,44675,1,0,0:0:0:0:
320,192,44675,128,0,44894:0:0:0:0:
64,192,44821,128,0,44894:0:0:0:0:
192,192,44821,1,0,0:0:0:0:
448,192,44821,128,0,44894:0:0:0:0:
64,192,44966,128,0,45185:0:0:0:0:
192,192,44966,128,0,45185:0:0:0:0:
448,192,44966,128,0,45185:0:0:0:0:
64,192,45258,128,0,45549:0:0:0:0:
320,192,45258,1,0,0:0:0:0:
320,192,45403,1,0,0:0:0:0:
448,192,45403,1,0,0:0:0:0:
192,192,45403,128,0,45549:0:0:0:0:
448,192,45549,128,0,45767:0:0:0:0:
192,192,45695,128,0,45767:0:0:0:0:
320,192,45695,1,0,0:0:0:0:
64,192,45695,128,0,45913:0:0:0:0:
320,192,45840,128,0,45913:0:0:0:0:
448,192,45840,128,0,45913:0:0:0:0:
320,192,45986,128,0,46204:0:0:0:0:
448,192,45986,1,0,0:0:0:0:
64,192,45986,1,0,0:0:0:0:
192,192,46131,128,0,46204:0:0:0:0:
64,192,46131,128,0,46204:0:0:0:0:
448,192,46131,1,0,0:0:0:0:
320,192,46277,1,0,0:0:0:0:
192,192,46277,1,0,0:0:0:0:
64,192,46277,1,0,0:0:0:0:
448,192,46423,128,0,46641:0:0:0:0:
192,192,46423,1,0,0:0:0:0:
64,192,46423,1,0,0:0:0:0:
320,192,46568,1,0,0:0:0:0:
64,192,46568,128,0,46641:0:0:0:0:
192,192,46568,128,0,46641:0:0:0:0:
192,192,46714,128,0,46932:0:0:0:0:
64,192,46714,1,0,0:0:0:0:
320,192,46714,1,0,0:0:0:0:
320,192,46860,128,0,46932:0:0:0:0:
448,192,46860,128,0,46932:0:0:0:0:
64,192,46860,1,0,0:0:0:0:
448,192,47005,1,0,0:0:0:0:
64,192,47005,1,0,0:0:0:0:
192,192,47005,128,0,47224:0:0:0:0:
448,192,47151,128,0,47224:0:0:0:0:
64,192,47151,1,0,0:0:0:0:
320,192,47151,128,0,47224:0:0:0:0:
64,192,47296,128,0,47588:0:0:0:0:
448,192,47296,128,0,47588:0:0:0:0:
320,192,47296,128,0,47588:0:0:0:0:
64,192,47733,128,0,47952:0:0:0:0:
320,192,47733,128,0,47806:0:0:0:0:
448,192,47733,128,0,47806:0:0:0:0:
192,192,47733,1,0,0:0:0:0:
192,192,47879,128,0,48097:0:0:0:0:
448,192,47879,128,0,47952:0:0:0:0:
320,192,47879,1,0,0:0:0:0:
320,192,48025,128,0,48243:0:0:0:0:
64,192,48025,128,0,48097:0:0:0:0:
448,192,48025,1,0,0:0:0:0:
448,192,48170,128,0,48389:0:0:0:0:
64,192,48170,128,0,48243:0:0:0:0:
192,192,48170,1,0,0:0:0:0:
192,192,48316,128,0,48534:0:0:0:0:
64,192,48316,128,0,48389:0:0:0:0:
320,192,48316,1,0,0:0:0:0:
64,192,48462,128,0,48680:0:0:0:0:
320,192,48462,128,0,48534:0:0:0:0:
448,192,48462,1,0,0:0:0:0:
320,192,48607,128,0,48826:0:0:0:0:
192,192,48607,1,0,0:0:0:0:
448,192,48607,128,0,48680:0:0:0:0:
192,192,48753,128,0,48971:0:0:0:0:
64,192,48753,1,0,0:0:0:0:
448,192,48753,128,0,48826:0:0:0:0:
64,192,48898,128,0,49117:0:0:0:0:
320,192,48898,128,0,48971:0:0:0:0:
448,192,48898,1,0,0:0:0:0:
448,192,49044,128,0,49263:0:0:0:0:
320,192,49044,1,0,0:0:0:0:
192,192,49044,128,0,49117:0:0:0:0:
320,192,49190,128,0,49408:0:0:0:0:
192,192,49190,1,0,0:0:0:0:
64,192,49190,128,0,49263:0:0:0:0:
192,192,49335,128,0,49554:0:0:0:0:
64,192,49335,128,0,49408:0:0:0:0:
448,192,49335,1,0,0:0:0:0:
448,192,49481,1,0,0:0:0:0:
64,192,49481,128,0,49554:0:0:0:0:
320,192,49481,128,0,49627:0:0:0:0:
192,192,49627,1,0,0:0:0:0:
64,192,49627,128,0,50792:0:0:0:0:
448,192,49627,1,0,0:0:0:0:
448,192,50646,1,0,0:0:0:0:
320,192,50719,1,0,0:0:0:0:
192,192,50792,1,0,0:0:0:0:
448,192,50792,128,0,51083:0:0:0:0:
192,192,51083,128,0,51156:0:0:0:0:
320,192,51083,128,0,51156:0:0:0:0:
192,192,51229,128,0,51301:0:0:0:0:
320,192,51229,128,0,51301:0:0:0:0:
192,192,51374,128,0,51447:0:0:0:0:
64,192,51374,128,0,51447:0:0:0:0:
320,192,51374,128,0,51447:0:0:0:0:
448,192,51374,128,0,51447:0:0:0:0:
192,192,51957,1,0,0:0:0:0:
448,192,51957,128,0,52248:0:0:0:0:
64,192,51957,128,0,52248:0:0:0:0:
320,192,52248,128,0,52321:0:0:0:0:
192,192,52248,1,0,0:0:0:0:
448,192,52321,1,0,0:0:0:0:
64,192,52394,128,0,52466:0:0:0:0:
320,192,52394,1,0,0:0:0:0:
192,192,52466,1,0,0:0:0:0:
320,192,52539,128,0,52612:0:0:0:0:
64,192,52539,1,0,0:0:0:0:
448,192,52612,1,0,0:0:0:0:
192,192,52685,128,0,52758:0:0:0:0:
64,192,52685,1,0,0:0:0:0:
320,192,52758,1,0,0:0:0:0:
64,192,52830,128,0,52903:0:0:0:0:
448,192,52830,1,0,0:0:0:0:
192,192,52830,1,0,0:0:0:0:
320,192,52903,1,0,0:0:0:0:
64,192,52976,128,0,53122:0:0:0:0:
448,192,52976,1,0,0:0:0:0:
320,192,53049,1,0,0:0:0:0:
448,192,53122,128,0,53413:0:0:0:0:
192,192,53122,1,0,0:0:0:0:
64,192,53195,1,0,0:0:0:0:
192,192,53267,1,0,0:0:0:0:
64,192,53340,1,0,0:0:0:0:
192,192,53413,128,0,53486:0:0:0:0:
320,192,53413,1,0,0:0:0:0:
64,192,53486,1,0,0:0:0:0:
448,192,53559,128,0,53631:0:0:0:0:
192,192,53559,1,0,0:0:0:0:
320,192,53631,1,0,0:0:0:0:
192,192,53704,128,0,53777:0:0:0:0:
448,192,53704,1,0,0:0:0:0:
64,192,53777,1,0,0:0:0:0:
320,192,53850,128,0,53923:0:0:0:0:
448,192,53850,1,0,0:0:0:0:
192,192,53923,1,0,0:0:0:0:
448,192,53996,128,0,54068:0:0:0:0:
64,192,53996,1,0,0:0:0:0:
320,192,53996,1,0,0:0:0:0:
192,192,54068,1,0,0:0:0:0:
64,192,54141,1,0,0:0:0:0:
448,192,54141,128,0,54287:0:0:0:0:
192,192,54214,1,0,0:0:0:0:
64,192,54287,128,0,54578:0:0:0:0:
320,192,54287,1,0,0:0:0:0:
448,192,54360,1,0,0:0:0:0:
320,192,54432,1,0,0:0:0:0:
448,192,54505,1,0,0:0:0:0:
320,192,54578,128,0,54651:0:0:0:0:
192,192,54578,1,0,0:0:0:0:
448,192,54651,1,0,0:0:0:0:
64,192,54724,128,0,54796:0:0:0:0:
320,192,54724,1,0,0:0:0:0:
192,192,54796,1,0,0:0:0:0:
64,192,54869,1,0,0:0:0:0:
320,192,54869,128,0,54942:0:0:0:0:
448,192,54942,1,0,0:0:0:0:
192,192,55015,128,0,55088:0:0:0:0:
64,192,55015,1,0,0:0:0:0:
320,192,55088,1,0,0:0:0:0:
64,192,55161,128,0,55233:0:0:0:0:
448,192,55161,1,0,0:0:0:0:
192,192,55161,1,0,0:0:0:0:
320,192,55233,1,0,0:0:0:0:
192,192,55306,128,0,55452:0:0:0:0:
64,192,55306,1,0,0:0:0:0:
448,192,55306,1,0,0:0:0:0:
320,192,55379,1,0,0:0:0:0:
64,192,55452,128,0,55525:0:0:0:0:
448,192,55452,1,0,0:0:0:0:
192,192,55525,128,0,55597:0:0:0:0:
320,192,55597,128,0,55670:0:0:0:0:
448,192,55670,128,0,55743:0:0:0:0:
320,192,55743,128,0,55816:0:0:0:0:
192,192,55816,128,0,55889:0:0:0:0:
64,192,55889,128,0,55962:0:0:0:0:
448,192,55889,1,0,0:0:0:0:
320,192,55889,1,0,0:0:0:0:
192,192,55962,128,0,56034:0:0:0:0:
320,192,56034,128,0,56107:0:0:0:0:
448,192,56107,128,0,56180:0:0:0:0:
64,192,56180,128,0,56326:0:0:0:0:
192,192,56253,128,0,56398:0:0:0:0:
320,192,56326,128,0,56471:0:0:0:0:
448,192,56398,128,0,56544:0:0:0:0:
64,192,56398,1,0,0:0:0:0:
192,192,56471,1,0,0:0:0:0:
320,192,56544,1,0,0:0:0:0:
192,192,56617,1,0,0:0:0:0:
448,192,56617,128,0,56690:0:0:0:0:
64,192,56617,128,0,56835:0:0:0:0:
320,192,56690,128,0,56763:0:0:0:0:
192,192,56763,128,0,56835:0:0:0:0:
448,192,56835,128,0,56908:0:0:0:0:
320,192,56908,128,0,56981:0:0:0:0:
192,192,56981,128,0,57054:0:0:0:0:
448,192,57054,128,0,57127:0:0:0:0:
64,192,57054,1,0,0:0:0:0:
320,192,57127,128,0,57199:0:0:0:0:
64,192,57199,128,0,57272:0:0:0:0:
448,192,57199,1,0,0:0:0:0:
192,192,57272,128,0,57345:0:0:0:0:
448,192,57345,128,0,57418:0:0:0:0:
64,192,57345,1,0,0:0:0:0:
192,192,57418,128,0,57491:0:0:0:0:
64,192,57491,128,0,57563:0:0:0:0:
448,192,57491,1,0,0:0:0:0:
320,192,57563,1,0,0:0:0:0:
64,192,57636,128,0,57709:0:0:0:0:
192,192,57636,1,0,0:0:0:0:
320,192,57709,1,0,0:0:0:0:
192,192,57782,128,0,57855:0:0:0:0:
64,192,57782,1,0,0:0:0:0:
448,192,57782,128,0,58146:0:0:0:0:
320,192,57855,1,0,0:0:0:0:
192,192,57928,128,0,58000:0:0:0:0:
64,192,57928,1,0,0:0:0:0:
320,192,58000,1,0,0:0:0:0:
192,192,58073,128,0,58146:0:0:0:0:
64,192,58073,1,0,0:0:0:0:
320,192,58146,1,0,0:0:0:0:
192,192,58219,128,0,58292:0:0:0:0:
64,192,58219,128,0,58292:0:0:0:0:
448,192,58219,1,0,0:0:0:0:
320,192,58292,1,0,0:0:0:0:
64,192,58364,128,0,58437:0:0:0:0:
448,192,58364,1,0,0:0:0:0:
192,192,58437,128,0,58510:0:0:0:0:
320,192,58510,128,0,58583:0:0:0:0:
448,192,58583,128,0,58656:0:0:0:0:
320,192,58656,128,0,58729:0:0:0:0:
192,192,58729,128,0,58801:0:0:0:0:
448,192,58729,1,0,0:0:0:0:
64,192,58801,128,0,58874:0:0:0:0:
320,192,58801,1,0,0:0:0:0:
192,192,58874,1,0,0:0:0:0:
448,192,58947,128,0,59020:0:0:0:0:
320,192,58947,1,0,0:0:0:0:
64,192,58947,128,0,59311:0:0:0:0:
192,192,59020,1,0,0:0:0:0:
448,192,59093,128,0,59165:0:0:0:0:
320,192,59093,1,0,0:0:0:0:
192,192,59165,1,0,0:0:0:0:
448,192,59238,128,0,59311:0:0:0:0:
320,192,59238,1,0,0:0:0:0:
192,192,59311,1,0,0:0:0:0:
448,192,59384,128,0,59457:0:0:0:0:
64,192,59384,1,0,0:0:0:0:
320,192,59384,128,0,59457:0:0:0:0:
192,192,59457,1,0,0:0:0:0:
448,192,59529,128,0,59602:0:0:0:0:
64,192,59529,1,0,0:0:0:0:
320,192,59602,128,0,59675:0:0:0:0:
192,192,59675,128,0,59748:0:0:0:0:
64,192,59748,128,0,59821:0:0:0:0:
192,192,59821,128,0,59894:0:0:0:0:
320,192,59894,128,0,59966:0:0:0:0:
64,192,59894,1,0,0:0:0:0:
448,192,59966,128,0,60039:0:0:0:0:
192,192,59966,1,0,0:0:0:0:
320,192,60039,1,0,0:0:0:0:
448,192,60112,1,0,0:0:0:0:
64,192,60112,128,0,60403:0:0:0:0:
192,192,60112,128,0,60403:0:0:0:0:
320,192,60185,1,0,0:0:0:0:
448,192,60258,1,0,0:0:0:0:
320,192,60330,1,0,0:0:0:0:
448,192,60403,1,0,0:0:0:0:
320,192,60476,1,0,0:0:0:0:
64,192,60549,1,0,0:0:0:0:
448,192,60549,1,0,0:0:0:0:
192,192,60622,1,0,0:0:0:0:
64,192,60695,1,0,0:0:0:0:
320,192,60695,1,0,0:0:0:0:
448,192,60767,1,0,0:0:0:0:
64,192,60840,1,0,0:0:0:0:
192,192,60840,1,0,0:0:0:0:
448,192,60913,1,0,0:0:0:0:
320,192,60913,1,0,0:0:0:0:
192,192,60986,1,0,0:0:0:0:
64,192,60986,1,0,0:0:0:0:
320,192,61059,1,0,0:0:0:0:
448,192,61059,1,0,0:0:0:0:
192,192,61131,1,0,0:0:0:0:
64,192,61131,1,0,0:0:0:0:
320,192,61204,1,0,0:0:0:0:
448,192,61204,1,0,0:0:0:0:
64,192,61277,128,0,61350:0:0:0:0:
320,192,61277,1,0,0:0:0:0:
448,192,61277,1,0,0:0:0:0:
192,192,61350,128,0,61423:0:0:0:0:
320,192,61423,128,0,61496:0:0:0:0:
448,192,61496,128,0,61568:0:0:0:0:
64,192,61496,128,0,61714:0:0:0:0:
192,192,61568,128,0,61714:0:0:0:0:
320,192,61641,128,0,61714:0:0:0:0:
448,192,61714,128,0,61787:0:0:0:0:
320,192,61787,128,0,61860:0:0:0:0:
192,192,61860,128,0,61932:0:0:0:0:
64,192,61932,128,0,62005:0:0:0:0:
448,192,61932,1,0,0:0:0:0:
320,192,62005,1,0,0:0:0:0:
192,192,62078,1,0,0:0:0:0:
448,192,62078,128,0,62296:0:0:0:0:
64,192,62151,1,0,0:0:0:0:
320,192,62151,128,0,62296:0:0:0:0:
192,192,62224,128,0,62296:0:0:0:0:
64,192,62296,1,0,0:0:0:0:
192,192,62369,1,0,0:0:0:0:
64,192,62442,128,0,62515:0:0:0:0:
320,192,62442,1,0,0:0:0:0:
192,192,62515,128,0,62588:0:0:0:0:
448,192,62515,1,0,0:0:0:0:
320,192,62588,128,0,62661:0:0:0:0:
448,192,62661,128,0,62733:0:0:0:0:
64,192,62661,128,0,62879:0:0:0:0:
192,192,62733,128,0,62879:0:0:0:0:
320,192,62806,128,0,62879:0:0:0:0:
448,192,62879,128,0,62952:0:0:0:0:
320,192,62952,128,0,63025:0:0:0:0:
192,192,63025,128,0,63097:0:0:0:0:
448,192,63097,1,0,0:0:0:0:
64,192,63097,128,0,63170:0:0:0:0:
320,192,63170,1,0,0:0:0:0:
192,192,63243,1,0,0:0:0:0:
448,192,63243,128,0,63607:0:0:0:0:
64,192,63316,1,0,0:0:0:0:
320,192,63316,128,0,63534:0:0:0:0:
192,192,63389,128,0,63462:0:0:0:0:
64,192,63462,1,0,0:0:0:0:
192,192,63534,1,0,0:0:0:0:
64,192,63607,128,0,63680:0:0:0:0:
320,192,63607,1,0,0:0:0:0:
192,192,63680,128,0,63753:0:0:0:0:
448,192,63680,1,0,0:0:0:0:
320,192,63753,128,0,63826:0:0:0:0:
448,192,63826,128,0,63898:0:0:0:0:
64,192,63826,128,0,63898:0:0:0:0:
192,192,63898,128,0,63971:0:0:0:0:
320,192,63971,128,0,64044:0:0:0:0:
448,192,64044,128,0,64117:0:0:0:0:
192,192,64044,1,0,0:0:0:0:
64,192,64044,1,0,0:0:0:0:
320,192,64117,128,0,64190:0:0:0:0:
192,192,64190,128,0,64263:0:0:0:0:
64,192,64263,128,0,64335:0:0:0:0:
448,192,64263,128,0,64335:0:0:0:0:
320,192,64335,128,0,64408:0:0:0:0:
192,192,64408,128,0,64481:0:0:0:0:
448,192,64481,1,0,0:0:0:0:
320,192,64481,1,0,0:0:0:0:
64,192,64481,128,0,64554:0:0:0:0:
192,192,64554,128,0,64627:0:0:0:0:
320,192,64627,128,0,64699:0:0:0:0:
448,192,64699,128,0,64772:0:0:0:0:
320,192,64772,1,0,0:0:0:0:
192,192,64772,128,0,64845:0:0:0:0:
64,192,64772,128,0,65063:0:0:0:0:
448,192,64918,128,0,64991:0:0:0:0:
320,192,64918,1,0,0:0:0:0:
192,192,64918,128,0,64991:0:0:0:0:
448,192,65063,128,0,65136:0:0:0:0:
320,192,65063,128,0,65136:0:0:0:0:
192,192,65063,1,0,0:0:0:0:
448,192,65209,128,0,65282:0:0:0:0:
192,192,65209,128,0,65282:0:0:0:0:
64,192,65209,1,0,0:0:0:0:
192,192,65355,128,0,65428:0:0:0:0:
320,192,65355,1,0,0:0:0:0:
448,192,65355,128,0,65428:0:0:0:0:
64,192,65355,1,0,0:0:0:0:
64,192,65500,1,0,0:0:0:0:
448,192,65500,1,0,0:0:0:0:
320,192,65500,128,0,65864:0:0:0:0:
192,192,65500,128,0,65573:0:0:0:0:
64,192,65646,128,0,65719:0:0:0:0:
192,192,65646,1,0,0:0:0:0:
448,192,65646,1,0,0:0:0:0:
192,192,65792,128,0,65864:0:0:0:0:
448,192,65792,1,0,0:0:0:0:
64,192,65792,1,0,0:0:0:0:
64,192,65937,128,0,66046:0:0:0:0:
448,192,65937,1,0,0:0:0:0:
320,192,65937,1,0,0:0:0:0:
192,192,66010,128,0,66119:0:0:0:0:
320,192,66083,128,0,66192:0:0:0:0:
448,192,66156,128,0,66265:0:0:0:0:
64,192,66156,128,0,66483:0:0:0:0:
192,192,66229,128,0,66411:0:0:0:0:
320,192,66301,128,0,66338:0:0:0:0:
448,192,66374,128,0,66483:0:0:0:0:
320,192,66447,128,0,66556:0:0:0:0:
192,192,66520,128,0,66629:0:0:0:0:
64,192,66593,128,0,66702:0:0:0:0:
448,192,66593,128,0,66629:0:0:0:0:
320,192,66665,128,0,66702:0:0:0:0:
192,192,66738,128,0,66775:0:0:0:0:
448,192,66738,128,0,67066:0:0:0:0:
64,192,66811,128,0,66847:0:0:0:0:
320,192,66811,128,0,66993:0:0:0:0:
192,192,66884,128,0,66920:0:0:0:0:
64,192,66957,128,0,66993:0:0:0:0:
192,192,67029,128,0,67066:0:0:0:0:
64,192,67102,128,0,67212:0:0:0:0:
320,192,67102,128,0,67139:0:0:0:0:
192,192,67175,128,0,67284:0:0:0:0:
448,192,67175,128,0,67212:0:0:0:0:
320,192,67248,128,0,67357:0:0:0:0:
448,192,67321,128,0,67430:0:0:0:0:
64,192,67321,128,0,67648:0:0:0:0:
192,192,67394,128,0,67576:0:0:0:0:
320,192,67466,128,0,67503:0:0:0:0:
448,192,67539,128,0,67576:0:0:0:0:
320,192,67612,128,0,67648:0:0:0:0:
192,192,67685,128,0,67721:0:0:0:0:
448,192,67685,128,0,68013:0:0:0:0:
64,192,67758,128,0,67794:0:0:0:0:
320,192,67758,128,0,67940:0:0:0:0:
192,192,67830,128,0,67867:0:0:0:0:
64,192,67903,128,0,67940:0:0:0:0:
192,192,67976,128,0,68013:0:0:0:0:
320,192,68049,128,0,68085:0:0:0:0:
64,192,68049,128,0,68195:0:0:0:0:
448,192,68122,128,0,68158:0:0:0:0:
192,192,68122,128,0,68267:0:0:0:0:
320,192,68195,128,0,68340:0:0:0:0:
64,192,68267,128,0,68413:0:0:0:0:
448,192,68267,128,0,68413:0:0:0:0:
192,192,68340,128,0,68486:0:0:0:0:
320,192,68413,128,0,68559:0:0:0:0:
448,192,68486,128,0,68631:0:0:0:0:
64,192,68486,128,0,68850:0:0:0:0:
192,192,68559,128,0,68777:0:0:0:0:
320,192,68631,128,0,68704:0:0:0:0:
448,192,68704,128,0,68850:0:0:0:0:
320,192,68777,128,0,68923:0:0:0:0:
192,192,68850,128,0,68996:0:0:0:0:
64,192,68923,128,0,69068:0:0:0:0:
448,192,68923,128,0,69287:0:0:0:0:
320,192,68996,128,0,69214:0:0:0:0:
192,192,69068,128,0,69141:0:0:0:0:
64,192,69141,128,0,69360:0:0:0:0:
192,192,69214,128,0,69360:0:0:0:0:
320,192,69287,128,0,69360:0:0:0:0:
448,192,69360,128,0,69432:0:0:0:0:
320,192,69432,128,0,69651:0:0:0:0:
192,192,69432,128,0,69651:0:0:0:0:
64,192,69432,128,0,69651:0:0:0:0:
448,192,69724,128,0,69796:0:0:0:0:
320,192,69724,128,0,69796:0:0:0:0:
192,192,69724,1,0,0:0:0:0:
192,192,69869,128,0,69942:0:0:0:0:
320,192,69869,1,0,0:0:0:0:
64,192,69869,128,0,69942:0:0:0:0:
448,192,69869,1,0,0:0:0:0:
192,192,70015,128,0,70161:0:0:0:0:
320,192,70161,1,0,0:0:0:0:
448,192,70161,1,0,0:0:0:0:
192,192,70233,1,0,0:0:0:0:
64,192,70233,1,0,0:0:0:0:
320,192,70306,1,0,0:0:0:0:
448,192,70306,1,0,0:0:0:0:
192,192,70379,1,0,0:0:0:0:
64,192,70379,1,0,0:0:0:0:
320,192,70452,1,0,0:0:0:0:
448,192,70452,1,0,0:0:0:0:
192,192,70525,1,0,0:0:0:0:
64,192,70525,1,0,0:0:0:0:
64,192,70597,128,0,70743:0:0:0:0:
192,192,70597,128,0,70743:0:0:0:0:
320,192,70597,128,0,70743:0:0:0:0:
448,192,70597,128,0,70743:0:0:0:0:
448,192,70889,1,0,0:0:0:0:
320,192,70889,128,0,70962:0:0:0:0:
64,192,70889,128,0,70962:0:0:0:0:
320,192,71034,1,0,0:0:0:0:
448,192,71034,1,0,0:0:0:0:
64,192,71034,128,0,71107:0:0:0:0:
192,192,71034,128,0,71107:0:0:0:0:
192,192,71180,128,0,71253:0:0:0:0:
64,192,71180,1,0,0:0:0:0:
448,192,71180,128,0,71253:0:0:0:0:
64,192,71326,1,0,0:0:0:0:
192,192,71326,128,0,71398:0:0:0:0:
320,192,71326,128,0,71398:0:0:0:0:
64,192,71471,1,0,0:0:0:0:
192,192,71471,1,0,0:0:0:0:
320,192,71471,128,0,71544:0:0:0:0:
448,192,71471,128,0,71544:0:0:0:0:
64,192,71617,1,0,0:0:0:0:
192,192,71617,1,0,0:0:0:0:
320,192,71617,1,0,0:0:0:0:
448,192,71617,1,0,0:0:0:0:
64,192,71763,128,0,71908:0:0:0:0:
192,192,71763,128,0,71908:0:0:0:0:
320,192,71763,128,0,71908:0:0:0:0:
448,192,71763,128,0,71908:0:0:0:0:
320,192,72054,1,0,0:0:0:0:
448,192,72054,1,0,0:0:0:0:
64,192,72054,128,0,72090:0:0:0:0:
192,192,72054,128,0,72090:0:0:0:0:
64,192,72199,1,0,0:0:0:0:
192,192,72199,128,0,72236:0:0:0:0:
448,192,72199,128,0,72236:0:0:0:0:
64,192,72345,1,0,0:0:0:0:
192,192,72345,128,0,72381:0:0:0:0:
320,192,72345,128,0,72381:0:0:0:0:
320,192,72491,128,0,72527:0:0:0:0:
64,192,72491,1,0,0:0:0:0:
192,192,72491,1,0,0:0:0:0:
448,192,72491,128,0,72527:0:0:0:0:
448,192,72636,1,0,0:0:0:0:
320,192,72636,1,0,0:0:0:0:
192,192,72636,128,0,72673:0:0:0:0:
64,192,72636,128,0,72673:0:0:0:0:
448,192,72782,1,0,0:0:0:0:
64,192,72782,1,0,0:0:0:0:
320,192,72782,128,0,72818:0:0:0:0:
64,192,72928,128,0,73073:0:0:0:0:
192,192,72928,128,0,73073:0:0:0:0:
320,192,72928,128,0,73073:0:0:0:0:
448,192,72928,128,0,73073:0:0:0:0:
320,192,73219,128,0,73237:0:0:0:0:
448,192,73219,128,0,73292:0:0:0:0:
192,192,73237,128,0,73255:0:0:0:0:
64,192,73255,128,0,73273:0:0:0:0:
192,192,73364,128,0,73383:0:0:0:0:
64,192,73364,128,0,73437:0:0:0:0:
320,192,73383,128,0,73401:0:0:0:0:
448,192,73401,128,0,73419:0:0:0:0:
192,192,73510,128,0,73528:0:0:0:0:
448,192,73510,128,0,73583:0:0:0:0:
64,192,73528,128,0,73546:0:0:0:0:
320,192,73546,128,0,73565:0:0:0:0:
64,192,73656,128,0,73729:0:0:0:0:
320,192,73656,128,0,73674:0:0:0:0:
448,192,73674,128,0,73692:0:0:0:0:
192,192,73692,128,0,73710:0:0:0:0:
448,192,73801,128,0,73820:0:0:0:0:
320,192,73801,128,0,73874:0:0:0:0:
192,192,73820,128,0,73838:0:0:0:0:
64,192,73838,128,0,73856:0:0:0:0:
64,192,73947,128,0,73965:0:0:0:0:
192,192,73947,128,0,74020:0:0:0:0:
320,192,73965,128,0,73983:0:0:0:0:
448,192,73983,128,0,74002:0:0:0:0:
320,192,74093,128,0,74165:0:0:0:0:
192,192,74111,128,0,74129:0:0:0:0:
448,192,74129,128,0,74147:0:0:0:0:
64,192,74129,128,0,74147:0:0:0:0:
192,192,74238,128,0,74311:0:0:0:0:
320,192,74256,128,0,74275:0:0:0:0:
448,192,74275,128,0,74293:0:0:0:0:
64,192,74275,128,0,74293:0:0:0:0:
192,192,74384,128,0,74457:0:0:0:0:
64,192,74384,128,0,74402:0:0:0:0:
320,192,74402,128,0,74420:0:0:0:0:
448,192,74420,128,0,74438:0:0:0:0:
448,192,74529,128,0,74548:0:0:0:0:
320,192,74529,128,0,74602:0:0:0:0:
192,192,74548,128,0,74566:0:0:0:0:
64,192,74566,128,0,74584:0:0:0:0:
64,192,74675,128,0,74894:0:0:0:0:
192,192,74675,128,0,74748:0:0:0:0:
320,192,74675,128,0,74748:0:0:0:0:
448,192,74675,128,0,74748:0:0:0:0:
192,192,74821,128,0,74894:0:0:0:0:
320,192,74821,128,0,74894:0:0:0:0:
448,192,74821,128,0,74894:0:0:0:0:
192,192,74966,128,0,75039:0:0:0:0:
320,192,74966,128,0,75185:0:0:0:0:
64,192,74966,128,0,75039:0:0:0:0:
448,192,74966,128,0,75039:0:0:0:0:
64,192,75112,128,0,75185:0:0:0:0:
192,192,75112,128,0,75185:0:0:0:0:
448,192,75112,128,0,75185:0:0:0:0:
192,192,75258,128,0,75549:0:0:0:0:
64,192,75258,1,0,0:0:0:0:
448,192,75258,1,0,0:0:0:0:
320,192,75258,1,0,0:0:0:0:
320,192,75549,128,0,75695:0:0:0:0:
64,192,75549,1,0,0:0:0:0:
448,192,75549,1,0,0:0:0:0:
448,192,75695,128,0,75840:0:0:0:0:
192,192,75695,128,0,75713:0:0:0:0:
64,192,75695,128,0,75713:0:0:0:0:
64,192,75840,128,0,75986:0:0:0:0:
192,192,75840,128,0,75858:0:0:0:0:
320,192,75840,128,0,75859:0:0:0:0:
192,192,75986,128,0,76131:0:0:0:0:
320,192,75986,128,0,76004:0:0:0:0:
448,192,75986,128,0,76004:0:0:0:0:
320,192,76131,128,0,76277:0:0:0:0:
448,192,76131,128,0,76150:0:0:0:0:
64,192,76131,128,0,76150:0:0:0:0:
448,192,76277,128,0,76423:0:0:0:0:
192,192,76277,128,0,76295:0:0:0:0:
64,192,76277,128,0,76295:0:0:0:0:
192,192,76423,128,0,76568:0:0:0:0:
64,192,76423,128,0,76568:0:0:0:0:
320,192,76423,128,0,76568:0:0:0:0:
64,192,76714,128,0,76860:0:0:0:0:
320,192,76714,128,0,76732:0:0:0:0:
192,192,76714,128,0,76732:0:0:0:0:
448,192,76714,1,0,0:0:0:0:
448,192,76860,128,0,77005:0:0:0:0:
320,192,76860,128,0,76878:0:0:0:0:
192,192,76860,128,0,76878:0:0:0:0:
192,192,77005,128,0,77023:0:0:0:0:
64,192,77005,128,0,77023:0:0:0:0:
320,192,77005,128,0,77151:0:0:0:0:
192,192,77151,128,0,77296:0:0:0:0:
64,192,77151,128,0,77169:0:0:0:0:
448,192,77151,128,0,77169:0:0:0:0:
320,192,77296,128,0,77315:0:0:0:0:
64,192,77296,128,0,77442:0:0:0:0:
448,192,77296,128,0,77315:0:0:0:0:
448,192,77442,128,0,77515:0:0:0:0:
320,192,77442,128,0,77515:0:0:0:0:
192,192,77442,128,0,77515:0:0:0:0:
448,192,77588,128,0,77806:0:0:0:0:
64,192,77588,128,0,77806:0:0:0:0:
192,192,77879,128,0,78079:0:0:0:0:
64,192,77879,128,0,77934:0:0:0:0:
320,192,77879,128,0,77934:0:0:0:0:
448,192,77879,128,0,77934:0:0:0:0:
320,192,78025,128,0,78079:0:0:0:0:
64,192,78025,1,0,0:0:0:0:
448,192,78025,128,0,78225:0:0:0:0:
192,192,78170,128,0,78225:0:0:0:0:
320,192,78170,1,0,0:0:0:0:
64,192,78170,128,0,78225:0:0:0:0:
64,192,78316,128,0,78462:0:0:0:0:
448,192,78316,128,0,78462:0:0:0:0:
320,192,78462,1,0,0:0:0:0:
192,192,78534,1,0,0:0:0:0:
64,192,78534,1,0,0:0:0:0:
320,192,78607,1,0,0:0:0:0:
448,192,78607,1,0,0:0:0:0:
64,192,78753,128,0,78971:0:0:0:0:
192,192,78753,128,0,78971:0:0:0:0:
320,192,78753,128,0,78971:0:0:0:0:
448,192,78753,128,0,78971:0:0:0:0:
64,192,79044,1,0,0:0:0:0:
192,192,79044,1,0,0:0:0:0:
192,192,79190,1,0,0:0:0:0:
320,192,79190,128,0,79335:0:0:0:0:
448,192,79190,128,0,79335:0:0:0:0:
64,192,79263,1,0,0:0:0:0:
192,192,79335,1,0,0:0:0:0:
448,192,79408,1,0,0:0:0:0:
64,192,79408,1,0,0:0:0:0:
320,192,79481,128,0,79554:0:0:0:0:
192,192,79481,1,0,0:0:0:0:
64,192,79554,1,0,0:0:0:0:
192,192,79627,1,0,0:0:0:0:
320,192,79627,128,0,79699:0:0:0:0:
448,192,79627,1,0,0:0:0:0:
64,192,79699,1,0,0:0:0:0:
192,192,79772,1,0,0:0:0:0:
320,192,79772,1,0,0:0:0:0:
448,192,79845,128,0,79918:0:0:0:0:
64,192,79845,128,0,79918:0:0:0:0:
320,192,79918,128,0,79991:0:0:0:0:
192,192,79918,128,0,79991:0:0:0:0:
448,192,79991,128,0,80063:0:0:0:0:
64,192,79991,128,0,80063:0:0:0:0:
192,192,80063,128,0,80136:0:0:0:0:
320,192,80063,128,0,80136:0:0:0:0:
448,192,80136,128,0,80209:0:0:0:0:
64,192,80136,128,0,80209:0:0:0:0:
192,192,80209,128,0,80282:0:0:0:0:
320,192,80209,128,0,80282:0:0:0:0:
448,192,80282,128,0,80355:0:0:0:0:
64,192,80282,128,0,80355:0:0:0:0:
192,192,80355,128,0,80428:0:0:0:0:
320,192,80355,128,0,80428:0:0:0:0:
64,192,80428,128,0,80500:0:0:0:0:
448,192,80428,128,0,80500:0:0:0:0:
192,192,80500,128,0,80573:0:0:0:0:
320,192,80500,128,0,80573:0:0:0:0:
448,192,80573,128,0,80646:0:0:0:0:
320,192,80610,128,0,80682:0:0:0:0:
192,192,80646,128,0,80719:0:0:0:0:
64,192,80682,128,0,80755:0:0:0:0:
448,192,80719,128,0,80792:0:0:0:0:
320,192,80755,128,0,80828:0:0:0:0:
192,192,80792,128,0,80864:0:0:0:0:
64,192,80828,128,0,80901:0:0:0:0:
448,192,80864,128,0,80937:0:0:0:0:
320,192,80901,128,0,80974:0:0:0:0:
192,192,80937,128,0,81010:0:0:0:0:
64,192,80974,128,0,81046:0:0:0:0:
448,192,81010,128,0,81083:0:0:0:0:
320,192,81083,128,0,81156:0:0:0:0:
192,192,81156,128,0,81229:0:0:0:0:
64,192,81229,128,0,81301:0:0:0:0:
320,192,81229,1,0,0:0:0:0:
448,192,81229,128,0,81665:0:0:0:0:
320,192,81374,1,0,0:0:0:0:
64,192,81520,1,0,0:0:0:0:
192,192,81520,1,0,0:0:0:0:
320,192,81665,1,0,0:0:0:0:
64,192,81665,128,0,81811:0:0:0:0:
192,192,81811,1,0,0:0:0:0:
320,192,81811,1,0,0:0:0:0:
448,192,81811,128,0,82102:0:0:0:0:
192,192,81957,128,0,82029:0:0:0:0:
64,192,82029,128,0,82102:0:0:0:0:
192,192,82102,128,0,82175:0:0:0:0:
64,192,82175,128,0,82248:0:0:0:0:
320,192,82248,128,0,82321:0:0:0:0:
192,192,82321,128,0,82394:0:0:0:0:
448,192,82321,128,0,82394:0:0:0:0:
64,192,82394,128,0,82466:0:0:0:0:
320,192,82394,128,0,82466:0:0:0:0:
192,192,82466,128,0,82539:0:0:0:0:
320,192,82539,128,0,82612:0:0:0:0:
192,192,82612,128,0,82685:0:0:0:0:
448,192,82612,128,0,82685:0:0:0:0:
64,192,82685,128,0,82758:0:0:0:0:
320,192,82685,128,0,82758:0:0:0:0:
192,192,82758,128,0,82830:0:0:0:0:
320,192,82830,128,0,82903:0:0:0:0:
64,192,82830,1,0,0:0:0:0:
448,192,82903,128,0,82976:0:0:0:0:
192,192,82903,1,0,0:0:0:0:
320,192,82976,128,0,83049:0:0:0:0:
64,192,82976,1,0,0:0:0:0:
192,192,83049,128,0,83122:0:0:0:0:
64,192,83122,128,0,83195:0:0:0:0:
448,192,83122,128,0,83195:0:0:0:0:
320,192,83195,128,0,83267:0:0:0:0:
192,192,83267,128,0,83340:0:0:0:0:
448,192,83267,1,0,0:0:0:0:
64,192,83340,128,0,83413:0:0:0:0:
320,192,83413,128,0,83486:0:0:0:0:
448,192,83413,128,0,83704:0:0:0:0:
192,192,83486,128,0,83559:0:0:0:0:
64,192,83559,128,0,83631:0:0:0:0:
64,192,83704,1,0,0:0:0:0:
192,192,83704,128,0,83777:0:0:0:0:
320,192,83704,1,0,0:0:0:0:
448,192,83777,128,0,83850:0:0:0:0:
64,192,83850,128,0,83923:0:0:0:0:
192,192,83850,128,0,83923:0:0:0:0:
320,192,83923,128,0,83996:0:0:0:0:
448,192,83996,128,0,84214:0:0:0:0:
192,192,83996,128,0,84068:0:0:0:0:
64,192,83996,1,0,0:0:0:0:
64,192,84141,128,0,84214:0:0:0:0:
192,192,84141,128,0,84214:0:0:0:0:
320,192,84141,128,0,84214:0:0:0:0:
192,192,84287,128,0,84360:0:0:0:0:
320,192,84287,128,0,84360:0:0:0:0:
448,192,84287,128,0,84360:0:0:0:0:
64,192,84432,128,0,84505:0:0:0:0:
192,192,84432,1,0,0:0:0:0:
448,192,84505,128,0,84578:0:0:0:0:
64,192,84578,128,0,84651:0:0:0:0:
192,192,84578,128,0,84651:0:0:0:0:
320,192,84651,128,0,84724:0:0:0:0:
448,192,84651,128,0,84724:0:0:0:0:
192,192,84724,128,0,84796:0:0:0:0:
64,192,84724,128,0,84796:0:0:0:0:
448,192,84796,128,0,84869:0:0:0:0:
320,192,84796,128,0,84869:0:0:0:0:
192,192,84869,128,0,84942:0:0:0:0:
64,192,84869,128,0,84942:0:0:0:0:
320,192,84942,128,0,85015:0:0:0:0:
448,192,84942,128,0,85015:0:0:0:0:
192,192,85015,128,0,85088:0:0:0:0:
64,192,85015,128,0,85088:0:0:0:0:
320,192,85088,128,0,85161:0:0:0:0:
448,192,85088,128,0,85161:0:0:0:0:
192,192,85161,128,0,85233:0:0:0:0:
64,192,85161,128,0,85233:0:0:0:0:
320,192,85233,128,0,85306:0:0:0:0:
448,192,85233,128,0,85306:0:0:0:0:
64,192,85306,128,0,85452:0:0:0:0:
192,192,85306,128,0,85452:0:0:0:0:
320,192,85452,1,0,0:0:0:0:
448,192,85452,1,0,0:0:0:0:
192,192,85597,1,0,0:0:0:0:
320,192,85597,1,0,0:0:0:0:
448,192,85597,1,0,0:0:0:0:
192,192,85743,128,0,86034:0:0:0:0:
64,192,85743,128,0,85816:0:0:0:0:
448,192,85743,128,0,85816:0:0:0:0:
320,192,85816,128,0,85889:0:0:0:0:
448,192,85889,128,0,85962:0:0:0:0:
64,192,85962,128,0,86034:0:0:0:0:
448,192,86034,128,0,86180:0:0:0:0:
320,192,86034,128,0,86107:0:0:0:0:
192,192,86107,128,0,86180:0:0:0:0:
64,192,86180,1,0,0:0:0:0:
448,192,86253,1,0,0:0:0:0:
64,192,86326,128,0,86471:0:0:0:0:
192,192,86326,1,0,0:0:0:0:
320,192,86326,1,0,0:0:0:0:
192,192,86471,128,0,86617:0:0:0:0:
448,192,86471,1,0,0:0:0:0:
320,192,86471,1,0,0:0:0:0:
448,192,86617,128,0,86763:0:0:0:0:
320,192,86617,1,0,0:0:0:0:
64,192,86617,128,0,86763:0:0:0:0:
192,192,86690,1,0,0:0:0:0:
320,192,86763,1,0,0:0:0:0:
192,192,86835,1,0,0:0:0:0:
64,192,86908,1,0,0:0:0:0:
448,192,86908,128,0,86981:0:0:0:0:
192,192,86981,128,0,87054:0:0:0:0:
448,192,87054,128,0,87127:0:0:0:0:
64,192,87054,1,0,0:0:0:0:
320,192,87054,1,0,0:0:0:0:
192,192,87127,128,0,87199:0:0:0:0:
448,192,87199,128,0,87272:0:0:0:0:
64,192,87199,1,0,0:0:0:0:
320,192,87199,1,0,0:0:0:0:
192,192,87272,128,0,87345:0:0:0:0:
448,192,87345,128,0,87418:0:0:0:0:
320,192,87345,1,0,0:0:0:0:
64,192,87345,1,0,0:0:0:0:
192,192,87418,128,0,87491:0:0:0:0:
64,192,87491,128,0,87563:0:0:0:0:
320,192,87491,1,0,0:0:0:0:
448,192,87491,1,0,0:0:0:0:
192,192,87563,128,0,87636:0:0:0:0:
320,192,87636,128,0,87709:0:0:0:0:
64,192,87636,1,0,0:0:0:0:
192,192,87709,1,0,0:0:0:0:
64,192,87782,128,0,87855:0:0:0:0:
448,192,87782,128,0,87855:0:0:0:0:
320,192,87782,1,0,0:0:0:0:
192,192,87855,128,0,87928:0:0:0:0:
64,192,87928,128,0,88000:0:0:0:0:
448,192,87928,128,0,88000:0:0:0:0:
320,192,88000,128,0,88073:0:0:0:0:
64,192,88073,128,0,88146:0:0:0:0:
448,192,88073,128,0,88146:0:0:0:0:
192,192,88146,128,0,88219:0:0:0:0:
64,192,88219,128,0,88346:0:0:0:0:
448,192,88219,1,0,0:0:0:0:
192,192,88292,128,0,88419:0:0:0:0:
320,192,88364,128,0,88492:0:0:0:0:
448,192,88437,128,0,88565:0:0:0:0:
64,192,88437,128,0,88565:0:0:0:0:
192,192,88510,128,0,88565:0:0:0:0:
448,192,88656,1,0,0:0:0:0:
64,192,88656,1,0,0:0:0:0:
192,192,88656,1,0,0:0:0:0:
320,192,88656,1,0,0:0:0:0:
64,192,88947,1,0,0:0:0:0:
192,192,88947,1,0,0:0:0:0:
320,192,88947,1,0,0:0:0:0:
448,192,88947,1,0,0:0:0:0:
