osu file format v14

[General]
AudioFilename: GATE II - Sekai wo Koete.mp3
AudioLeadIn: 0
PreviewTime: 52565
Countdown: 0
SampleSet: Normal
StackLeniency: 0.3
Mode: 0
LetterboxInBreaks: 0
WidescreenStoryboard: 1

[Editor]
DistanceSpacing: 1.2
BeatDivisor: 4
GridSize: 32
TimelineZoom: 3.299999

[Metadata]
Title:GATE II ~Sekai o Koete~ (TV-size)
TitleUnicode:GATE Ⅱ ~世界を超えて~ (TV-size)
Artist:KISIDA KYODAN & THE AKEBOSI ROCKETS
ArtistUnicode:岸田教団&THE明星ロケッツ
Creator:Anxient
Version:Hard
Source:GATE 自衛隊 彼の地にて、斯く戦えり
Tags:opening drum 2 feb Jieitai Kanochi nite Kaku Tatakaeri 2nd Season ゲート
BeatmapID:905046
BeatmapSetID:415910

[Difficulty]
HPDrainRate:5
CircleSize:3.5
OverallDifficulty:6
ApproachRate:8
SliderMultiplier:1.4
SliderTickRate:2

[Events]
//Background and Video events
0,0,"xexxar's best girl.jpg",0,0
Video,545,"GATE 2 OP RES.avi"
//Break Periods
//Storyboard Layer 0 (Background)
//Storyboard Layer 1 (Fail)
//Storyboard Layer 2 (Pass)
//Storyboard Layer 3 (Foreground)
//Storyboard Sound Samples

[TimingPoints]
721,291.26213592233,4,1,1,60,1,0
6400,-100,4,1,1,70,0,0
15720,-111.111111111111,4,1,2,60,0,0
24167,-111.111111111111,4,1,3,70,0,0
25041,-100,4,1,1,70,0,0
34361,-100,4,1,4,70,0,0
39021,-100,4,1,1,70,0,0
43099,-100,4,1,5,70,0,0
43682,-100,4,1,3,70,0,0
44119,-100,4,1,3,50,0,0
48924,-100,4,1,6,50,0,0
50672,-100,4,1,1,70,0,0
52565,-100,4,1,1,50,0,0
53002,-95.2380952380952,4,1,1,70,0,1
79798,-95.2380952380952,4,1,1,70,0,0
80963,-95.2380952380952,4,1,3,70,0,1
89992,-95.2380952380952,4,1,1,70,0,0

[Colours]
Combo1 : 241,117,255
Combo2 : 102,198,255
Combo3 : 255,64,64

[HitObjects]
172,34,721,6,0,P|224:17|311:74,1,140,0|0,0:0|0:0,0:0:0:0:
362,124,1157,1,0,0:0:0:0:
442,68,1303,2,0,L|539:57,2,70,0|0|0,0:0|0:0|0:0,0:0:0:0:
362,124,1740,1,0,0:0:0:0:
435,189,1886,2,0,P|443:235|431:278,2,70,0|0|0,0:0|0:0|0:0,0:0:0:0:
362,124,2322,1,0,0:0:0:0:
279,178,2468,2,0,P|234:191|179:183,1,70,0|0,0:0|0:0,0:0:0:0:
139,123,2759,6,0,P|94:110|39:118,1,70,8|0,0:0|0:0,0:0:0:0:
87,207,3051,2,0,P|32:225|0:255,1,70,8|0,0:0|0:0,0:0:0:0:
94,299,3342,1,8,0:0:0:0:
173,242,3487,2,0,P|209:282|316:299,1,140,8|8,0:0|0:0,0:0:0:0:
363,238,3924,2,0,P|399:198|506:181,2,140,8|8|4,0:0|0:0|0:0,0:0:0:0:
363,238,4798,6,0,P|358:269|362:298,5,35
386,296,5235,2,0,P|313:117|230:292,1,490
311,224,6400,6,0,B|270:206|270:206|143:220,1,140,4|0,0:0|0:0,0:0:0:0:
91,179,6837,2,0,P|78:127|84:92,1,70,8|0,0:0|0:0,0:0:0:0:
124,32,7128,1,0,0:0:0:0:
202,79,7274,2,0,P|245:88|294:78,1,70,0|8,0:0|0:0,0:0:0:0:
374,26,7565,6,0,P|363:80|390:187,1,140,4|0,0:0|0:0,0:0:0:0:
438,230,8002,2,0,P|444:264|439:298,1,70,8|0,0:0|0:0,0:0:0:0:
363,349,8293,1,0,0:0:0:0:
290,295,8439,2,0,P|250:289|206:294,1,70,0|8,0:0|0:0,0:0:0:0:
113,344,8730,6,0,P|127:275|116:207,1,140,4|0,0:0|0:0,0:0:0:0:
58,136,9167,2,0,P|53:101|59:67,1,70,8|0,0:0|0:0,0:0:0:0:
137,20,9458,1,0,0:0:0:0:
194,101,9604,2,0,P|228:102|263:96,1,70,0|8,0:0|0:0,0:0:0:0:
377,58,9895,6,0,B|387:102|387:102|369:226,1,140,4|0,0:0|0:0,0:0:0:0:
293,238,10332,1,8,0:0:0:0:
286,328,10478,1,0,0:0:0:0:
368,290,10623,2,0,P|408:284|452:289,2,70,0|0|8,0:0|0:0|0:0,0:0:0:0:
293,238,11060,6,0,P|246:218|144:257,1,140,4|0,0:0|0:0,0:0:0:0:
88,185,11497,2,0,P|78:139|87:97,1,70,8|0,0:0|0:0,0:0:0:0:
138,46,11788,1,0,0:0:0:0:
216,92,11934,2,0,L|312:83,1,70,0|8,0:0|0:0,0:0:0:0:
376,75,12225,6,0,P|415:84|431:189,1,140,4|0,0:0|0:0,0:0:0:0:
383,248,12662,2,0,L|379:317,1,70,8|0,0:0|0:0,0:0:0:0:
475,293,12954,2,0,L|478:362,2,70,0|0|8,0:0|0:0|0:0,0:0:0:0:
383,248,13390,6,0,P|336:228|234:267,1,140,4|0,0:0|0:0,0:0:0:0:
173,294,13827,2,0,P|130:306|75:303,1,70,8|0,0:0|0:0,0:0:0:0:
123,217,14119,2,0,P|82:204|53:173,1,70,0|0,0:0|0:0,0:0:0:0:
134,131,14410,1,8,0:0:0:0:
205,75,14555,1,4,0:0:0:0:
205,75,14847,6,0,P|251:106|297:115,1,70,8|0,0:0|0:0,0:0:0:0:
344,66,15138,2,0,P|398:55|437:29,2,70,8|0|8,0:0|0:0|0:0,0:0:0:0:
308,213,15720,6,0,P|344:194|376:305,1,188.999994232178,4|8,0:0|0:0,0:0:0:0:
310,332,16303,1,0,0:0:0:0:
243,273,16449,2,0,L|155:267,2,62.9999980773926,0|0|8,0:0|0:0|0:0,0:0:0:0:
308,213,16886,6,0,P|322:163|297:69,1,125.999996154785
227,59,17322,2,0,P|220:89|227:119,1,62.9999980773926,8|0,0:0|0:0,0:0:0:0:
157,174,17614,2,0,P|163:204|156:234,2,62.9999980773926,0|0|8,0:0|0:0|0:0,0:0:0:0:
59,114,18051,6,0,B|23:151|23:151|50:213|9:291,1,188.999994232178,4|8,0:0|0:0,0:0:0:0:
81,339,18633,1,0,0:0:0:0:
163,306,18779,2,0,P|194:297|239:298,1,62.9999980773926
295,349,19070,1,8,0:0:0:0:
383,343,19216,6,0,P|406:315|415:216,1,125.999996154785
352,170,19653,2,0,L|289:166,1,62.9999980773926,8|0,0:0|0:0,0:0:0:0:
408,102,19944,2,0,L|479:98,2,62.9999980773926,0|0|8,0:0|0:0|0:0,0:0:0:0:
303,60,20381,6,0,B|257:64|257:64|175:117,1,125.999996154785,4|0,0:0|0:0,0:0:0:0:
110,146,20818,2,0,P|95:199|99:226,1,62.9999980773926,8|0,0:0|0:0,0:0:0:0:
183,200,21109,2,0,P|192:243|216:281,1,62.9999980773926
260,324,21400,1,8,0:0:0:0:
339,284,21546,6,0,P|373:273|471:317,1,125.999996154785
498,222,21983,2,0,P|511:180|506:146,1,62.9999980773926,8|0,0:0|0:0,0:0:0:0:
422,174,22274,2,0,P|410:132|391:108,1,62.9999980773926
315,89,22565,1,8,0:0:0:0:
227,170,22711,6,0,P|181:184|105:137,1,125.999996154785,4|0,0:0|0:0,0:0:0:0:
38,197,23148,1,8,0:0:0:0:
45,284,23293,2,0,L|49:351,2,62.9999980773926,0|0|0,0:0|0:0|0:0,0:0:0:0:
38,197,23730,1,8,0:0:0:0:
31,110,23876,1,4,0:0:0:0:
31,110,24167,5,0,0:0:0:0:
87,42,24313,2,0,P|129:34|166:42,1,62.9999980773926,8|0,0:0|0:0,0:0:0:0:
210,99,24604,2,0,P|252:107|289:99,2,62.9999980773926,8|0|0,0:0|0:0|0:0,0:0:0:0:
353,47,25041,6,0,P|368:83|314:193,1,140,4|0,0:0|0:0,0:0:0:0:
278,243,25478,2,0,P|268:293|278:336,1,70,8|0,0:0|0:0,0:0:0:0:
358,289,25769,2,0,P|371:338|397:368,2,70,0|0|8,0:0|0:0|0:0,0:0:0:0:
449,292,26206,6,0,P|464:256|410:146,1,140,4|0,0:0|0:0,0:0:0:0:
354,120,26643,1,8,0:0:0:0:
269,152,26788,1,0,0:0:0:0:
186,112,26934,2,0,L|99:102,2,70,0|0|8,0:0|0:0|0:0,0:0:0:0:
269,152,27371,6,0,P|286:198|226:275,1,140,4|0,0:0|0:0,0:0:0:0:
156,234,27808,1,8,0:0:0:0:
77,280,27954,2,0,P|68:325|76:366,2,70,0|0|0,0:0|0:0|0:0,0:0:0:0:
156,234,28390,1,8,0:0:0:0:
240,270,28536,6,0,P|278:301|395:301,1,140,4|0,0:0|0:0,0:0:0:0:
437,256,28973,2,0,P|445:209|436:165,1,70,8|0,0:0|0:0,0:0:0:0:
389,112,29264,1,2,0:0:0:0:
431,31,29410,1,2,0:0:0:0:
483,105,29555,1,2,0:0:0:0:
357,102,29701,6,0,L|208:91,1,140,4|0,0:0|0:0,0:0:0:0:
135,131,30138,2,0,P|110:167|105:209,1,70,8|0,0:0|0:0,0:0:0:0:
195,203,30429,2,0,P|192:244|205:284,1,70,0|0,0:0|0:0,0:0:0:0:
264,335,30720,1,8,0:0:0:0:
343,237,30866,6,0,P|362:170|356:101,1,140,4|0,0:0|0:0,0:0:0:0:
293,36,31303,1,8,0:0:0:0:
215,84,31449,2,0,P|181:52|71:60,1,140,0|0,0:0|0:0,0:0:0:0:
9,88,31886,1,8,0:0:0:0:
82,190,32031,6,0,B|92:228|92:228|75:358,1,140,4|0,0:0|0:0,0:0:0:0:
159,370,32468,1,8,0:0:0:0:
235,320,32614,2,0,P|281:308|323:313,1,70,0|0,0:0|0:0,0:0:0:0:
388,275,32905,1,0,0:0:0:0:
373,365,33051,1,8,0:0:0:0:
480,259,33196,6,0,P|462:213|469:97,1,140,4|0,0:0|0:0,0:0:0:0:
407,41,33633,1,8,0:0:0:0:
340,103,33779,1,0,0:0:0:0:
268,46,33924,2,0,P|223:40|193:48,2,70,0|8|0,0:0|0:0|0:0,0:0:0:0:
340,103,34361,6,0,P|349:144|260:217,1,140,4|0,0:0|0:0,0:0:0:0:
205,184,34798,2,0,P|157:174|116:185,1,70,10|0,0:0|0:0,0:0:0:0:
64,232,35089,1,2,0:0:0:0:
117,305,35235,2,0,L|120:382,2,70,0|10|0,0:0|0:0|0:0,0:0:0:0:
64,232,35672,6,0,P|46:185|53:144,1,70,2|0,0:0|0:0,0:0:0:0:
102,93,35963,2,0,P|120:46|113:5,2,70,10|0|2,0:0|0:0|0:0,0:0:0:0:
136,177,36400,1,0,0:0:0:0:
215,221,36546,1,2,0:0:0:0:
320,153,36691,6,0,P|339:203|306:309,1,140,4|0,0:0|0:0,0:0:0:0:
405,375,37128,2,0,P|399:340|411:308,1,70,10|0,0:0|0:0,0:0:0:0:
473,240,37420,1,2,0:0:0:0:
437,156,37565,1,0,0:0:0:0:
490,81,37711,2,0,P|495:46|484:13,1,70,10|0,0:0|0:0,0:0:0:0:
403,57,38002,6,0,B|368:68|368:68|247:53,1,140,2|10,0:0|0:0,0:0:0:0:
192,109,38439,1,0,0:0:0:0:
117,57,38585,2,0,P|102:99|108:139,2,70,2|0|10,0:0|0:0|0:0,0:0:0:0:
211,135,39021,6,0,P|216:182|199:303,1,140,4|0,0:0|0:0,0:0:0:0:
126,317,39458,1,8,0:0:0:0:
197,373,39604,1,0,0:0:0:0:
129,225,39750,2,0,L|59:220,2,70,0|0|8,0:0|0:0|0:0,0:0:0:0:
207,273,40187,6,0,P|271:296|339:281,1,140
412,228,40623,2,0,P|439:194|477:171,1,70,8|0,0:0|0:0,0:0:0:0:
425,95,40915,2,0,P|421:52|431:9,2,70,0|0|8,0:0|0:0|0:0,0:0:0:0:
337,120,41352,6,0,P|269:134|204:111,1,140,4|0,0:0|0:0,0:0:0:0:
131,57,41788,2,0,P|89:55|54:66,1,70,8|0,0:0|0:0,0:0:0:0:
106,142,42080,2,0,P|65:167|47:197,1,70
24,271,42371,1,8,0:0:0:0:
24,271,42517,1,0,0:0:0:0:
136,326,42662,6,0,P|148:267|143:233,1,70
213,194,42954,1,8,0:0:0:0:
336,217,43099,1,2,0:0:0:0:
336,217,43390,1,2,0:0:0:0:
470,291,43682,6,0,P|456:246|468:132,1,140,4|0,0:0|0:0,0:0:0:0:
419,82,44119,1,0,0:0:0:0:
419,82,44264,1,8,0:0:0:0:
334,46,44410,2,0,L|248:42,2,70
294,128,44847,5,0,0:0:0:0:
213,168,44992,1,0,0:0:0:0:
153,98,45138,2,0,L|83:101,1,70,8|0,0:0|0:0,0:0:0:0:
20,167,45429,1,0,0:0:0:0:
72,241,45575,2,0,P|81:282|75:324,1,70,8|0,0:0|0:0,0:0:0:0:
165,338,45866,1,8,0:0:0:0:
239,285,46012,6,0,P|284:269|389:296,1,140,4|0,0:0|0:0,0:0:0:0:
444,341,46449,1,8,0:0:0:0:
454,251,46594,1,0,0:0:0:0:
406,173,46740,2,0,P|401:127|413:82,2,70,0|0|0,0:0|0:0|0:0,0:0:0:0:
299,138,47177,6,0,B|247:122|247:122|137:135,1,140,8|8,0:0|0:0,0:0:0:0:
72,151,47614,1,0,0:0:0:0:
100,64,47759,1,0,0:0:0:0:
174,156,47905,2,0,P|180:198|166:246,1,70,4|0,0:0|0:0,0:0:0:0:
105,284,48196,1,0,0:0:0:0:
187,322,48342,1,4,0:0:0:0:
187,322,48779,5,0,0:0:0:0:
266,277,48924,2,0,P|304:269|346:277,1,70,8|8,0:0|0:0,0:0:0:0:
407,328,49216,2,0,P|424:285|420:246,1,70,0|0,0:0|0:0,0:0:0:0:
365,191,49507,1,0,0:0:0:0:
308,119,49653,6,0,P|309:84|324:52,2,70,0|8|8,0:0|0:0|0:0,0:0:0:0:
242,181,50089,1,8,0:0:0:0:
151,195,50235,2,0,P|102:194|65:180,1,70,8|8,0:0|0:0,0:0:0:0:
95,48,50526,2,8,P|129:46|163:54,1,70,8|4,0:3|0:1,0:3:0:0:
256,192,50745,12,0,51837,0:0:0:0:
95,86,52128,5,8,0:0:0:0:
143,163,52274,2,0,P|190:190|231:198,1,70
296,194,52565,1,0,0:0:0:0:
475,49,53002,6,0,P|442:76|449:173,1,146.999995513916,4|0,0:0|0:0,0:0:0:0:
382,231,53439,2,0,P|386:285|377:331,1,73.4999977569581,8|0,0:0|0:0,0:0:0:0:
309,352,53730,1,0,0:0:0:0:
238,299,53876,2,0,P|189:290|151:296,1,73.4999977569581,0|8,0:0|0:0,0:0:0:0:
94,240,54167,6,0,P|72:201|93:91,1,146.999995513916,4|0,0:0|0:0,0:0:0:0:
148,41,54604,2,0,P|170:89|161:140,1,73.4999977569581,8|0,0:0|0:0,0:0:0:0:
234,169,54895,1,0,0:0:0:0:
302,113,55041,2,0,L|382:108,1,73.4999977569581,0|8,0:0|0:0,0:0:0:0:
463,105,55332,6,0,P|498:135|447:235,1,146.999995513916,4|0,0:0|0:0,0:0:0:0:
398,262,55769,2,0,P|386:302|388:342,1,73.4999977569581,8|0,0:0|0:0,0:0:0:0:
301,357,56060,1,0,0:0:0:0:
224,313,56206,2,0,P|169:304|144:311,1,73.4999977569581,0|8,0:0|0:0,0:0:0:0:
71,342,56497,6,0,B|33:364|33:364|54:238,1,146.999995513916,4|0,0:0|0:0,0:0:0:0:
98,188,56934,2,0,P|107:149|101:103,1,73.4999977569581,8|0,0:0|0:0,0:0:0:0:
52,44,57225,1,0,0:0:0:0:
139,32,57371,2,0,L|239:20,1,73.4999977569581,0|8,0:0|0:0,0:0:0:0:
276,83,57662,6,0,P|321:106|429:59,1,146.999995513916,4|0,0:0|0:0,0:0:0:0:
494,109,58099,2,0,P|510:164|500:207,1,73.4999977569581,8|0,0:0|0:0,0:0:0:0:
477,262,58390,1,0,0:0:0:0:
395,227,58536,2,0,P|342:215|310:220,1,73.4999977569581,0|8,0:0|0:0,0:0:0:0:
252,269,58827,6,0,P|206:293|118:230,1,146.999995513916,4|0,0:0|0:0,0:0:0:0:
174,179,59264,2,0,P|182:136|170:82,1,73.4999977569581,8|0,0:0|0:0,0:0:0:0:
95,135,59555,2,0,P|80:89|46:58,1,73.4999977569581
7,139,59847,1,8,0:0:0:0:
53,213,59992,6,0,B|57:258|57:258|35:368,1,146.999995513916,4|0,0:0|0:0,0:0:0:0:
123,339,60429,2,0,P|154:317|194:309,1,73.4999977569581,8|0,0:0|0:0,0:0:0:0:
254,250,60720,2,0,P|277:205|281:171,1,73.4999977569581,0|0,0:0|0:0,0:0:0:0:
259,96,61012,1,8,0:0:0:0:
331,46,61157,6,0,P|376:36|453:126,1,146.999995513916,4|0,0:0|0:0,0:0:0:0:
396,165,61594,2,0,P|386:205|392:249,1,73.4999977569581,8|0,0:0|0:0,0:0:0:0:
431,315,61886,2,0,P|461:340|507:348,2,73.4999977569581,0|0|0,0:0|0:0|0:0,0:0:0:0:
343,315,62322,6,0,B|304:333|304:333|185:317|184:316,1,146.999995513916,4|0,0:0|0:0,0:0:0:0:
126,271,62759,2,0,P|95:227|94:184,1,73.4999977569581,8|0,0:0|0:0,0:0:0:0:
5,228,63051,2,0,P|6:184|23:151,1,73.4999977569581,0|0,0:0|0:0,0:0:0:0:
72,87,63342,1,8,0:0:0:0:
142,138,63487,6,0,B|181:156|181:156|300:140|301:139,1,146.999995513916,4|0,0:0|0:0,0:0:0:0:
322,62,63924,2,0,P|365:101|371:142,1,73.4999977569581,8|0,0:0|0:0,0:0:0:0:
445,159,64216,2,0,P|442:200|428:245,1,73.4999977569581,0|0,0:0|0:0,0:0:0:0:
369,292,64507,1,8,0:0:0:0:
306,219,64653,6,0,P|270:281|292:349,1,146.999995513916,4|0,0:0|0:0,0:0:0:0:
204,359,65089,2,0,P|161:329|117:317,1,73.4999977569581,8|0,0:0|0:0,0:0:0:0:
65,275,65381,2,0,P|46:239|48:182,1,73.4999977569581,0|0,0:0|0:0,0:0:0:0:
54,119,65672,1,8,0:0:0:0:
126,169,65818,6,0,B|160:184|160:184|297:137,1,146.999995513916,4|0,0:0|0:0,0:0:0:0:
345,116,66254,2,0,P|402:114|444:129,1,73.4999977569581,8|0,0:0|0:0,0:0:0:0:
380,198,66546,2,0,P|419:233|432:270,1,73.4999977569581,0|0,0:0|0:0,0:0:0:0:
393,333,66837,1,8,0:0:0:0:
311,298,66983,6,0,B|274:283|274:283|232:160,1,146.999995513916,4|0,0:0|0:0,0:0:0:0:
210,98,67420,2,0,P|174:72|134:62,1,73.4999977569581,8|0,0:0|0:0,0:0:0:0:
139,151,67711,2,0,P|102:144|60:150,1,73.4999977569581,0|0,0:0|0:0,0:0:0:0:
15,220,68002,1,8,0:0:0:0:
75,284,68148,6,0,B|114:302|114:302|227:280,1,146.999995513916,4|0,0:0|0:0,0:0:0:0:
278,218,68585,2,0,P|317:203|370:209,1,73.4999977569581,8|0,0:0|0:0,0:0:0:0:
330,289,68876,2,0,P|377:293|419:315,1,73.4999977569581,0|0,0:0|0:0,0:0:0:0:
477,347,69167,1,8,0:0:0:0:
478,258,69313,6,0,B|466:217|466:217|474:98,1,146.999995513916,4|0,0:0|0:0,0:0:0:0:
413,47,69750,2,0,P|374:29|314:28,1,73.4999977569581,8|0,0:0|0:0,0:0:0:0:
295,98,70041,2,0,P|244:112|207:141,1,73.4999977569581,0|0,0:0|0:0,0:0:0:0:
148,81,70332,1,0,0:0:0:0:
65,111,70478,6,0,P|46:148|75:274,1,146.999995513916,4|0,0:0|0:0,0:0:0:0:
127,303,70915,2,0,P|74:336|37:337,1,73.4999977569581,8|0,0:0|0:0,0:0:0:0:
137,214,71206,2,0,P|171:225|199:248,1,73.4999977569581,0|0,0:0|0:0,0:0:0:0:
261,312,71497,1,0,0:0:0:0:
325,251,71643,6,0,P|380:236|419:131,1,146.999995513916,4|0,0:0|0:0,0:0:0:0:
344,119,72080,2,0,P|307:84|294:38,1,73.4999977569581,8|0,0:0|0:0,0:0:0:0:
218,25,72371,2,0,P|176:24|125:47,1,73.4999977569581,0|0,0:0|0:0,0:0:0:0:
106,112,72662,1,8,0:0:0:0:
176,165,72808,6,0,P|205:230|174:294,1,146.999995513916,4|0,0:0|0:0,0:0:0:0:
131,371,73245,2,0,P|91:334|84:289,1,73.4999977569581,8|0,0:0|0:0,0:0:0:0:
28,249,73536,2,0,P|49:200|46:147,1,73.4999977569581
23,96,73827,1,8,0:0:0:0:
70,21,73973,6,0,B|114:9|114:9|226:29,1,146.999995513916,4|0,0:0|0:0,0:0:0:0:
261,101,74410,2,0,P|299:121|341:124,1,73.4999977569581,8|0,0:0|0:0,0:0:0:0:
325,36,74701,2,0,P|372:38|413:23,1,73.4999977569581,0|0,0:0|0:0,0:0:0:0:
467,84,74992,1,8,0:0:0:0:
414,155,75138,6,0,P|410:201|426:317,1,146.999995513916,4|0,0:0|0:0,0:0:0:0:
350,353,75575,1,8,0:0:0:0:
278,301,75720,1,0,0:0:0:0:
196,335,75866,2,0,P|154:342|103:329,1,73.4999977569581,0|0,0:0|0:0,0:0:0:0:
59,276,76157,1,8,0:0:0:0:
23,195,76303,6,0,P|43:156|159:126,1,146.999995513916,4|0,0:0|0:0,0:0:0:0:
203,175,76740,2,0,P|247:195|297:195,1,73.4999977569581,8|0,0:0|0:0,0:0:0:0:
262,109,77031,2,0,P|314:98|354:69,1,73.4999977569581,0|0,0:0|0:0,0:0:0:0:
400,33,77322,1,8,0:0:0:0:
472,84,77468,6,0,P|494:144|475:249,1,146.999995513916,4|0,0:0|0:0,0:0:0:0:
420,285,77905,2,0,P|372:309|329:310,1,73.4999977569581,8|0,0:0|0:0,0:0:0:0:
357,223,78196,2,0,P|307:212|267:180,1,73.4999977569581,0|0,0:0|0:0,0:0:0:0:
203,175,78487,1,8,0:0:0:0:
115,189,78633,6,0,P|73:209|65:330,1,146.999995513916,4|0,0:0|0:0,0:0:0:0:
133,276,79070,2,0,P|152:314|195:344,1,73.4999977569581,8|0,0:0|0:0,0:0:0:0:
224,260,79361,2,0,B|263:237|263:237|312:120,1,146.999995513916,0|0,0:0|0:0,0:0:0:0:
337,62,79798,1,4,0:0:0:0:
337,62,80089,5,0,0:0:0:0:
248,55,80235,2,0,L|163:51,1,73.4999977569581,8|0,0:0|0:0,0:0:0:0:
94,88,80526,2,0,L|20:91,2,73.4999977569581,8|0|0,0:0|0:0|0:0,0:0:0:0:
163,143,80963,6,0,P|174:190|126:280,1,146.999995513916,0|0,0:0|0:0,0:0:0:0:
184,346,81400,2,0,L|274:339,1,73.4999977569581,8|0,0:0|0:0,0:0:0:0:
340,310,81691,2,0,L|413:315,1,73.4999977569581,0|0,0:0|0:0,0:0:0:0:
483,260,81983,1,8,0:0:0:0:
424,194,82128,1,0,0:0:0:0:
338,215,82274,6,0,B|299:235|299:235|310:113,1,146.999995513916,0|8,0:0|0:0,0:0:0:0:
263,56,82711,1,0,0:0:0:0:
187,100,82856,2,0,P|137:102|96:93,2,73.4999977569581,4|4|0,0:0|0:0|0:0,0:0:0:0:
263,56,83293,6,0,P|325:46|394:106,1,146.999995513916,4|0,0:0|0:0,0:0:0:0:
416,178,83730,2,0,P|438:235|466:268,1,73.4999977569581,8|0,0:0|0:0,0:0:0:0:
388,312,84021,2,0,P|366:369|338:402,1,73.4999977569581,0|0,0:0|0:0,0:0:0:0:
297,314,84313,1,8,0:0:0:0:
226,262,84458,6,0,B|188:250|188:250|59:265,1,146.999995513916,0|0,0:0|0:0,0:0:0:0:
24,194,84895,2,0,P|6:156|7:111,1,73.4999977569581,8|0,0:0|0:0,0:0:0:0:
92,138,85187,2,0,P|95:90|110:57,1,73.4999977569581,4|4,0:0|0:0,0:0:0:0:
184,29,85478,1,0,0:0:0:0:
177,116,85623,6,0,B|215:128|215:128|344:113,1,146.999995513916,4|0,0:0|0:0,0:0:0:0:
408,129,86060,2,0,P|442:160|461:198,1,73.4999977569581,8|0,0:0|0:0,0:0:0:0:
370,209,86352,2,0,P|363:250|337:286,1,73.4999977569581,0|0,0:0|0:0,0:0:0:0:
265,311,86643,1,8,0:0:0:0:
195,256,86788,6,0,P|150:252|116:264,2,73.4999977569581,0|0|0,0:0|0:0|0:0,0:0:0:0:
262,198,87225,2,0,P|284:129|271:58,1,146.999995513916,8|4,0:0|0:0,0:0:0:0:
190,22,87662,2,0,P|184:58|191:93,1,73.4999977569581,4|0,0:0|0:0,0:0:0:0:
134,162,87954,6,0,P|99:197|97:309,1,146.999995513916,4|0,0:0|0:0,0:0:0:0:
155,347,88390,2,0,P|199:353|238:344,1,73.4999977569581,8|0,0:0|0:0,0:0:0:0:
299,296,88682,2,0,P|335:289|371:294,1,73.4999977569581,0|0,0:0|0:0,0:0:0:0:
460,329,88973,1,8,0:0:0:0:
444,234,89119,1,0,0:0:0:0:
365,179,89264,6,0,P|330:151|316:107,1,73.4999977569581
358,38,89555,1,8,0:0:0:0:
262,39,89701,1,4,0:0:0:0:
450,120,89992,1,4,0:0:0:0:
