osu file format v14

[General]
AudioFilename: KISIDA KYODAN & THE AKEBOSI ROCKETS - GATE II ~Sekai o Koete~ (TV-size).mp3
AudioLeadIn: 0
PreviewTime: 52565
Countdown: 0
SampleSet: Normal
StackLeniency: 0.7
Mode: 3
LetterboxInBreaks: 0
SpecialStyle: 0
WidescreenStoryboard: 0

[Editor]
DistanceSpacing: 1.5
BeatDivisor: 2
GridSize: 32
TimelineZoom: 1.1

[Metadata]
Title:GATE II ~Sekai o Koete~ (TV-size)
TitleUnicode:GATE Ⅱ ~世界を超えて~ (TV-size)
Artist:KISIDA KYODAN & THE AKEBOSI ROCKETS
ArtistUnicode:岸田教団&THE明星ロケッツ
Creator:-Sh1n1-
Version:NM
Source:GATE 自衛隊 彼の地にて、斯く戦えり
Tags:opening drum 2 Jieitai Kanochi nite Kaku Tatakaeri 2nd Season ゲートShini Puxtu
BeatmapID:1030301
BeatmapSetID:482869

[Difficulty]
HPDrainRate:7
CircleSize:4
OverallDifficulty:7
ApproachRate:5
SliderMultiplier:1.4
SliderTickRate:1

[Events]
//Background and Video events
0,0,"BG.jpg",0,0
//Break Periods
//Storyboard Layer 0 (Background)
//Storyboard Layer 1 (Fail)
//Storyboard Layer 2 (Pass)
//Storyboard Layer 3 (Foreground)
//Storyboard Sound Samples

[TimingPoints]
721,291.26213592233,4,1,1,30,1,0
15866,-100,4,2,0,30,0,0
23876,-100,4,1,2,30,0,0
25041,-100,4,1,1,30,0,0
43099,-100,4,1,2,30,0,0
43682,-100,4,1,1,30,0,0
53002,-100,4,1,1,30,0,1
79798,-100,4,1,1,30,0,0
80963,-100,4,1,1,30,0,1
89992,-100,4,1,1,30,0,0

[HitObjects]
64,192,721,128,0,4507:0:0:0:0:
448,192,1303,1,0,0:0:0:0:
320,192,1740,1,0,0:0:0:0:
448,192,2177,1,0,0:0:0:0:
320,192,2468,1,0,0:0:0:0:
192,192,2759,1,8,0:0:0:0:
448,192,3051,1,8,0:0:0:0:
192,192,3342,1,8,0:0:0:0:
448,192,3487,1,8,0:0:0:0:
192,192,3779,1,8,0:0:0:0:
448,192,3924,1,8,0:0:0:0:
192,192,4216,1,8,0:0:0:0:
320,192,4507,1,4,0:0:0:0:
448,192,4507,1,4,0:0:0:0:
192,192,4798,128,8,5235:0:0:0:0:
448,192,5235,128,4,6400:0:0:0:0:
320,192,5235,1,0,0:0:0:0:
64,192,6400,1,0,0:0:0:0:
192,192,6400,1,4,0:0:0:0:
320,192,6691,1,0,0:0:0:0:
192,192,6837,1,0,0:0:0:0:
448,192,6837,1,8,0:0:0:0:
320,192,7128,1,0,0:0:0:0:
192,192,7420,1,8,0:0:0:0:
64,192,7420,1,0,0:0:0:0:
448,192,7565,1,4,0:0:0:0:
64,192,7856,1,0,0:0:0:0:
320,192,8002,1,8,0:0:0:0:
192,192,8002,1,0,0:0:0:0:
448,192,8293,1,0,0:0:0:0:
192,192,8585,1,8,0:0:0:0:
64,192,8585,1,0,0:0:0:0:
448,192,8730,1,4,0:0:0:0:
320,192,8730,1,0,0:0:0:0:
192,192,9021,1,0,0:0:0:0:
64,192,9167,1,0,0:0:0:0:
448,192,9167,1,8,0:0:0:0:
192,192,9458,1,0,0:0:0:0:
448,192,9750,1,8,0:0:0:0:
320,192,9750,1,0,0:0:0:0:
64,192,9895,1,4,0:0:0:0:
320,192,10187,1,0,0:0:0:0:
192,192,10332,1,4,0:0:0:0:
448,192,10332,1,0,0:0:0:0:
64,192,10623,128,0,11060:0:0:0:0:
320,192,11060,1,0,0:0:0:0:
448,192,11060,1,4,0:0:0:0:
192,192,11352,1,0,0:0:0:0:
64,192,11497,1,0,0:0:0:0:
320,192,11497,1,8,0:0:0:0:
192,192,11788,1,0,0:0:0:0:
448,192,12080,1,8,0:0:0:0:
320,192,12080,1,0,0:0:0:0:
64,192,12225,1,4,0:0:0:0:
320,192,12517,1,0,0:0:0:0:
192,192,12662,1,0,0:0:0:0:
448,192,12662,1,8,0:0:0:0:
64,192,12954,1,0,0:0:0:0:
448,192,13245,1,8,0:0:0:0:
320,192,13245,1,0,0:0:0:0:
192,192,13390,1,4,0:0:0:0:
64,192,13390,1,0,0:0:0:0:
320,192,13682,1,0,0:0:0:0:
64,192,13827,1,0,0:0:0:0:
448,192,13827,1,8,0:0:0:0:
320,192,14119,1,0,0:0:0:0:
192,192,14410,1,8,0:0:0:0:
320,192,14555,1,0,0:0:0:0:
448,192,14555,1,4,0:0:0:0:
192,192,14847,1,0,0:0:0:0:
320,192,14847,1,8,0:0:0:0:
64,192,15138,1,0,0:0:0:0:
192,192,15138,1,4,0:0:0:0:
192,192,15429,1,0,0:0:0:0:
320,192,15429,1,8,0:0:0:0:
448,192,15720,1,4,0:0:0:0:
64,192,15720,1,0,0:0:0:0:
192,192,16157,1,0,0:0:0:0:
320,192,16449,1,0,0:0:0:0:
448,192,16740,1,0,0:0:0:0:
320,192,17031,1,0,0:0:0:0:
192,192,17322,1,0,0:0:0:0:
320,192,17614,1,0,0:0:0:0:
448,192,17905,1,0,0:0:0:0:
64,192,18051,1,0,0:0:0:0:
192,192,18051,1,0,0:0:0:0:
320,192,18487,1,0,0:0:0:0:
448,192,18779,1,0,0:0:0:0:
320,192,19070,1,0,0:0:0:0:
64,192,19361,1,0,0:0:0:0:
192,192,19653,1,0,0:0:0:0:
320,192,19944,1,0,0:0:0:0:
448,192,20235,1,0,0:0:0:0:
64,192,20381,1,0,0:0:0:0:
192,192,20381,1,0,0:0:0:0:
320,192,20818,1,0,0:0:0:0:
192,192,21109,1,0,0:0:0:0:
64,192,21400,1,0,0:0:0:0:
192,192,21691,1,0,0:0:0:0:
320,192,21983,1,0,0:0:0:0:
192,192,22274,1,0,0:0:0:0:
64,192,22565,1,0,0:0:0:0:
320,192,22711,1,0,0:0:0:0:
448,192,22711,1,0,0:0:0:0:
192,192,23148,1,0,0:0:0:0:
320,192,23439,1,0,0:0:0:0:
64,192,23730,1,0,0:0:0:0:
448,192,23876,1,4,0:0:0:0:
320,192,23876,1,0,0:0:0:0:
192,192,24167,1,8,0:0:0:0:
320,192,24313,1,8,0:0:0:0:
64,192,24458,1,8,0:0:0:0:
448,192,24604,1,8,0:0:0:0:
64,192,24750,1,8,0:0:0:0:
320,192,24895,1,0,0:0:0:0:
448,192,24895,1,8,0:0:0:0:
192,192,25041,1,4,0:0:0:0:
64,192,25041,1,0,0:0:0:0:
320,192,25332,1,0,0:0:0:0:
64,192,25478,1,0,0:0:0:0:
192,192,25478,1,8,0:0:0:0:
448,192,25769,1,0,0:0:0:0:
320,192,26060,1,8,0:0:0:0:
192,192,26060,1,0,0:0:0:0:
64,192,26206,1,4,0:0:0:0:
448,192,26497,1,0,0:0:0:0:
320,192,26643,1,8,0:0:0:0:
192,192,26643,1,0,0:0:0:0:
64,192,26934,1,0,0:0:0:0:
448,192,27225,1,8,0:0:0:0:
320,192,27225,1,0,0:0:0:0:
192,192,27371,1,4,0:0:0:0:
320,192,27662,1,0,0:0:0:0:
64,192,27808,1,0,0:0:0:0:
192,192,27808,1,8,0:0:0:0:
320,192,28099,1,0,0:0:0:0:
448,192,28390,1,8,0:0:0:0:
64,192,28390,1,0,0:0:0:0:
192,192,28536,1,4,0:0:0:0:
320,192,28827,1,0,0:0:0:0:
448,192,28973,1,8,0:0:0:0:
64,192,28973,1,0,0:0:0:0:
192,192,29264,1,0,0:0:0:0:
448,192,29555,1,0,0:0:0:0:
320,192,29555,1,8,0:0:0:0:
64,192,29701,1,4,0:0:0:0:
192,192,29701,1,0,0:0:0:0:
320,192,29992,1,0,0:0:0:0:
192,192,30138,1,0,0:0:0:0:
64,192,30138,1,8,0:0:0:0:
448,192,30429,1,0,0:0:0:0:
64,192,30720,1,0,0:0:0:0:
192,192,30720,1,8,0:0:0:0:
320,192,30866,1,4,0:0:0:0:
192,192,31157,1,0,0:0:0:0:
448,192,31303,1,8,0:0:0:0:
320,192,31303,1,0,0:0:0:0:
64,192,31594,1,0,0:0:0:0:
192,192,31886,1,0,0:0:0:0:
320,192,31886,1,8,0:0:0:0:
448,192,32031,1,4,0:0:0:0:
320,192,32322,1,0,0:0:0:0:
192,192,32468,1,8,0:0:0:0:
64,192,32468,1,0,0:0:0:0:
448,192,32759,1,0,0:0:0:0:
192,192,33051,1,0,0:0:0:0:
64,192,33051,1,8,0:0:0:0:
320,192,33196,1,4,0:0:0:0:
448,192,33196,1,0,0:0:0:0:
64,192,33487,1,0,0:0:0:0:
320,192,33633,1,0,0:0:0:0:
192,192,33779,1,8,0:0:0:0:
448,192,33924,1,8,0:0:0:0:
448,192,34070,1,8,0:0:0:0:
64,192,34216,1,0,0:0:0:0:
192,192,34216,1,8,0:0:0:0:
320,192,34361,1,0,0:0:0:0:
448,192,34361,1,4,0:0:0:0:
64,192,34798,1,2,0:0:0:0:
192,192,34798,1,8,0:0:0:0:
320,192,35089,1,2,0:0:0:0:
448,192,35381,1,8,0:0:0:0:
64,192,35381,1,2,0:0:0:0:
320,192,35672,1,2,0:0:0:0:
192,192,35963,1,2,0:0:0:0:
448,192,35963,1,8,0:0:0:0:
64,192,36254,1,2,0:0:0:0:
192,192,36546,1,2,0:0:0:0:
320,192,36546,1,8,0:0:0:0:
448,192,36837,1,2,0:0:0:0:
320,192,37128,1,8,0:0:0:0:
64,192,37128,1,2,0:0:0:0:
192,192,37420,1,2,0:0:0:0:
320,192,37711,1,2,0:0:0:0:
448,192,37711,1,8,0:0:0:0:
64,192,38002,1,2,0:0:0:0:
192,192,38293,1,2,0:0:0:0:
448,192,38293,1,8,0:0:0:0:
320,192,38585,1,2,0:0:0:0:
64,192,38876,1,0,0:0:0:0:
192,192,38876,1,8,0:0:0:0:
320,192,39021,1,4,0:0:0:0:
448,192,39021,1,4,0:0:0:0:
192,192,39458,1,8,0:0:0:0:
64,192,39458,1,0,0:0:0:0:
448,192,39750,1,0,0:0:0:0:
320,192,40041,1,8,0:0:0:0:
64,192,40041,1,0,0:0:0:0:
192,192,40332,1,0,0:0:0:0:
64,192,40623,1,0,0:0:0:0:
448,192,40623,1,8,0:0:0:0:
320,192,40915,1,0,0:0:0:0:
192,192,41206,1,8,0:0:0:0:
64,192,41206,1,0,0:0:0:0:
448,192,41352,1,4,0:0:0:0:
320,192,41352,1,0,0:0:0:0:
192,192,41788,1,8,0:0:0:0:
64,192,41788,1,0,0:0:0:0:
320,192,42080,1,0,0:0:0:0:
448,192,42371,1,8,0:0:0:0:
192,192,42371,1,0,0:0:0:0:
320,192,42662,1,0,0:0:0:0:
64,192,42954,1,0,0:0:0:0:
192,192,42954,1,8,0:0:0:0:
320,192,43099,1,0,0:0:0:0:
448,192,43099,1,2,0:0:0:0:
192,192,43390,1,0,0:0:0:0:
320,192,43390,1,2,0:0:0:0:
64,192,43682,1,0,0:0:0:0:
192,192,43682,1,4,0:0:0:0:
448,192,43973,1,0,0:0:0:0:
320,192,44119,1,8,0:0:0:0:
64,192,44264,1,0,0:0:0:0:
448,192,44264,1,0,0:0:0:0:
192,192,44410,1,0,0:0:0:0:
192,192,44847,1,0,0:0:0:0:
448,192,45138,1,0,0:0:0:0:
64,192,45138,1,0,0:0:0:0:
320,192,45429,1,0,0:0:0:0:
192,192,45575,1,8,0:0:0:0:
64,192,45575,1,0,0:0:0:0:
448,192,45866,1,8,0:0:0:0:
320,192,45866,1,0,0:0:0:0:
64,192,46012,1,0,0:0:0:0:
192,192,46012,1,4,0:0:0:0:
320,192,46303,1,0,0:0:0:0:
64,192,46449,1,8,0:0:0:0:
448,192,46594,1,0,0:0:0:0:
320,192,46594,1,0,0:0:0:0:
192,192,46740,1,0,0:0:0:0:
320,192,47177,1,0,0:0:0:0:
64,192,47468,1,0,0:0:0:0:
448,192,47468,1,0,0:0:0:0:
192,192,47759,1,0,0:0:0:0:
320,192,47905,1,0,0:0:0:0:
448,192,47905,1,8,0:0:0:0:
192,192,48196,1,8,0:0:0:0:
64,192,48196,1,0,0:0:0:0:
448,192,48342,1,4,0:0:0:0:
320,192,48342,1,0,0:0:0:0:
64,192,48779,1,0,0:0:0:0:
320,192,48779,1,0,0:0:0:0:
192,192,49070,1,0,0:0:0:0:
448,192,49070,1,0,0:0:0:0:
320,192,49361,1,0,0:0:0:0:
448,192,49361,1,0,0:0:0:0:
320,192,49653,1,0,0:0:0:0:
64,192,49653,1,0,0:0:0:0:
448,192,49944,1,0,0:0:0:0:
192,192,49944,1,0,0:0:0:0:
192,192,50235,1,0,0:0:0:0:
64,192,50235,1,0,0:0:0:0:
448,192,50526,1,0,0:0:0:0:
320,192,50526,1,0,0:0:0:0:
64,192,50672,128,0,51691:0:0:0:0:
448,192,51691,1,8,0:0:0:0:
192,192,51837,1,8,0:0:0:0:
320,192,51837,1,4,0:0:0:0:
64,192,52128,1,0,0:0:0:0:
192,192,52274,1,0,0:0:0:0:
448,192,52420,1,0,0:0:0:0:
192,192,53002,1,0,0:0:0:0:
320,192,53002,1,4,0:0:0:0:
448,192,53293,1,0,0:0:0:0:
64,192,53439,1,0,0:0:0:0:
192,192,53439,1,8,0:0:0:0:
320,192,53730,1,0,0:0:0:0:
192,192,54021,1,0,0:0:0:0:
448,192,54021,1,8,0:0:0:0:
64,192,54167,1,4,0:0:0:0:
192,192,54458,1,0,0:0:0:0:
320,192,54604,1,0,0:0:0:0:
448,192,54604,1,8,0:0:0:0:
192,192,54895,1,0,0:0:0:0:
448,192,55187,1,8,0:0:0:0:
320,192,55187,1,0,0:0:0:0:
64,192,55332,1,0,0:0:0:0:
192,192,55332,1,4,0:0:0:0:
320,192,55623,1,0,0:0:0:0:
192,192,55769,1,0,0:0:0:0:
448,192,55769,1,8,0:0:0:0:
64,192,56060,1,0,0:0:0:0:
320,192,56352,1,0,0:0:0:0:
448,192,56352,1,8,0:0:0:0:
192,192,56497,1,4,0:0:0:0:
320,192,56788,1,0,0:0:0:0:
64,192,56934,1,0,0:0:0:0:
192,192,56934,1,8,0:0:0:0:
320,192,57225,1,0,0:0:0:0:
64,192,57517,1,0,0:0:0:0:
192,192,57517,1,8,0:0:0:0:
320,192,57662,1,0,0:0:0:0:
448,192,57662,1,4,0:0:0:0:
192,192,57954,1,0,0:0:0:0:
448,192,58099,1,8,0:0:0:0:
64,192,58099,1,0,0:0:0:0:
320,192,58390,1,0,0:0:0:0:
192,192,58682,1,0,0:0:0:0:
448,192,58682,1,8,0:0:0:0:
64,192,58827,1,4,0:0:0:0:
320,192,59119,1,0,0:0:0:0:
192,192,59264,1,8,0:0:0:0:
64,192,59264,1,0,0:0:0:0:
320,192,59555,1,0,0:0:0:0:
192,192,59847,1,8,0:0:0:0:
64,192,59847,1,0,0:0:0:0:
448,192,59992,1,4,0:0:0:0:
320,192,59992,1,0,0:0:0:0:
192,192,60284,1,0,0:0:0:0:
320,192,60429,1,8,0:0:0:0:
64,192,60429,1,0,0:0:0:0:
448,192,60720,1,0,0:0:0:0:
192,192,61012,1,0,0:0:0:0:
320,192,61012,1,8,0:0:0:0:
448,192,61157,1,4,0:0:0:0:
64,192,61157,1,0,0:0:0:0:
320,192,61449,1,0,0:0:0:0:
64,192,61594,1,0,0:0:0:0:
192,192,61594,1,8,0:0:0:0:
448,192,61886,128,0,62322:0:0:0:0:
320,192,62322,1,4,0:0:0:0:
192,192,62322,1,0,0:0:0:0:
64,192,62614,1,0,0:0:0:0:
448,192,62759,1,8,0:0:0:0:
320,192,62759,1,0,0:0:0:0:
192,192,63051,1,0,0:0:0:0:
320,192,63342,1,8,0:0:0:0:
64,192,63342,1,0,0:0:0:0:
448,192,63487,1,4,0:0:0:0:
320,192,63779,1,0,0:0:0:0:
64,192,63924,1,0,0:0:0:0:
192,192,63924,1,8,0:0:0:0:
320,192,64216,1,0,0:0:0:0:
192,192,64507,1,8,0:0:0:0:
64,192,64507,1,0,0:0:0:0:
448,192,64653,1,4,0:0:0:0:
320,192,64653,1,0,0:0:0:0:
192,192,64944,1,0,0:0:0:0:
320,192,65089,1,8,0:0:0:0:
64,192,65089,1,0,0:0:0:0:
448,192,65381,1,0,0:0:0:0:
64,192,65672,1,0,0:0:0:0:
192,192,65672,1,8,0:0:0:0:
320,192,65818,1,4,0:0:0:0:
192,192,66109,1,0,0:0:0:0:
448,192,66254,1,8,0:0:0:0:
320,192,66254,1,0,0:0:0:0:
192,192,66546,1,0,0:0:0:0:
320,192,66837,1,0,0:0:0:0:
448,192,66837,1,8,0:0:0:0:
192,192,66983,1,4,0:0:0:0:
64,192,66983,1,0,0:0:0:0:
320,192,67274,1,0,0:0:0:0:
64,192,67420,1,0,0:0:0:0:
448,192,67420,1,8,0:0:0:0:
192,192,67711,1,0,0:0:0:0:
64,192,68002,1,0,0:0:0:0:
320,192,68002,1,8,0:0:0:0:
448,192,68148,1,4,0:0:0:0:
192,192,68439,1,0,0:0:0:0:
320,192,68585,1,0,0:0:0:0:
448,192,68585,1,8,0:0:0:0:
192,192,68876,1,0,0:0:0:0:
320,192,69167,1,0,0:0:0:0:
448,192,69167,1,8,0:0:0:0:
192,192,69313,1,4,0:0:0:0:
64,192,69313,1,0,0:0:0:0:
320,192,69604,1,0,0:0:0:0:
448,192,69750,1,0,0:0:0:0:
192,192,69750,1,8,0:0:0:0:
320,192,69895,1,0,0:0:0:0:
64,192,70041,1,0,0:0:0:0:
448,192,70041,1,0,0:0:0:0:
192,192,70332,1,0,0:0:0:0:
320,192,70332,1,8,0:0:0:0:
448,192,70478,1,4,0:0:0:0:
64,192,70478,1,0,0:0:0:0:
192,192,70769,1,0,0:0:0:0:
320,192,70915,1,0,0:0:0:0:
448,192,70915,1,8,0:0:0:0:
192,192,71206,128,0,71643:0:0:0:0:
448,192,71643,1,4,0:0:0:0:
64,192,71643,1,0,0:0:0:0:
320,192,71934,1,0,0:0:0:0:
192,192,72080,1,0,0:0:0:0:
448,192,72080,1,8,0:0:0:0:
320,192,72371,1,0,0:0:0:0:
64,192,72662,1,0,0:0:0:0:
192,192,72662,1,8,0:0:0:0:
320,192,72808,1,4,0:0:0:0:
192,192,73099,1,0,0:0:0:0:
320,192,73245,1,0,0:0:0:0:
448,192,73245,1,8,0:0:0:0:
64,192,73536,1,0,0:0:0:0:
320,192,73827,1,8,0:0:0:0:
192,192,73827,1,0,0:0:0:0:
448,192,73973,1,4,0:0:0:0:
192,192,74264,1,0,0:0:0:0:
64,192,74410,1,0,0:0:0:0:
320,192,74410,1,8,0:0:0:0:
192,192,74701,1,0,0:0:0:0:
448,192,74992,1,8,0:0:0:0:
320,192,74992,1,0,0:0:0:0:
64,192,75138,1,4,0:0:0:0:
320,192,75429,1,0,0:0:0:0:
192,192,75575,1,8,0:0:0:0:
64,192,75575,1,0,0:0:0:0:
320,192,75866,1,0,0:0:0:0:
448,192,76157,1,8,0:0:0:0:
192,192,76157,1,0,0:0:0:0:
64,192,76303,1,0,0:0:0:0:
320,192,76303,1,4,0:0:0:0:
192,192,76594,1,0,0:0:0:0:
320,192,76740,1,0,0:0:0:0:
448,192,76740,1,8,0:0:0:0:
192,192,77031,1,0,0:0:0:0:
64,192,77322,1,0,0:0:0:0:
320,192,77322,1,8,0:0:0:0:
448,192,77468,1,4,0:0:0:0:
192,192,77468,1,0,0:0:0:0:
64,192,77759,1,0,0:0:0:0:
192,192,77905,1,0,0:0:0:0:
448,192,77905,1,8,0:0:0:0:
320,192,78196,1,0,0:0:0:0:
448,192,78342,1,0,0:0:0:0:
64,192,78487,1,0,0:0:0:0:
192,192,78487,1,8,0:0:0:0:
320,192,78633,1,0,0:0:0:0:
448,192,78633,1,4,0:0:0:0:
320,192,79070,1,8,0:0:0:0:
64,192,79070,1,0,0:0:0:0:
448,192,79361,1,0,0:0:0:0:
320,192,79507,1,0,0:0:0:0:
64,192,79653,1,0,0:0:0:0:
192,192,79653,1,8,0:0:0:0:
448,192,79798,1,4,0:0:0:0:
320,192,79798,1,0,0:0:0:0:
192,192,80235,1,8,0:0:0:0:
64,192,80526,128,8,80963:0:0:0:0:
320,192,80963,1,0,0:0:0:0:
448,192,80963,1,4,0:0:0:0:
320,192,81400,1,8,0:0:0:0:
192,192,81400,1,0,0:0:0:0:
64,192,81691,1,0,0:0:0:0:
192,192,81983,1,0,0:0:0:0:
320,192,81983,1,8,0:0:0:0:
448,192,82274,1,0,0:0:0:0:
192,192,82565,1,8,0:0:0:0:
64,192,82565,1,0,0:0:0:0:
320,192,82856,1,0,0:0:0:0:
448,192,82856,1,8,0:0:0:0:
192,192,83002,1,4,0:0:0:0:
64,192,83002,1,0,0:0:0:0:
64,192,83293,1,4,0:0:0:0:
448,192,83293,1,4,0:0:0:0:
192,192,83730,1,0,0:0:0:0:
320,192,83730,1,8,0:0:0:0:
448,192,84021,1,0,0:0:0:0:
320,192,84313,1,8,0:0:0:0:
64,192,84313,1,0,0:0:0:0:
192,192,84604,1,0,0:0:0:0:
448,192,84895,1,8,0:0:0:0:
320,192,84895,1,0,0:0:0:0:
192,192,85187,1,8,0:0:0:0:
64,192,85187,1,0,0:0:0:0:
448,192,85332,1,4,0:0:0:0:
320,192,85332,1,0,0:0:0:0:
64,192,85623,1,4,0:0:0:0:
448,192,85623,1,4,0:0:0:0:
320,192,86060,1,0,0:0:0:0:
448,192,86060,1,8,0:0:0:0:
192,192,86352,1,0,0:0:0:0:
64,192,86643,1,0,0:0:0:0:
320,192,86643,1,8,0:0:0:0:
448,192,86934,1,0,0:0:0:0:
64,192,87225,1,0,0:0:0:0:
192,192,87225,1,8,0:0:0:0:
448,192,87517,1,8,0:0:0:0:
320,192,87517,1,0,0:0:0:0:
64,192,87662,1,0,0:0:0:0:
192,192,87662,1,4,0:0:0:0:
64,192,87954,1,4,0:0:0:0:
448,192,87954,1,4,0:0:0:0:
448,192,88390,1,8,0:0:0:0:
320,192,88390,1,0,0:0:0:0:
192,192,88682,1,0,0:0:0:0:
64,192,88973,1,0,0:0:0:0:
320,192,88973,1,8,0:0:0:0:
448,192,89264,1,0,0:0:0:0:
320,192,89410,1,0,0:0:0:0:
192,192,89555,1,8,0:0:0:0:
64,192,89555,1,0,0:0:0:0:
320,192,89701,1,0,0:0:0:0:
448,192,89701,1,4,0:0:0:0:
448,192,89992,1,4,0:0:0:0:
64,192,89992,1,0,0:0:0:0:
