osu file format v14

[General]
AudioFilename: Gate- Jieitai Kanochi nite, Kaku Tatakaeri Season 2 OP - Opening.mp3
AudioLeadIn: 0
PreviewTime: 51417
Countdown: 0
SampleSet: Soft
StackLeniency: 0.7
Mode: 0
LetterboxInBreaks: 0
WidescreenStoryboard: 0

[Editor]
Bookmarks: 51417
DistanceSpacing: 0.8
BeatDivisor: 4
GridSize: 4
TimelineZoom: 2.7

[Metadata]
Title:GATE II: Sekai wo Koete
TitleUnicode:GATE Ⅱ ~世界を超えて~
Artist:KISIDA KYODAN & THE AKEBOSI ROCKETS
ArtistUnicode:岸田教団 & THE 明星ロケッツ チャリティー
Creator:Wou
Version:Insane
Source:GATE(ゲート)自衛隊 彼の地にて、斯く戦えり
Tags:Gate: Jieitai Kanochi nite, Kaku Tatakaeri Season 2 Opening
BeatmapID:899512
BeatmapSetID:402986

[Difficulty]
HPDrainRate:6
CircleSize:4
OverallDifficulty:7
ApproachRate:9
SliderMultiplier:1.4
SliderTickRate:1

[Events]
//Background and Video events
Video,0,"gateop.avi"
0,0,"bg.jpg",0,0
//Break Periods
//Storyboard Layer 0 (Background)
//Storyboard Layer 1 (Fail)
//Storyboard Layer 2 (Pass)
//Storyboard Layer 3 (Foreground)
//Storyboard Sound Samples

[TimingPoints]
72,291.26213592233,4,2,1,60,1,0
72,-100,4,2,1,60,0,0
3421,-153.846153846153,4,2,1,60,0,0
5314,-100,4,2,1,80,0,0
14635,-133.333333333333,4,2,1,60,0,0
21479,-100,4,2,1,60,0,0
23081,-100,4,2,2,60,0,0
24101,-100,4,2,1,80,0,0
47838,-100,4,2,1,60,0,0
49586,-200,4,2,1,60,0,0
50605,-100,4,2,1,60,0,0
51479,-181.818181818181,4,2,1,60,0,0
51916,-86.9565217391304,4,2,1,80,0,1
61237,-86.9565217391304,4,2,1,80,0,0
70557,-86.9565217391304,4,2,1,80,0,1
78712,-100,4,2,1,70,0,0

[Colours]
Combo1 : 255,255,0
Combo2 : 255,255,255
Combo3 : 128,0,128
Combo4 : 0,255,255

[HitObjects]
256,192,72,12,8,1673,0:0:0:0:
108,144,1965,5,8,0:0:0:0:
108,144,2256,1,8,0:0:0:0:
264,180,2402,1,8,0:0:0:0:
264,180,2693,1,8,0:0:0:0:
368,56,2838,1,8,0:0:0:0:
368,56,3130,1,8,0:0:0:0:
368,56,3421,6,0,L|372:128,1,68.2499968757631,12|0,0:0|0:0,0:0:0:0:
372,152,3712,1,10,0:0:0:0:
372,180,3785,1,10,0:0:0:0:
372,208,3858,1,10,0:0:0:0:
372,236,3931,1,10,0:0:0:0:
372,264,4004,1,10,0:0:0:0:
372,292,4076,1,10,0:0:0:0:
256,192,4149,12,2,5169,0:0:0:0:
272,128,5314,6,0,P|312:164|300:248,1,140,6|0,0:0|0:0,0:0:0:0:
208,324,5751,2,0,L|212:248,1,70,8|0,0:0|0:0,0:0:0:0:
148,112,6042,2,0,L|152:184,1,70
68,68,6334,1,8,0:0:0:0:
68,68,6479,6,0,P|104:40|196:36,1,140
276,144,6916,2,0,L|284:68,1,70,8|0,0:0|0:0,0:0:0:0:
312,248,7207,2,0,L|308:320,1,70
212,184,7499,1,8,0:0:0:0:
472,184,7644,6,0,L|332:184,1,140,6|0,0:0|0:0,0:0:0:0:
196,264,8081,2,0,L|268:264,1,70,8|0,0:0|0:0,0:0:0:0:
388,72,8372,2,0,L|388:144,1,70
328,240,8664,1,8,0:0:0:0:
328,239,8809,6,0,P|380:236|420:200,1,105,6|0,0:1|0:0,0:0:0:0:
344,164,9101,2,0,P|288:164|252:200,1,105,6|0,0:1|0:0,0:0:0:0:
176,208,9392,2,0,L|168:132,1,70,6|0,0:1|0:0,0:0:0:0:
208,284,9683,2,10,L|168:300,3,35
232,284,9974,6,0,P|280:304|368:276,1,140,6|0,0:0|0:0,0:0:0:0:
272,116,10411,2,0,L|288:188,1,70,8|0,0:0|0:0,0:0:0:0:
361,351,10703,2,0,L|361:275,1,70
412,108,10994,1,8,0:0:0:0:
412,108,11139,6,0,L|412:248,1,140,6|0,0:0|0:0,0:0:0:0:
304,208,11576,2,0,L|232:208,1,70,8|0,0:0|0:0,0:0:0:0:
124,124,11868,2,0,L|196:124,1,70
336,288,12159,1,8,0:0:0:0:
336,288,12305,6,0,P|376:260|380:168,1,140,6|0,0:0|0:0,0:0:0:0:
300,88,12741,2,0,L|312:172,1,70,8|0,0:0|0:0,0:0:0:0:
240,340,13033,2,0,L|244:256,1,70,8|0,0:0|0:0,0:0:0:0:
164,128,13324,1,8,0:0:0:0:
164,128,13470,2,0,L|136:268,1,140,6|6,0:0|0:0,0:0:0:0:
128,288,14052,1,6,0:0:0:0:
336,112,14343,1,6,0:0:0:0:
336,112,14635,6,0,L|336:224,1,105.000004005432,6|0,0:0|0:0,0:0:0:0:
340,320,15071,2,0,B|300:332|248:316|248:316|224:316,1,105.000004005432,8|0,0:0|0:0,0:0:0:0:
160,264,15508,2,0,L|148:332,1,52.5000020027161
88,176,15800,2,0,P|144:152|192:176,1,105.000004005432,0|8,0:0|0:0,0:0:0:0:
272,216,16237,2,0,L|276:108,1,105.000004005432,0|8,0:0|0:0,0:0:0:0:
276,24,16673,2,0,L|216:52,1,52.5000020027161
360,36,16965,6,0,L|356:156,1,105.000004005432,2|0,0:1|0:0,0:0:0:0:
444,208,17402,2,0,B|412:252|340:252,1,105.000004005432,8|0,0:0|0:0,0:0:0:0:
240,272,17838,2,0,L|172:280,1,52.5000020027161,8|0,0:0|0:0,0:0:0:0:
196,152,18130,1,0,0:0:0:0:
196,152,18275,2,0,B|192:120|228:80|228:80|248:88|268:84,1,105.000004005432,8|0,0:0|0:0,0:0:0:0:
312,216,18712,1,8,0:0:0:0:
404,60,19004,2,0,L|384:132,1,52.5000020027161
312,216,19295,6,0,P|364:204|424:204,1,105.000004005432,2|0,0:1|0:0,0:0:0:0:
460,296,19732,2,0,P|412:312|356:312,1,105.000004005432,8|0,0:0|0:0,0:0:0:0:
224,304,20169,2,0,P|192:296|116:308,1,105.000004005432,8|0,0:0|0:0,0:0:0:0:
40,248,20605,2,0,L|32:304,1,52.5000020027161
96,120,20897,2,0,L|84:180,1,52.5000020027161
224,72,21188,2,0,L|216:144,1,52.5000020027161
372,64,21479,5,0,0:0:0:0:
372,64,21625,2,0,L|372:136,1,70,2|0,0:1|0:0,0:0:0:0:
352,312,21916,2,0,L|352:236,1,70
192,160,22207,2,0,L|268:160,1,70
72,240,22499,2,0,L|144:240,1,70
264,160,22790,2,0,B|256:216|284:256|284:256|284:312|284:312|340:312,1,210,2|8,0:1|0:0,0:0:0:0:
352,312,23518,5,8,0:0:0:0:
368,312,23809,5,8,0:0:0:0:
352,136,23955,6,0,P|380:188|464:188,1,140,6|0,0:0|0:0,0:0:0:0:
424,48,24392,2,0,L|428:120,1,70,8|0,0:0|0:0,0:0:0:0:
284,320,24683,2,0,P|288:248|248:184,1,140,0|8,0:0|0:0,0:0:0:0:
120,280,25120,2,0,L|204:268,1,70
92,172,25411,2,0,L|8:184,1,70,0|8,0:0|0:0,0:0:0:0:
180,76,25703,6,0,P|196:124|280:140,1,140
324,36,26139,2,0,L|260:64,1,70,8|0,0:0|0:0,0:0:0:0:
140,208,26431,1,0,0:0:0:0:
140,208,26576,2,0,L|216:224,1,70,0|8,0:0|0:0,0:0:0:0:
316,252,26868,6,0,L|324:108,1,140
292,332,27305,2,0,P|332:336|372:320,1,70,8|0,0:0|0:0,0:0:0:0:
412,172,27596,1,0,0:0:0:0:
412,172,27741,2,0,L|404:248,1,70,0|8,0:0|0:0,0:0:0:0:
164,224,28033,2,0,L|304:224,1,140
112,144,28470,1,8,0:0:0:0:
112,144,28615,6,0,P|144:124|132:20,1,140,6|0,0:1|0:0,0:0:0:0:
16,56,29052,2,0,L|88:76,1,70,8|0,0:0|0:0,0:0:0:0:
96,232,29343,1,0,0:0:0:0:
96,232,29489,2,0,L|168:248,1,70,0|8,0:0|0:0,0:0:0:0:
260,332,29780,2,0,L|268:248,1,70
340,180,30071,2,0,L|377:239,1,70,0|8,0:0|0:0,0:0:0:0:
400,40,30363,6,0,P|356:72|272:52,1,140
184,28,30800,1,8,0:0:0:0:
184,28,30945,2,0,L|196:176,1,140
144,252,31382,1,8,0:0:0:0:
144,252,31528,2,0,P|216:264|272:228,1,140
316,128,31965,1,8,0:0:0:0:
316,128,32110,2,0,L|328:280,1,140,6|0,0:0|0:0,0:0:0:0:
336,352,32547,5,10,0:0:0:0:
336,352,32620,1,10,0:0:0:0:
336,352,32693,1,10,0:0:0:0:
404,196,32838,6,0,L|408:276,1,70,8|8,0:0|0:0,0:0:0:0:
196,164,33130,1,8,0:0:0:0:
316,64,33275,6,0,P|356:92|452:84,1,140,6|0,0:0|0:0,0:0:0:0:
404,196,33712,2,0,L|408:272,1,70,8|0,0:0|0:0,0:0:0:0:
300,340,34004,2,0,L|296:264,1,70
276,168,34295,2,0,L|276:92,1,70
200,312,34586,2,0,L|204:236,1,70
172,68,34877,2,0,L|180:152,1,70,8|0,0:0|0:0,0:0:0:0:
120,284,35169,2,0,L|128:208,1,70
180,364,35460,1,8,0:0:0:0:
180,364,35605,6,0,P|236:352|264:268,1,140
224,188,36042,1,8,0:0:0:0:
224,188,36188,2,0,P|272:180|360:224,1,140
428,360,36625,1,8,0:0:0:0:
428,360,36771,2,0,L|428:220,1,140
432,88,37207,2,0,P|388:96|352:92,1,70,8|0,0:0|0:0,0:0:0:0:
256,72,37499,2,0,L|272:216,1,140,0|8,0:0|0:0,0:0:0:0:
272,324,37936,6,0,P|208:316|160:256,1,140,6|0,0:0|0:0,0:0:0:0:
100,80,38372,1,8,0:0:0:0:
100,80,38518,2,0,L|104:224,1,140
120,364,38955,2,0,L|124:292,1,70,8|0,0:0|0:0,0:0:0:0:
216,212,39246,2,0,L|216:136,1,70
280,52,39538,1,8,0:0:0:0:
280,52,39683,2,0,P|308:100|392:120,1,140
436,40,40120,1,8,0:0:0:0:
436,40,40266,6,0,L|432:184,1,140,6|0,0:0|0:0,0:0:0:0:
448,284,40703,1,8,0:0:0:0:
448,284,40848,2,0,P|392:280|376:268,1,70
284,144,41139,2,0,L|288:220,1,70,0|8,0:0|0:0,0:0:0:0:
276,324,41431,1,0,0:0:0:0:
276,324,41576,2,0,P|228:312|180:232,1,140,0|8,0:0|0:0,0:0:0:0:
152,80,42013,6,0,B|216:52|216:52|228:112,1,105,6|0,0:0|0:0,0:0:0:0:
240,168,42305,6,0,B|304:196|304:196|316:136,1,105,6|0,0:0|0:0,0:0:0:0:
352,72,42596,6,0,P|384:108|492:116,1,140,6|0,0:0|0:0,0:0:0:0:
432,40,43033,2,0,L|424:120,1,70,10|8,0:0|0:0,0:0:0:0:
392,240,43324,2,0,L|388:316,1,70
248,340,43761,6,0,L|236:184,1,140,0|8,0:0|0:0,0:0:0:0:
184,76,44198,2,0,L|184:152,1,70
88,328,44489,2,0,P|100:280|164:216,1,140,8|8,0:0|0:0,0:0:0:0:
280,120,44926,6,0,L|280:268,1,140,6|0,0:0|0:0,0:0:0:0:
360,356,45363,2,0,L|360:284,1,70,8|8,0:0|0:0,0:0:0:0:
392,144,45654,2,0,L|396:224,1,70
108,56,46091,6,0,L|108:148,1,70
92,224,46382,2,0,P|136:220|164:208,1,70,8|0,0:0|0:0,0:0:0:0:
232,88,46673,2,0,L|232:180,1,70,0|8,0:0|0:0,0:0:0:0:
288,328,46965,2,0,L|288:248,1,70,0|8,0:0|0:0,0:0:0:0:
332,116,47256,2,0,P|376:164|448:160,1,140,6|0,0:0|0:0,0:0:0:0:
412,88,47693,5,2,0:0:0:0:
396,320,47838,2,0,L|400:244,1,70,10|10,0:0|0:0,0:0:0:0:
412,88,48130,1,10,0:0:0:0:
240,152,48275,1,10,0:0:0:0:
480,208,48421,1,10,0:0:0:0:
336,64,48567,1,10,0:0:0:0:
336,268,48712,1,10,0:0:0:0:
412,88,48858,5,10,0:0:0:0:
412,88,49004,2,0,L|412:160,1,70,8|8,0:0|0:0,0:0:0:0:
396,320,49295,2,0,L|396:244,1,70,8|8,0:0|0:0,0:0:0:0:
260,112,49586,6,0,P|216:164|48:144,1,245,6|8,0:1|0:0,0:0:0:0:
53,150,50678,1,8,0:0:0:0:
53,150,50751,1,8,0:0:0:0:
152,100,51042,5,0,0:0:0:0:
232,344,51334,5,0,0:0:0:0:
232,344,51479,2,0,L|232:232,1,96.250002937317
236,148,51916,6,0,P|264:188|376:192,1,161.000003070831,6|0,0:0|0:0,0:0:0:0:
316,44,52353,2,0,L|316:136,1,80.5000015354157,8|0,0:0|0:0,0:0:0:0:
356,348,52644,2,0,L|356:268,1,80.5000015354157
396,132,52936,1,8,0:0:0:0:
396,132,53081,6,0,P|312:152|232:124,1,161.000003070831,6|0,0:0|0:0,0:0:0:0:
152,52,53518,2,0,L|156:140,1,80.5000015354157,8|0,0:0|0:0,0:0:0:0:
152,328,53809,2,0,L|160:236,1,80.5000015354157
242,130,54101,1,8,0:0:0:0:
242,130,54246,6,0,L|238:294,1,161.000003070831,6|0,0:0|0:0,0:0:0:0:
308,372,54683,2,0,L|308:280,1,80.5000015354157,8|0,0:0|0:0,0:0:0:0:
352,128,54974,2,0,L|348:220,1,80.5000015354157
216,196,55266,1,8,0:0:0:0:
120,140,55411,6,0,L|284:140,1,161.000003070831,6|0,0:0|0:0,0:0:0:0:
364,104,55848,2,0,L|364:188,1,80.5000015354157,8|0,0:0|0:0,0:0:0:0:
368,352,56139,2,0,P|364:308|376:264,1,80.5000015354157
452,160,56431,1,8,0:0:0:0:
452,160,56576,6,0,L|444:324,1,161.000003070831,6|0,0:0|0:0,0:0:0:0:
372,272,57013,1,8,0:0:0:0:
281,140,57159,1,0,0:0:0:0:
272,352,57305,2,0,L|264:256,1,80.5000015354157
200,140,57596,1,8,0:0:0:0:
200,140,57741,6,0,P|152:176|52:152,1,161.000003070831,6|0,0:0|0:0,0:0:0:0:
116,20,58178,2,0,L|124:104,1,80.5000015354157,8|0,0:0|0:0,0:0:0:0:
128,320,58470,2,0,L|132:236,1,80.5000015354157
220,96,58761,1,8,0:0:0:0:
264,264,58906,6,0,P|264:216|332:120,1,161.000003070831,6|0,0:0|0:0,0:0:0:0:
436,224,59343,2,0,L|344:216,1,80.5000015354157,8|0,0:0|0:0,0:0:0:0:
264,264,59635,2,0,L|180:248,1,80.5000015354157,10|0,0:0|0:0,0:0:0:0:
96,128,59926,1,8,0:0:0:0:
96,128,60071,2,0,L|112:296,1,161.000003070831,6|0,0:0|0:0,0:0:0:0:
124,368,60508,1,8,0:0:0:0:
224,272,60800,6,10,L|216:232,5,40.2500007677078
208,192,61237,6,0,P|256:184|324:96,1,161.000003070831,6|0,0:0|0:0,0:0:0:0:
140,100,61673,2,0,L|224:100,1,80.5000015354157,8|0,0:0|0:0,0:0:0:0:
396,176,61965,2,0,L|312:176,1,80.5000015354157
228,276,62256,1,8,0:0:0:0:
228,276,62402,6,0,L|392:276,1,161.000003070831,6|0,0:0|0:0,0:0:0:0:
148,224,62838,2,0,P|136:272|140:304,1,80.5000015354157,8|0,0:0|0:0,0:0:0:0:
160,112,63130,2,0,P|156:64|164:24,1,80.5000015354157
80,172,63421,1,8,0:0:0:0:
80,172,63567,6,0,P|160:208|232:184,1,161.000003070831,6|0,0:0|0:0,0:0:0:0:
304,88,64004,2,0,L|300:176,1,80.5000015354157,8|0,0:0|0:0,0:0:0:0:
316,336,64295,2,0,L|320:248,1,80.5000015354157
440,144,64586,1,8,0:0:0:0:
440,144,64732,6,0,P|356:124|344:56,1,161.000003070831,6|0,0:0|0:0,0:0:0:0:
424,64,65169,5,8,0:0:0:0:
420,240,65314,1,0,0:0:0:0:
276,200,65460,2,0,L|112:200,1,161.000003070831,0|8,0:0|0:0,0:0:0:0:
72,276,65897,6,0,L|236:276,1,161.000003070831,6|0,0:0|0:0,0:0:0:0:
336,248,66334,2,0,L|320:336,1,80.5000015354157,8|0,0:0|0:0,0:0:0:0:
420,104,66625,2,0,L|412:188,1,80.5000015354157
284,100,66916,1,8,0:0:0:0:
284,100,67062,6,0,L|120:100,1,161.000003070831,6|0,0:0|0:0,0:0:0:0:
56,204,67499,2,0,L|140:204,1,80.5000015354157,8|0,0:0|0:0,0:0:0:0:
200,304,67790,2,0,L|288:304,1,80.5000015354157
368,232,68081,1,8,0:0:0:0:
368,232,68227,6,0,B|368:68,1,161.000003070831,6|0,0:0|0:0,0:0:0:0:
244,48,68664,2,0,L|248:128,1,80.5000015354157,8|0,0:0|0:0,0:0:0:0:
176,232,68955,1,8,0:0:0:0:
176,232,69246,1,8,0:0:0:0:
288,188,69392,6,0,P|328:148|428:160,1,161.000003070831,6|0,0:0|0:0,0:0:0:0:
368,308,69829,2,0,L|368:212,1,80.5000015354157,8|0,0:0|0:0,0:0:0:0:
425,77,70120,5,10,0:0:0:0:
425,77,70193,1,10,0:0:0:0:
425,77,70266,1,10,0:0:0:0:
425,77,70338,1,10,0:0:0:0:
425,77,70411,1,10,0:0:0:0:
425,77,70484,1,10,0:0:0:0:
425,77,70557,6,0,L|432:244,1,161.000003070831,6|0,0:0|0:0,0:0:0:0:
336,328,70994,2,0,L|332:236,1,80.5000015354157,8|0,0:0|0:0,0:0:0:0:
244,72,71285,1,0,0:0:0:0:
244,72,71431,2,0,P|212:128|184:144,1,80.5000015354157,0|8,0:0|0:0,0:0:0:0:
112,84,71722,6,0,P|100:168|156:224,1,161.000003070831,6|0,0:0|0:0,0:0:0:0:
224,328,72159,2,0,L|224:240,1,80.5000015354157,8|0,0:0|0:0,0:0:0:0:
392,200,72450,1,0,0:0:0:0:
308,304,72596,2,0,L|308:224,1,80.5000015354157,0|8,0:0|0:0,0:0:0:0:
328,68,72887,6,0,P|264:108|176:76,1,161.000003070831,6|0,0:0|0:0,0:0:0:0:
112,32,73324,2,0,L|120:128,1,80.5000015354157,8|0,0:0|0:0,0:0:0:0:
136,248,73615,1,0,0:0:0:0:
136,248,73761,2,0,P|164:200|204:180,1,80.5000015354157,0|8,0:0|0:0,0:0:0:0:
376,256,74052,6,0,L|204:256,1,161.000003070831,6|0,0:0|0:0,0:0:0:0:
64,252,74489,1,8,0:0:0:0:
118,112,74635,2,0,L|118:200,2,80.5000015354157
224,84,75071,1,8,0:0:0:0:
224,84,75217,6,0,P|248:128|360:128,1,161.000003070831,6|0,0:0|0:0,0:0:0:0:
420,56,75654,2,0,L|424:152,1,80.5000015354157,8|0,0:0|0:0,0:0:0:0:
404,324,75945,2,0,L|404:236,1,80.5000015354157
320,176,76237,1,8,0:0:0:0:
320,176,76382,6,0,L|156:176,1,161.000003070831,6|0,0:0|0:0,0:0:0:0:
296,92,76819,2,0,P|340:92|380:108,1,80.5000015354157,8|0,0:0|0:0,0:0:0:0:
456,172,77110,5,10,0:0:0:0:
456,172,77183,1,10,0:0:0:0:
456,172,77256,1,10,0:0:0:0:
424,288,77402,5,0,0:0:0:0:
448,88,77547,1,6,0:0:0:0:
300,168,77693,1,0,0:0:0:0:
456,172,77838,5,0,0:0:0:0:
364,64,77984,1,8,0:0:0:0:
344,280,78130,1,0,0:0:0:0:
456,172,78275,5,8,0:0:0:0:
288,92,78421,1,0,0:0:0:0:
188,204,78567,1,8,0:0:0:0:
188,204,78712,6,0,L|332:204,1,140,6|0,0:0|0:0,0:0:0:0:
136,120,79149,1,8,0:0:0:0:
136,120,79295,2,0,L|60:120,1,70,0|8,0:0|0:0,0:0:0:0:
48,220,79586,5,8,0:0:0:0:
48,220,79659,1,8,0:0:0:0:
48,220,79732,1,8,0:0:0:0:
68,240,79805,5,0,0:0:0:0:
88,260,79877,1,6,0:0:0:0:
112,276,79950,1,0,0:0:0:0:
136,288,80023,1,0,0:0:0:0:
164,296,80096,1,0,0:0:0:0:
188,308,80169,1,0,0:0:0:0:
272,200,80314,6,0,L|352:200,1,70,8|0,0:0|0:0,0:0:0:0:
440,108,80605,2,0,L|364:108,1,70
256,48,80897,2,0,L|176:48,1,70,8|0,0:0|0:0,0:0:0:0:
68,140,81188,2,0,L|156:140,1,70
180,236,81479,2,0,L|256:236,1,70,8|0,0:0|0:0,0:0:0:0:
360,176,81771,1,0,0:0:0:0:
276,56,81916,2,0,L|272:136,1,70,6|0,0:0|0:0,0:0:0:0:
243,305,82207,2,0,L|251:221,1,70,6|0,0:0|0:0,0:0:0:0:
152,88,82499,5,0,0:0:0:0:
152,88,82644,2,0,L|152:184,1,70,8|0,0:0|0:0,0:0:0:0:
164,344,82936,2,0,L|168:264,1,70
264,104,83227,2,0,L|252:180,1,70,8|0,0:0|0:0,0:0:0:0:
304,356,83518,2,0,L|292:276,1,70
400,116,83809,2,0,L|340:168,1,70,8|0,0:0|0:0,0:0:0:0:
253,173,84101,2,0,L|197:233,1,70,6|0,0:0|0:0,0:0:0:0:
112,300,84392,5,8,0:0:0:0:
112,300,84538,2,0,L|112:216,1,70,6|0,0:0|0:0,0:0:0:0:
84,120,84829,1,0,0:0:0:0:
84,120,84974,2,0,L|156:120,1,70,8|0,0:0|0:0,0:0:0:0:
228,56,85266,2,0,L|300:56,1,70
408,56,85557,2,0,L|396:128,1,70,8|0,0:0|0:0,0:0:0:0:
320,188,85848,2,0,L|308:264,1,70
208,328,86139,1,8,0:0:0:0:
208,328,86285,2,0,L|204:248,1,70
144,116,86576,2,0,L|140:192,1,70,6|0,0:0|0:0,0:0:0:0:
256,192,86795,12,10,88470,0:0:0:0:
256,192,88615,5,6,0:0:0:0:
256,192,88906,5,6,0:0:0:0:
